<?xml version="1.0" standalone="no"?>
<!DOCTYPE svg PUBLIC "-//W3C//DTD SVG 1.1//EN" "http://www.w3.org/Graphics/SVG/1.1/DTD/svg11.dtd" >
<svg xmlns="http://www.w3.org/2000/svg">
<metadata>
LAICON Brand Regular Version 18.11
Copyright (c) LINE Corporation
</metadata>
<defs>
  <font id="laicon-brand-regular" horiz-adv-x="1024">
    <font-face font-family="laicon-brand-regular"
      units-per-em="1024" ascent="896"
      descent="128"
      font-weight="400"
      font-style="Regular" />
    <missing-glyph horiz-adv-x="1024" /><glyph unicode="&#x20;" horiz-adv-x="512" d="" />
    <glyph glyph-name="demae-can"
      unicode="&#xE258;"
      horiz-adv-x="1024" d="M110 -84C103 -84 97 -84 91 -82C62 -78 25 -58 12 -16C7 4 8 27 16 48C28 77 46 115 60 146L66 160S69 165 70 167C38 197 39 246 47 278C44 299 37 361 62 407C88 454 132 470 194 469C189 477 185 485 181 494A41 41 0 0 0 162 517C152 544 127 641 201 718C255 774 322 782 372 778L482 840C496 847 511 846 523 837C539 823 567 779 550 730C544 711 532 693 520 678C536 654 546 624 548 592H966C984 597 1004 587 1013 570C1020 557 1020 540 1013 526L977 458C968 442 954 434 938 434H809C790 397 753 383 723 381C695 313 652 284 578 279L565 278H560C565 265 569 250 575 230C603 227 644 219 678 206C678 207 678 209 679 210C682 224 690 245 706 263C733 293 769 307 809 303C840 299 866 285 885 261C915 225 922 182 904 139C899 126 892 113 886 100L876 79C864 53 852 27 840 1C822 -38 781 -58 738 -52C716 -48 697 -37 681 -20C657 6 629 27 598 43C557 64 527 74 480 74H476C460 62 440 52 426 46C358 13 270 -6 209 -11L207 -16C193 -59 155 -84 111 -84H110zM140 142C132 142 125 139 122 134L116 120C102 90 85 53 74 25C71 16 70 7 72 1C78 -18 98 -22 101 -22C115 -24 139 -24 149 4C151 10 153 18 154 23C158 36 170 48 184 49C241 51 333 69 400 101C417 109 436 120 446 128A33 33 0 0 0 465 135H479C539 136 578 122 626 97C664 78 697 53 726 21C733 14 740 10 748 8C763 6 778 13 784 27C796 52 808 78 820 103L830 126C836 138 842 149 846 161C856 184 852 203 837 222C828 233 816 240 801 241C781 243 764 237 750 221C744 215 740 207 737 194C737 194 728 158 724 151C717 138 701 132 687 137L660 146C621 162 565 170 550 170C537 170 525 180 522 193C504 250 499 268 486 292C481 302 481 313 487 322S502 337 513 337C529 337 544 338 561 339L573 340C629 344 653 363 672 421C677 435 690 443 705 441C712 440 749 439 758 472A31 31 0 0 0 787 495H927L945 530H574L592 494C601 494 609 490 615 484A31 31 0 0 0 623 460C621 444 617 407 579 390C541 374 475 381 450 388C429 393 414 401 413 402A30 30 0 0 0 397 430C397 442 404 452 415 457C446 471 467 504 476 522C483 539 487 557 487 575C487 609 477 638 457 658A30 30 0 0 0 449 681C449 690 453 698 460 703C474 716 488 734 492 748C495 757 494 766 492 774L394 718A30 30 0 0 0 375 715C338 720 286 716 246 674C204 631 209 578 217 548C218 548 218 547 219 547C227 543 233 536 235 526C246 482 292 460 319 451C335 445 344 429 340 413C336 398 321 388 305 391C155 422 130 401 117 376C101 348 105 297 109 281C110 276 109 271 108 267C105 257 99 218 117 208C124 204 142 201 155 207C166 212 173 223 177 239C177 239 179 253 191 265C195 268 206 282 196 295C186 291 177 292 169 297A29 29 0 0 0 156 321C156 325 156 341 168 354C175 361 186 369 205 367C223 366 268 358 286 354L302 350C310 347 318 341 322 333C341 291 355 262 379 179C385 163 375 146 359 141L348 137C300 122 233 100 150 139A24 24 0 0 1 141 140L140 142zM217 183C252 177 283 183 311 192C294 243 284 267 271 295H270S264 296 261 297C266 267 251 239 235 223C230 206 224 193 217 183H217zM238 231L236 224C238 227 238 230 238 231zM497 443C518 442 539 442 551 446A38 38 0 0 0 544 456L527 487C522 477 511 460 497 443H497zM958 556S958 554 958 554V556H958z" />
    <glyph glyph-name="demae-can-1"
      unicode="&#x64;&#x65;&#x6D;&#x61;&#x65;&#x5F;&#x63;&#x61;&#x6E;"
      horiz-adv-x="1024" d="M110 -84C103 -84 97 -84 91 -82C62 -78 25 -58 12 -16C7 4 8 27 16 48C28 77 46 115 60 146L66 160S69 165 70 167C38 197 39 246 47 278C44 299 37 361 62 407C88 454 132 470 194 469C189 477 185 485 181 494A41 41 0 0 0 162 517C152 544 127 641 201 718C255 774 322 782 372 778L482 840C496 847 511 846 523 837C539 823 567 779 550 730C544 711 532 693 520 678C536 654 546 624 548 592H966C984 597 1004 587 1013 570C1020 557 1020 540 1013 526L977 458C968 442 954 434 938 434H809C790 397 753 383 723 381C695 313 652 284 578 279L565 278H560C565 265 569 250 575 230C603 227 644 219 678 206C678 207 678 209 679 210C682 224 690 245 706 263C733 293 769 307 809 303C840 299 866 285 885 261C915 225 922 182 904 139C899 126 892 113 886 100L876 79C864 53 852 27 840 1C822 -38 781 -58 738 -52C716 -48 697 -37 681 -20C657 6 629 27 598 43C557 64 527 74 480 74H476C460 62 440 52 426 46C358 13 270 -6 209 -11L207 -16C193 -59 155 -84 111 -84H110zM140 142C132 142 125 139 122 134L116 120C102 90 85 53 74 25C71 16 70 7 72 1C78 -18 98 -22 101 -22C115 -24 139 -24 149 4C151 10 153 18 154 23C158 36 170 48 184 49C241 51 333 69 400 101C417 109 436 120 446 128A33 33 0 0 0 465 135H479C539 136 578 122 626 97C664 78 697 53 726 21C733 14 740 10 748 8C763 6 778 13 784 27C796 52 808 78 820 103L830 126C836 138 842 149 846 161C856 184 852 203 837 222C828 233 816 240 801 241C781 243 764 237 750 221C744 215 740 207 737 194C737 194 728 158 724 151C717 138 701 132 687 137L660 146C621 162 565 170 550 170C537 170 525 180 522 193C504 250 499 268 486 292C481 302 481 313 487 322S502 337 513 337C529 337 544 338 561 339L573 340C629 344 653 363 672 421C677 435 690 443 705 441C712 440 749 439 758 472A31 31 0 0 0 787 495H927L945 530H574L592 494C601 494 609 490 615 484A31 31 0 0 0 623 460C621 444 617 407 579 390C541 374 475 381 450 388C429 393 414 401 413 402A30 30 0 0 0 397 430C397 442 404 452 415 457C446 471 467 504 476 522C483 539 487 557 487 575C487 609 477 638 457 658A30 30 0 0 0 449 681C449 690 453 698 460 703C474 716 488 734 492 748C495 757 494 766 492 774L394 718A30 30 0 0 0 375 715C338 720 286 716 246 674C204 631 209 578 217 548C218 548 218 547 219 547C227 543 233 536 235 526C246 482 292 460 319 451C335 445 344 429 340 413C336 398 321 388 305 391C155 422 130 401 117 376C101 348 105 297 109 281C110 276 109 271 108 267C105 257 99 218 117 208C124 204 142 201 155 207C166 212 173 223 177 239C177 239 179 253 191 265C195 268 206 282 196 295C186 291 177 292 169 297A29 29 0 0 0 156 321C156 325 156 341 168 354C175 361 186 369 205 367C223 366 268 358 286 354L302 350C310 347 318 341 322 333C341 291 355 262 379 179C385 163 375 146 359 141L348 137C300 122 233 100 150 139A24 24 0 0 1 141 140L140 142zM217 183C252 177 283 183 311 192C294 243 284 267 271 295H270S264 296 261 297C266 267 251 239 235 223C230 206 224 193 217 183H217zM238 231L236 224C238 227 238 230 238 231zM497 443C518 442 539 442 551 446A38 38 0 0 0 544 456L527 487C522 477 511 460 497 443H497zM958 556S958 554 958 554V556H958z" />
    <glyph glyph-name="line-account-book"
      unicode="&#xE10D;"
      horiz-adv-x="1024" d="M527 842L531 840L569 812L512 771L512 772L129 493V-11H895V495L569 730L626 772L947 539A33 33 0 0 0 961 518L961 513V-19C961 -49 938 -74 909 -78L902 -78H122C91 -78 66 -55 63 -25L63 -19V510A33 33 0 0 0 72 534L76 537L492 840A33 33 0 0 0 527 842zM364 234C387 234 405 215 405 193C405 170 387 152 364 152C342 152 323 170 323 193C323 215 342 234 364 234zM669 226A33 33 0 0 0 674 160L669 159H491A33 33 0 0 0 486 226L491 226H669zM364 389C387 389 405 371 405 348C405 326 387 307 364 307A41 41 0 0 0 323 348C323 371 342 389 364 389zM669 382A33 33 0 0 0 674 316L669 315H491A33 33 0 0 0 486 381L491 382H669z" />
    <glyph glyph-name="line-account-book-1"
      unicode="&#x6C;&#x69;&#x6E;&#x65;&#x5F;&#x61;&#x63;&#x63;&#x6F;&#x75;&#x6E;&#x74;&#x5F;&#x62;&#x6F;&#x6F;&#x6B;"
      horiz-adv-x="1024" d="M527 842L531 840L569 812L512 771L512 772L129 493V-11H895V495L569 730L626 772L947 539A33 33 0 0 0 961 518L961 513V-19C961 -49 938 -74 909 -78L902 -78H122C91 -78 66 -55 63 -25L63 -19V510A33 33 0 0 0 72 534L76 537L492 840A33 33 0 0 0 527 842zM364 234C387 234 405 215 405 193C405 170 387 152 364 152C342 152 323 170 323 193C323 215 342 234 364 234zM669 226A33 33 0 0 0 674 160L669 159H491A33 33 0 0 0 486 226L491 226H669zM364 389C387 389 405 371 405 348C405 326 387 307 364 307A41 41 0 0 0 323 348C323 371 342 389 364 389zM669 382A33 33 0 0 0 674 316L669 315H491A33 33 0 0 0 486 381L491 382H669z" />
    <glyph glyph-name="line-air"
      unicode="&#xE152;"
      horiz-adv-x="1024" d="M93 896L156 745C176 698 201 656 236 615C253 599 280 573 314 541L364 494L420 443C469 397 496 339 498 259C498 237 498 211 498 179L498 -128L391 -28C294 64 236 119 216 140L200 157C138 224 93 310 93 377L93 520L93 523A218 218 0 0 0 92 534L93 566L93 896zM931 896L931 572L932 534A218 218 0 0 0 931 523L931 520L931 377C931 310 886 224 824 157L808 140C806 138 804 136 802 134L795 126C762 94 691 27 581 -77L526 -128L526 179C526 211 526 237 526 259C528 339 555 397 604 443L660 494L710 541C744 573 771 599 788 615C823 656 848 698 868 745L931 896zM158 608L158 577L158 533L159 522C159 512 161 503 164 492C171 474 183 456 200 435L223 407C230 399 240 389 254 375L311 320C313 318 315 317 317 315L330 304L350 287A159 159 0 0 0 358 278L362 275C369 267 372 261 372 250V176L317 225L159 373L159 368C163 321 199 255 249 201L259 190C264 184 281 168 309 141L433 23L433 86L433 258C431 319 412 361 375 395L319 446L258 504A4788 4788 0 0 0 218 541L188 571A567 567 0 0 0 162 603L158 608zM866 608L862 603C854 592 845 581 836 571L806 541A4788 4788 0 0 0 766 504L705 446L649 395C612 361 593 319 591 258L591 86L591 23L702 128C738 162 759 183 765 190L775 201C825 255 861 321 865 368L865 373L707 225L652 176V250C652 261 655 267 662 275L666 278A159 159 0 0 0 674 287L694 304L707 315C709 317 711 318 713 320L770 375C784 389 794 399 801 407L824 435C841 456 852 474 860 492C863 503 865 512 865 522L866 533L865 577L866 608z" />
    <glyph glyph-name="line-air-1"
      unicode="&#x6C;&#x69;&#x6E;&#x65;&#x5F;&#x61;&#x69;&#x72;"
      horiz-adv-x="1024" d="M93 896L156 745C176 698 201 656 236 615C253 599 280 573 314 541L364 494L420 443C469 397 496 339 498 259C498 237 498 211 498 179L498 -128L391 -28C294 64 236 119 216 140L200 157C138 224 93 310 93 377L93 520L93 523A218 218 0 0 0 92 534L93 566L93 896zM931 896L931 572L932 534A218 218 0 0 0 931 523L931 520L931 377C931 310 886 224 824 157L808 140C806 138 804 136 802 134L795 126C762 94 691 27 581 -77L526 -128L526 179C526 211 526 237 526 259C528 339 555 397 604 443L660 494L710 541C744 573 771 599 788 615C823 656 848 698 868 745L931 896zM158 608L158 577L158 533L159 522C159 512 161 503 164 492C171 474 183 456 200 435L223 407C230 399 240 389 254 375L311 320C313 318 315 317 317 315L330 304L350 287A159 159 0 0 0 358 278L362 275C369 267 372 261 372 250V176L317 225L159 373L159 368C163 321 199 255 249 201L259 190C264 184 281 168 309 141L433 23L433 86L433 258C431 319 412 361 375 395L319 446L258 504A4788 4788 0 0 0 218 541L188 571A567 567 0 0 0 162 603L158 608zM866 608L862 603C854 592 845 581 836 571L806 541A4788 4788 0 0 0 766 504L705 446L649 395C612 361 593 319 591 258L591 86L591 23L702 128C738 162 759 183 765 190L775 201C825 255 861 321 865 368L865 373L707 225L652 176V250C652 261 655 267 662 275L666 278A159 159 0 0 0 674 287L694 304L707 315C709 317 711 318 713 320L770 375C784 389 794 399 801 407L824 435C841 456 852 474 860 492C863 503 865 512 865 522L866 533L865 577L866 608z" />
    <glyph glyph-name="line-b612"
      unicode="&#xE10F;"
      horiz-adv-x="1024" d="M649 744L650 744C668 743 674 730 675 723L675 722C674 720 662 511 668 385C674 253 677 151 671 82C677 82 685 83 692 83L694 83C699 83 701 83 704 83A164 164 0 0 0 713 83C714 83 716 83 717 83A30 30 0 0 0 721 83C726 83 732 83 736 79C741 75 745 64 745 57C745 49 741 38 736 34C730 29 723 29 720 29L716 29L713 29H696C664 29 602 28 571 24A22 22 0 0 0 569 24A107 107 0 0 0 565 24C564 24 562 24 562 24L560 24L560 24L559 24C552 25 538 32 537 50C537 58 539 69 544 73C550 81 559 82 560 82L560 82C563 81 576 81 588 81L595 81C605 81 611 82 615 82C617 97 624 168 612 412C608 503 610 564 613 592C595 572 559 534 513 510A25 25 0 0 0 500 507C494 507 485 509 478 521C470 533 473 543 476 549C480 555 486 560 489 562L491 563C497 567 520 583 545 607C593 652 610 691 615 716L615 717L616 717A25 25 0 0 1 617 721C619 730 625 736 629 739C634 742 641 744 647 744L649 744zM829 703L831 703C864 702 890 691 908 669C920 655 929 636 933 614C937 592 937 567 933 540C924 481 903 424 882 369C870 337 858 304 848 272C830 209 833 135 835 116C851 116 916 118 919 118L920 118C925 118 941 116 942 92C943 69 927 63 921 62L920 62C910 62 827 61 795 60L795 60C791 60 787 61 784 62L784 62C784 63 780 65 779 72C778 76 777 85 777 98A435 435 0 0 1 777 104C776 132 773 206 790 278C799 316 818 363 831 395C835 404 838 412 840 418C863 477 875 529 876 550L876 551C877 566 878 589 872 609C866 631 854 643 835 644A122 122 0 0 1 828 644C789 644 779 623 769 601C766 596 764 590 761 585L760 584C759 582 754 577 744 575A19 19 0 0 0 740 575C735 575 726 576 721 579C709 587 707 595 707 603C707 610 711 620 711 622C712 624 717 643 733 662C749 681 777 703 827 703C828 703 830 703 831 703zM430 661C438 661 445 658 451 652C458 645 459 637 459 632C459 626 457 620 454 616C452 614 444 605 441 603C422 585 404 561 390 532C378 509 369 482 361 453A524 524 0 0 1 348 373C353 376 361 378 371 378C372 378 373 378 374 378C384 377 403 373 419 350C436 327 444 290 445 240C445 197 441 174 436 155C428 120 415 95 397 80C382 68 369 67 363 67A26 26 0 0 0 361 67C358 67 343 68 327 81C305 99 291 131 286 175C282 212 280 239 285 320C289 378 297 432 309 478C319 516 332 550 347 578C372 626 397 646 407 652A76 76 0 0 0 417 658A31 31 0 0 0 430 661zM108 671C130 671 167 663 200 642C225 625 256 595 258 544C259 519 256 494 247 471C240 452 230 434 218 418C204 400 191 387 182 380C203 373 219 356 229 332C235 318 238 304 239 297L240 293A38 38 0 0 0 240 292C242 254 239 219 230 189C222 165 211 143 196 125C171 96 145 85 143 84C135 81 120 77 107 75L100 74L99 74C96 74 93 75 91 76L90 76L90 76L89 76C86 78 84 82 84 88C84 95 83 104 83 115C83 150 82 201 82 249L82 280C82 315 83 346 84 363C85 385 86 443 86 502L86 575A16591 16591 0 0 1 85 652C85 658 87 662 88 663L88 664L89 665C92 669 98 671 102 671A96 96 0 0 0 108 671zM367 316C352 316 346 299 344 294C340 281 340 272 339 247L339 238L339 237C338 145 360 130 364 128L364 128L364 128C366 128 370 131 375 141C379 153 385 179 386 232C386 275 381 296 376 306C373 313 370 315 369 316L368 316L368 316L367 316L367 316zM139 343L138 145C143 149 150 155 157 164C179 195 183 235 183 264C182 328 154 340 139 343zM142 610L140 411A157 157 0 0 1 167 437C191 466 202 500 201 538C200 567 189 588 168 600C158 606 148 609 142 610z" />
    <glyph glyph-name="line-b612-1"
      unicode="&#x6C;&#x69;&#x6E;&#x65;&#x5F;&#x62;&#x36;&#x31;&#x32;"
      horiz-adv-x="1024" d="M649 744L650 744C668 743 674 730 675 723L675 722C674 720 662 511 668 385C674 253 677 151 671 82C677 82 685 83 692 83L694 83C699 83 701 83 704 83A164 164 0 0 0 713 83C714 83 716 83 717 83A30 30 0 0 0 721 83C726 83 732 83 736 79C741 75 745 64 745 57C745 49 741 38 736 34C730 29 723 29 720 29L716 29L713 29H696C664 29 602 28 571 24A22 22 0 0 0 569 24A107 107 0 0 0 565 24C564 24 562 24 562 24L560 24L560 24L559 24C552 25 538 32 537 50C537 58 539 69 544 73C550 81 559 82 560 82L560 82C563 81 576 81 588 81L595 81C605 81 611 82 615 82C617 97 624 168 612 412C608 503 610 564 613 592C595 572 559 534 513 510A25 25 0 0 0 500 507C494 507 485 509 478 521C470 533 473 543 476 549C480 555 486 560 489 562L491 563C497 567 520 583 545 607C593 652 610 691 615 716L615 717L616 717A25 25 0 0 1 617 721C619 730 625 736 629 739C634 742 641 744 647 744L649 744zM829 703L831 703C864 702 890 691 908 669C920 655 929 636 933 614C937 592 937 567 933 540C924 481 903 424 882 369C870 337 858 304 848 272C830 209 833 135 835 116C851 116 916 118 919 118L920 118C925 118 941 116 942 92C943 69 927 63 921 62L920 62C910 62 827 61 795 60L795 60C791 60 787 61 784 62L784 62C784 63 780 65 779 72C778 76 777 85 777 98A435 435 0 0 1 777 104C776 132 773 206 790 278C799 316 818 363 831 395C835 404 838 412 840 418C863 477 875 529 876 550L876 551C877 566 878 589 872 609C866 631 854 643 835 644A122 122 0 0 1 828 644C789 644 779 623 769 601C766 596 764 590 761 585L760 584C759 582 754 577 744 575A19 19 0 0 0 740 575C735 575 726 576 721 579C709 587 707 595 707 603C707 610 711 620 711 622C712 624 717 643 733 662C749 681 777 703 827 703C828 703 830 703 831 703zM430 661C438 661 445 658 451 652C458 645 459 637 459 632C459 626 457 620 454 616C452 614 444 605 441 603C422 585 404 561 390 532C378 509 369 482 361 453A524 524 0 0 1 348 373C353 376 361 378 371 378C372 378 373 378 374 378C384 377 403 373 419 350C436 327 444 290 445 240C445 197 441 174 436 155C428 120 415 95 397 80C382 68 369 67 363 67A26 26 0 0 0 361 67C358 67 343 68 327 81C305 99 291 131 286 175C282 212 280 239 285 320C289 378 297 432 309 478C319 516 332 550 347 578C372 626 397 646 407 652A76 76 0 0 0 417 658A31 31 0 0 0 430 661zM108 671C130 671 167 663 200 642C225 625 256 595 258 544C259 519 256 494 247 471C240 452 230 434 218 418C204 400 191 387 182 380C203 373 219 356 229 332C235 318 238 304 239 297L240 293A38 38 0 0 0 240 292C242 254 239 219 230 189C222 165 211 143 196 125C171 96 145 85 143 84C135 81 120 77 107 75L100 74L99 74C96 74 93 75 91 76L90 76L90 76L89 76C86 78 84 82 84 88C84 95 83 104 83 115C83 150 82 201 82 249L82 280C82 315 83 346 84 363C85 385 86 443 86 502L86 575A16591 16591 0 0 1 85 652C85 658 87 662 88 663L88 664L89 665C92 669 98 671 102 671A96 96 0 0 0 108 671zM367 316C352 316 346 299 344 294C340 281 340 272 339 247L339 238L339 237C338 145 360 130 364 128L364 128L364 128C366 128 370 131 375 141C379 153 385 179 386 232C386 275 381 296 376 306C373 313 370 315 369 316L368 316L368 316L367 316L367 316zM139 343L138 145C143 149 150 155 157 164C179 195 183 235 183 264C182 328 154 340 139 343zM142 610L140 411A157 157 0 0 1 167 437C191 466 202 500 201 538C200 567 189 588 168 600C158 606 148 609 142 610z" />
    <glyph glyph-name="line-beacon"
      unicode="&#xE188;"
      horiz-adv-x="1024" d="M854 121A34 34 0 0 0 829 178A444 444 0 0 1 832 798A34 34 0 0 0 880 845A512 512 0 0 0 878 131A34 34 0 0 0 854 121zM201 124A34 34 0 0 1 201 172A444 444 0 0 0 199 805A34 34 0 1 1 151 853A512 512 0 0 1 154 124A34 34 0 0 1 201 124zM337 260A34 34 0 0 1 336 307A253 253 0 0 0 334 669A34 34 0 0 1 287 717A320 320 0 0 1 289 259A34 34 0 0 1 337 260zM742 267A320 320 0 0 1 745 709A34 34 0 1 1 696 663A252 252 0 0 0 694 314A34 34 0 0 1 742 267zM645 484A126 126 0 1 1 485 362V-61A34 34 0 0 1 553 -61V363A126 126 0 0 1 645 484z" />
    <glyph glyph-name="line-beacon-1"
      unicode="&#x6C;&#x69;&#x6E;&#x65;&#x5F;&#x62;&#x65;&#x61;&#x63;&#x6F;&#x6E;"
      horiz-adv-x="1024" d="M854 121A34 34 0 0 0 829 178A444 444 0 0 1 832 798A34 34 0 0 0 880 845A512 512 0 0 0 878 131A34 34 0 0 0 854 121zM201 124A34 34 0 0 1 201 172A444 444 0 0 0 199 805A34 34 0 1 1 151 853A512 512 0 0 1 154 124A34 34 0 0 1 201 124zM337 260A34 34 0 0 1 336 307A253 253 0 0 0 334 669A34 34 0 0 1 287 717A320 320 0 0 1 289 259A34 34 0 0 1 337 260zM742 267A320 320 0 0 1 745 709A34 34 0 1 1 696 663A252 252 0 0 0 694 314A34 34 0 0 1 742 267zM645 484A126 126 0 1 1 485 362V-61A34 34 0 0 1 553 -61V363A126 126 0 0 1 645 484z" />
    <glyph glyph-name="line-bill-split"
      unicode="&#xE110;"
      horiz-adv-x="1024" d="M849 829C881 829 908 802 908 770V13L802 -61L729 -10L657 -61L584 -10L512 -61L440 -10L367 -61L295 -10L222 -61L116 13V770C116 802 143 829 175 829zM841 762H183V48L222 20L295 71L367 20L440 71L512 20L584 71L657 20L729 71L802 20L841 48V762zM710 311V244H619V311H710zM559 311V244H318V311H559zM710 446V380H619V446H710zM559 446V380H318V446H559zM559 582V516H318V582H559zM710 582V516H619V582H710z" />
    <glyph glyph-name="line-bill-split-1"
      unicode="&#x6C;&#x69;&#x6E;&#x65;&#x5F;&#x62;&#x69;&#x6C;&#x6C;&#x5F;&#x73;&#x70;&#x6C;&#x69;&#x74;"
      horiz-adv-x="1024" d="M849 829C881 829 908 802 908 770V13L802 -61L729 -10L657 -61L584 -10L512 -61L440 -10L367 -61L295 -10L222 -61L116 13V770C116 802 143 829 175 829zM841 762H183V48L222 20L295 71L367 20L440 71L512 20L584 71L657 20L729 71L802 20L841 48V762zM710 311V244H619V311H710zM559 311V244H318V311H559zM710 446V380H619V446H710zM559 446V380H318V446H559zM559 582V516H318V582H559zM710 582V516H619V582H710z" />
    <glyph glyph-name="line-bitmax"
      unicode="&#xE111;"
      horiz-adv-x="1024" d="M893 672L569 861A113 113 0 0 1 455 861L131 673C115 663 102 650 92 635A34 34 0 0 1 89 631A114 114 0 0 1 74 573V195C74 154 96 116 131 95L455 -93C490 -114 534 -114 569 -93L893 96A116 116 0 0 1 950 195V573C950 594 944 614 935 630A33 33 0 0 1 931 636A118 118 0 0 1 893 672zM825 528L883 562V195A49 49 0 0 0 859 153L535 -36A47 47 0 0 0 488 -36L165 153A49 49 0 0 0 141 195V562L337 448V284C337 266 346 250 362 241L487 168L487 168C503 159 521 159 536 168L662 241A50 50 0 0 1 687 284V448L825 528zM850 620L791 586L754 564L537 691L536 692A49 49 0 0 1 487 692L270 564L174 620L488 804A47 47 0 0 0 536 804L850 620zM688 526L637 496A33 33 0 0 1 630 491L630 490A33 33 0 0 1 620 467V294L512 231L403 294V467A33 33 0 0 1 387 495L335 526L512 629L688 526z" />
    <glyph glyph-name="line-bitmax-1"
      unicode="&#x6C;&#x69;&#x6E;&#x65;&#x5F;&#x62;&#x69;&#x74;&#x6D;&#x61;&#x78;"
      horiz-adv-x="1024" d="M893 672L569 861A113 113 0 0 1 455 861L131 673C115 663 102 650 92 635A34 34 0 0 1 89 631A114 114 0 0 1 74 573V195C74 154 96 116 131 95L455 -93C490 -114 534 -114 569 -93L893 96A116 116 0 0 1 950 195V573C950 594 944 614 935 630A33 33 0 0 1 931 636A118 118 0 0 1 893 672zM825 528L883 562V195A49 49 0 0 0 859 153L535 -36A47 47 0 0 0 488 -36L165 153A49 49 0 0 0 141 195V562L337 448V284C337 266 346 250 362 241L487 168L487 168C503 159 521 159 536 168L662 241A50 50 0 0 1 687 284V448L825 528zM850 620L791 586L754 564L537 691L536 692A49 49 0 0 1 487 692L270 564L174 620L488 804A47 47 0 0 0 536 804L850 620zM688 526L637 496A33 33 0 0 1 630 491L630 490A33 33 0 0 1 620 467V294L512 231L403 294V467A33 33 0 0 1 387 495L335 526L512 629L688 526z" />
    <glyph glyph-name="line-blockchain"
      unicode="&#xE16E;"
      horiz-adv-x="1024" d="M495 878A38 38 0 0 0 522 882L527 880L532 878L730 765A38 38 0 0 0 750 732L750 543L753 540C812 493 842 447 858 380L1004 297A38 38 0 0 0 1023 264V38A38 38 0 0 0 1004 5L805 -110A38 38 0 0 0 767 -110L579 -2C556 -7 531 -9 504 -9C485 -9 468 -7 444 -2L258 -110A38 38 0 0 0 220 -110L20 5A38 38 0 0 0 1 38V264A38 38 0 0 0 20 297L157 374C164 464 201 531 274 580L274 732A38 38 0 0 0 294 765zM787 344L614 247L614 79C629 86 643 95 657 105A33 33 0 0 0 697 52A340 340 0 0 0 660 28L785 -43L785 149L955 248L801 336L798 336L798 338L787 344zM240 344L67 247V55L238 -43L238 149L408 248L240 344zM276 495L274 494C253 471 239 445 231 413A38 38 0 0 0 249 414L254 412L259 410L457 297A38 38 0 0 0 476 264L476 60C487 58 495 57 504 57C520 57 534 58 548 60L548 264A38 38 0 0 0 567 297L768 410A38 38 0 0 0 776 413C765 435 750 453 729 473L531 359A38 38 0 0 0 493 358L293 473A38 38 0 0 0 276 495zM513 812L340 715V523L511 425V617L681 716L513 812z" />
    <glyph glyph-name="line-blockchain-1"
      unicode="&#x6C;&#x69;&#x6E;&#x65;&#x5F;&#x62;&#x6C;&#x6F;&#x63;&#x6B;&#x63;&#x68;&#x61;&#x69;&#x6E;"
      horiz-adv-x="1024" d="M495 878A38 38 0 0 0 522 882L527 880L532 878L730 765A38 38 0 0 0 750 732L750 543L753 540C812 493 842 447 858 380L1004 297A38 38 0 0 0 1023 264V38A38 38 0 0 0 1004 5L805 -110A38 38 0 0 0 767 -110L579 -2C556 -7 531 -9 504 -9C485 -9 468 -7 444 -2L258 -110A38 38 0 0 0 220 -110L20 5A38 38 0 0 0 1 38V264A38 38 0 0 0 20 297L157 374C164 464 201 531 274 580L274 732A38 38 0 0 0 294 765zM787 344L614 247L614 79C629 86 643 95 657 105A33 33 0 0 0 697 52A340 340 0 0 0 660 28L785 -43L785 149L955 248L801 336L798 336L798 338L787 344zM240 344L67 247V55L238 -43L238 149L408 248L240 344zM276 495L274 494C253 471 239 445 231 413A38 38 0 0 0 249 414L254 412L259 410L457 297A38 38 0 0 0 476 264L476 60C487 58 495 57 504 57C520 57 534 58 548 60L548 264A38 38 0 0 0 567 297L768 410A38 38 0 0 0 776 413C765 435 750 453 729 473L531 359A38 38 0 0 0 493 358L293 473A38 38 0 0 0 276 495zM513 812L340 715V523L511 425V617L681 716L513 812z" />
    <glyph glyph-name="line-buzz"
      unicode="&#xE112;"
      horiz-adv-x="1024" d="M916 822A33 33 0 0 0 950 788V-20A33 33 0 0 0 916 -54H512A33 33 0 0 0 479 -20V351H108A33 33 0 0 0 75 379L74 384V788A33 33 0 0 0 108 822zM883 351H545V13H883V351zM883 755H545V417H883V755zM479 755H141V417H479V755z" />
    <glyph glyph-name="line-buzz-1"
      unicode="&#x6C;&#x69;&#x6E;&#x65;&#x5F;&#x62;&#x75;&#x7A;&#x7A;"
      horiz-adv-x="1024" d="M916 822A33 33 0 0 0 950 788V-20A33 33 0 0 0 916 -54H512A33 33 0 0 0 479 -20V351H108A33 33 0 0 0 75 379L74 384V788A33 33 0 0 0 108 822zM883 351H545V13H883V351zM883 755H545V417H883V755zM479 755H141V417H479V755z" />
    <glyph glyph-name="line-camera"
      unicode="&#xE113;"
      horiz-adv-x="1024" d="M762 837C874 837 965 746 965 634V134C965 22 874 -69 762 -69H262C150 -69 59 22 59 134V635C59 746 150 837 261 837zM762 771H261C187 771 125 709 125 635V134C125 59 187 -3 262 -3H762C837 -3 899 59 899 134V634C899 709 837 771 762 771zM512 593C627 593 721 499 721 384C721 269 627 175 512 175C397 175 303 269 303 384C303 499 397 593 512 593zM512 526C433 526 370 463 370 384C370 305 433 242 512 242C591 242 654 305 654 384C654 463 591 526 512 526zM512 471C560 471 599 432 599 384S560 297 512 297S425 336 425 384S464 471 512 471zM271 653A43 43 0 0 0 301 640A43 43 0 1 0 240 640A43 43 0 0 0 271 653z" />
    <glyph glyph-name="line-camera-1"
      unicode="&#x6C;&#x69;&#x6E;&#x65;&#x5F;&#x63;&#x61;&#x6D;&#x65;&#x72;&#x61;"
      horiz-adv-x="1024" d="M762 837C874 837 965 746 965 634V134C965 22 874 -69 762 -69H262C150 -69 59 22 59 134V635C59 746 150 837 261 837zM762 771H261C187 771 125 709 125 635V134C125 59 187 -3 262 -3H762C837 -3 899 59 899 134V634C899 709 837 771 762 771zM512 593C627 593 721 499 721 384C721 269 627 175 512 175C397 175 303 269 303 384C303 499 397 593 512 593zM512 526C433 526 370 463 370 384C370 305 433 242 512 242C591 242 654 305 654 384C654 463 591 526 512 526zM512 471C560 471 599 432 599 384S560 297 512 297S425 336 425 384S464 471 512 471zM271 653A43 43 0 0 0 301 640A43 43 0 1 0 240 640A43 43 0 0 0 271 653z" />
    <glyph glyph-name="line-channel"
      unicode="&#xE114;"
      horiz-adv-x="1024" d="M512 858C774 858 986 646 986 384S774 -90 512 -90S38 122 38 384S250 858 512 858zM512 791C287 791 105 609 105 384C105 159 287 -23 512 -23C737 -23 919 159 919 384C919 609 737 791 512 791zM429 536L690 385L429 234V536z" />
    <glyph glyph-name="line-channel-1"
      unicode="&#x6C;&#x69;&#x6E;&#x65;&#x5F;&#x63;&#x68;&#x61;&#x6E;&#x6E;&#x65;&#x6C;"
      horiz-adv-x="1024" d="M512 858C774 858 986 646 986 384S774 -90 512 -90S38 122 38 384S250 858 512 858zM512 791C287 791 105 609 105 384C105 159 287 -23 512 -23C737 -23 919 159 919 384C919 609 737 791 512 791zM429 536L690 385L429 234V536z" />
    <glyph glyph-name="line-chatbot"
      unicode="&#xE115;"
      horiz-adv-x="1024" d="M747 827C850 827 934 743 934 640V253C934 149 850 66 747 66L283 66L173 -45C144 -74 94 -55 90 -16L90 -10V640C90 743 174 827 277 827zM747 760H277C210 760 156 706 156 640L156 33L255 132H747C814 132 868 186 868 253V640C868 706 814 760 747 760zM619 371V305H405V371H619zM633 567C661 567 684 544 684 516S661 464 633 464S582 487 582 516S605 567 633 567zM391 567C419 567 442 544 442 516S419 464 391 464S340 487 340 516S363 567 391 567z" />
    <glyph glyph-name="line-chatbot-1"
      unicode="&#x6C;&#x69;&#x6E;&#x65;&#x5F;&#x63;&#x68;&#x61;&#x74;&#x62;&#x6F;&#x74;"
      horiz-adv-x="1024" d="M747 827C850 827 934 743 934 640V253C934 149 850 66 747 66L283 66L173 -45C144 -74 94 -55 90 -16L90 -10V640C90 743 174 827 277 827zM747 760H277C210 760 156 706 156 640L156 33L255 132H747C814 132 868 186 868 253V640C868 706 814 760 747 760zM619 371V305H405V371H619zM633 567C661 567 684 544 684 516S661 464 633 464S582 487 582 516S605 567 633 567zM391 567C419 567 442 544 442 516S419 464 391 464S340 487 340 516S363 567 391 567z" />
    <glyph glyph-name="line-coin"
      unicode="&#xE186;"
      horiz-adv-x="1024" d="M512 -90A474 474 0 1 0 986 384A473 473 0 0 0 512 -90zM512 791A410 410 0 1 1 922 381A410 410 0 0 1 512 791zM657 219H404V592H471V285H657z" />
    <glyph glyph-name="line-coin-1"
      unicode="&#x6C;&#x69;&#x6E;&#x65;&#x5F;&#x63;&#x6F;&#x69;&#x6E;"
      horiz-adv-x="1024" d="M512 -90A474 474 0 1 0 986 384A473 473 0 0 0 512 -90zM512 791A410 410 0 1 1 922 381A410 410 0 0 1 512 791zM657 219H404V592H471V285H657z" />
    <glyph glyph-name="line-discovery"
      unicode="&#xE117;"
      horiz-adv-x="1024" d="M512 801C742 801 929 614 929 384A420 420 0 0 0 922 308C1002 224 1037 152 1006 99C976 47 894 40 782 66C709 4 615 -33 512 -33C281 -33 94 154 94 384C94 410 97 435 101 460C23 543 -12 618 17 669C48 723 128 729 241 701C314 764 408 801 512 801zM161 402L161 396L161 384C161 190 318 33 512 33C582 33 648 54 703 90C616 119 518 164 418 222C318 280 230 342 161 402zM901 232L898 227A417 417 0 0 0 837 123C900 112 940 117 948 132C957 147 941 184 901 232zM512 735C352 735 217 627 175 481C244 415 341 343 451 280C562 216 672 167 764 140C825 204 862 289 862 384C862 578 705 735 512 735zM75 636C67 622 82 585 123 536A417 417 0 0 0 186 645C123 656 83 651 75 636z" />
    <glyph glyph-name="line-discovery-1"
      unicode="&#x6C;&#x69;&#x6E;&#x65;&#x5F;&#x64;&#x69;&#x73;&#x63;&#x6F;&#x76;&#x65;&#x72;&#x79;"
      horiz-adv-x="1024" d="M512 801C742 801 929 614 929 384A420 420 0 0 0 922 308C1002 224 1037 152 1006 99C976 47 894 40 782 66C709 4 615 -33 512 -33C281 -33 94 154 94 384C94 410 97 435 101 460C23 543 -12 618 17 669C48 723 128 729 241 701C314 764 408 801 512 801zM161 402L161 396L161 384C161 190 318 33 512 33C582 33 648 54 703 90C616 119 518 164 418 222C318 280 230 342 161 402zM901 232L898 227A417 417 0 0 0 837 123C900 112 940 117 948 132C957 147 941 184 901 232zM512 735C352 735 217 627 175 481C244 415 341 343 451 280C562 216 672 167 764 140C825 204 862 289 862 384C862 578 705 735 512 735zM75 636C67 622 82 585 123 536A417 417 0 0 0 186 645C123 656 83 651 75 636z" />
    <glyph glyph-name="line-dutch-pay"
      unicode="&#xE118;"
      horiz-adv-x="1024" d="M512 858C774 858 986 646 986 384S774 -90 512 -90S38 122 38 384S250 858 512 858zM512 791C287 791 105 609 105 384C105 159 287 -23 512 -23C737 -23 919 159 919 384C919 609 737 791 512 791zM628 330L699 232H700V330H740V162H707L635 260H634V162H594V330H628zM695 603L732 566L329 164L293 200L695 603zM420 602V422H374V562H373L328 531V571L374 602H420z" />
    <glyph glyph-name="line-dutch-pay-1"
      unicode="&#x6C;&#x69;&#x6E;&#x65;&#x5F;&#x64;&#x75;&#x74;&#x63;&#x68;&#x5F;&#x70;&#x61;&#x79;"
      horiz-adv-x="1024" d="M512 858C774 858 986 646 986 384S774 -90 512 -90S38 122 38 384S250 858 512 858zM512 791C287 791 105 609 105 384C105 159 287 -23 512 -23C737 -23 919 159 919 384C919 609 737 791 512 791zM628 330L699 232H700V330H740V162H707L635 260H634V162H594V330H628zM695 603L732 566L329 164L293 200L695 603zM420 602V422H374V562H373L328 531V571L374 602H420z" />
    <glyph glyph-name="line-ezstore"
      unicode="&#xE119;"
      horiz-adv-x="1024" d="M193 702V637L125 637L92 3L368 3L368 2A186 186 0 0 0 359 59C359 158 438 240 536 245L546 245H811C914 245 997 162 997 59C997 -41 919 -123 821 -128L811 -128H546C487 -128 435 -101 401 -59L404 -62L76 -62A49 49 0 0 0 27 -16L27 -10L61 654C63 679 82 699 106 702L112 702H193zM787 80H761L759 78V60H710L680 60L678 59V36L680 34L710 35H733C719 28 703 23 682 16L671 13L691 -7C692 -8 693 -8 694 -8C694 -8 695 -8 696 -8A223 223 0 0 1 718 -1L728 4V-9A597 597 0 0 0 710 -11L700 -11L698 -13L707 -40L709 -40C743 -35 770 -30 795 -25C797 -25 798 -24 799 -23L799 -21L800 -10C815 -23 833 -33 855 -39A3 3 0 0 1 857 -39L858 -38L879 -12C859 -8 844 -3 830 4A299 299 0 0 1 844 15L852 21V23L835 35H843L873 34L875 36V59L873 60L843 60H789V79L787 80zM649 137L613 136H530L494 137L493 136L493 99V49L492 -29H525V-11H617V-29H651L650 53V99L650 136L649 137zM771 28C776 17 783 8 791 -1L774 -4L757 -6V19C762 22 766 24 771 28zM617 109V16H525V109H617zM823 162L805 148L805 146C811 143 816 139 820 136L824 133L821 132L803 130A171 171 0 0 0 798 151L796 160L795 161L767 160L765 158C767 150 768 143 770 136L773 126L741 122L739 121L743 97L745 96L781 102C790 86 802 73 822 66C830 62 838 62 846 62C860 62 872 67 876 88C877 90 876 92 875 93L874 94L852 108C849 94 848 90 843 90C834 90 825 94 817 102L813 107L826 109L861 113L864 115L860 137L857 139L833 134L847 144L847 146C843 150 838 154 832 157L825 161L823 162zM731 162L729 162C717 143 701 127 681 114L671 107L689 91C690 90 691 90 692 90C693 90 694 90 696 91L701 94L706 98L705 64H734V122C739 127 744 132 748 137L755 145L755 148L731 162zM425 896C521 896 600 821 605 726L605 716L605 702L738 702C763 702 784 684 788 660L789 654L810 245H745L725 637L362 637V702L540 702L540 716C540 780 489 831 425 831C364 831 314 784 310 724L310 716V637H245V716C245 815 325 896 425 896zM310 539V464H245V539H310zM605 539V464H540V539H605z" />
    <glyph glyph-name="line-ezstore-1"
      unicode="&#x6C;&#x69;&#x6E;&#x65;&#x5F;&#x65;&#x7A;&#x73;&#x74;&#x6F;&#x72;&#x65;"
      horiz-adv-x="1024" d="M193 702V637L125 637L92 3L368 3L368 2A186 186 0 0 0 359 59C359 158 438 240 536 245L546 245H811C914 245 997 162 997 59C997 -41 919 -123 821 -128L811 -128H546C487 -128 435 -101 401 -59L404 -62L76 -62A49 49 0 0 0 27 -16L27 -10L61 654C63 679 82 699 106 702L112 702H193zM787 80H761L759 78V60H710L680 60L678 59V36L680 34L710 35H733C719 28 703 23 682 16L671 13L691 -7C692 -8 693 -8 694 -8C694 -8 695 -8 696 -8A223 223 0 0 1 718 -1L728 4V-9A597 597 0 0 0 710 -11L700 -11L698 -13L707 -40L709 -40C743 -35 770 -30 795 -25C797 -25 798 -24 799 -23L799 -21L800 -10C815 -23 833 -33 855 -39A3 3 0 0 1 857 -39L858 -38L879 -12C859 -8 844 -3 830 4A299 299 0 0 1 844 15L852 21V23L835 35H843L873 34L875 36V59L873 60L843 60H789V79L787 80zM649 137L613 136H530L494 137L493 136L493 99V49L492 -29H525V-11H617V-29H651L650 53V99L650 136L649 137zM771 28C776 17 783 8 791 -1L774 -4L757 -6V19C762 22 766 24 771 28zM617 109V16H525V109H617zM823 162L805 148L805 146C811 143 816 139 820 136L824 133L821 132L803 130A171 171 0 0 0 798 151L796 160L795 161L767 160L765 158C767 150 768 143 770 136L773 126L741 122L739 121L743 97L745 96L781 102C790 86 802 73 822 66C830 62 838 62 846 62C860 62 872 67 876 88C877 90 876 92 875 93L874 94L852 108C849 94 848 90 843 90C834 90 825 94 817 102L813 107L826 109L861 113L864 115L860 137L857 139L833 134L847 144L847 146C843 150 838 154 832 157L825 161L823 162zM731 162L729 162C717 143 701 127 681 114L671 107L689 91C690 90 691 90 692 90C693 90 694 90 696 91L701 94L706 98L705 64H734V122C739 127 744 132 748 137L755 145L755 148L731 162zM425 896C521 896 600 821 605 726L605 716L605 702L738 702C763 702 784 684 788 660L789 654L810 245H745L725 637L362 637V702L540 702L540 716C540 780 489 831 425 831C364 831 314 784 310 724L310 716V637H245V716C245 815 325 896 425 896zM310 539V464H245V539H310zM605 539V464H540V539H605z" />
    <glyph glyph-name="line-faceplay"
      unicode="&#xE11A;"
      horiz-adv-x="1024" d="M545 851L545 730L802 730C904 730 987 650 992 550L993 540V83C993 -8 919 -82 828 -83C760 -84 723 -68 653 -24L637 -14C587 17 557 28 512 28C467 28 435 16 389 -13L358 -32C296 -70 259 -84 196 -83C105 -82 31 -8 31 83V540C31 645 117 730 222 730L479 730L479 851H545zM802 663H222C153 663 98 608 98 540V83C98 29 142 -16 196 -17C248 -17 276 -6 336 33L354 44C409 78 453 94 512 94C576 94 618 78 684 35L700 25C752 -7 779 -17 828 -17C882 -16 926 29 926 83V540C926 608 871 663 802 663zM686 324A33 33 0 0 0 700 279C667 212 593 169 512 169C431 169 357 212 324 279A33 33 0 1 0 383 309C405 265 455 236 512 236C569 236 619 265 641 309A33 33 0 0 0 686 324zM652 558C704 558 746 516 746 464C746 412 704 371 652 371C601 371 559 412 559 464S601 558 652 558zM409 552L409 497L464 497V431L409 431L409 376H342L342 431L287 431V497L342 497L342 552H409zM652 491A27 27 0 1 1 652 437A27 27 0 0 1 652 491z" />
    <glyph glyph-name="line-faceplay-1"
      unicode="&#x6C;&#x69;&#x6E;&#x65;&#x5F;&#x66;&#x61;&#x63;&#x65;&#x70;&#x6C;&#x61;&#x79;"
      horiz-adv-x="1024" d="M545 851L545 730L802 730C904 730 987 650 992 550L993 540V83C993 -8 919 -82 828 -83C760 -84 723 -68 653 -24L637 -14C587 17 557 28 512 28C467 28 435 16 389 -13L358 -32C296 -70 259 -84 196 -83C105 -82 31 -8 31 83V540C31 645 117 730 222 730L479 730L479 851H545zM802 663H222C153 663 98 608 98 540V83C98 29 142 -16 196 -17C248 -17 276 -6 336 33L354 44C409 78 453 94 512 94C576 94 618 78 684 35L700 25C752 -7 779 -17 828 -17C882 -16 926 29 926 83V540C926 608 871 663 802 663zM686 324A33 33 0 0 0 700 279C667 212 593 169 512 169C431 169 357 212 324 279A33 33 0 1 0 383 309C405 265 455 236 512 236C569 236 619 265 641 309A33 33 0 0 0 686 324zM652 558C704 558 746 516 746 464C746 412 704 371 652 371C601 371 559 412 559 464S601 558 652 558zM409 552L409 497L464 497V431L409 431L409 376H342L342 431L287 431V497L342 497L342 552H409zM652 491A27 27 0 1 1 652 437A27 27 0 0 1 652 491z" />
    <glyph glyph-name="line-flyer"
      unicode="&#xE11B;"
      horiz-adv-x="1024" d="M820 756L891 727L986 689A33 33 0 0 0 1004 644C941 505 874 390 782 291L996 190C1019 179 1021 149 1002 134L998 131L528 -124A33 33 0 0 0 502 -126L496 -124L27 131C5 143 4 174 24 187L28 190L186 266L26 357C6 369 4 396 20 411L24 414C106 466 167 513 216 561L340 601C330 587 319 574 307 561L297 550L283 535C243 493 198 454 141 413L119 397L105 388L271 294A33 33 0 0 0 274 292L512 156L516 159C586 202 645 248 696 297L695 295A33 33 0 0 0 709 310C793 394 855 491 913 605L925 630L929 640L903 651L722 724L820 756zM733 241C675 186 608 136 529 89A33 33 0 0 0 500 87L496 89L255 226L115 159L512 -57L909 158L733 241zM471 896A32 32 0 0 0 476 895L481 893L725 794L300 658C306 666 313 675 319 684A10 10 0 0 0 320 686L340 715C359 745 380 779 406 821L440 880A33 33 0 0 0 471 896z" />
    <glyph glyph-name="line-flyer-1"
      unicode="&#x6C;&#x69;&#x6E;&#x65;&#x5F;&#x66;&#x6C;&#x79;&#x65;&#x72;"
      horiz-adv-x="1024" d="M820 756L891 727L986 689A33 33 0 0 0 1004 644C941 505 874 390 782 291L996 190C1019 179 1021 149 1002 134L998 131L528 -124A33 33 0 0 0 502 -126L496 -124L27 131C5 143 4 174 24 187L28 190L186 266L26 357C6 369 4 396 20 411L24 414C106 466 167 513 216 561L340 601C330 587 319 574 307 561L297 550L283 535C243 493 198 454 141 413L119 397L105 388L271 294A33 33 0 0 0 274 292L512 156L516 159C586 202 645 248 696 297L695 295A33 33 0 0 0 709 310C793 394 855 491 913 605L925 630L929 640L903 651L722 724L820 756zM733 241C675 186 608 136 529 89A33 33 0 0 0 500 87L496 89L255 226L115 159L512 -57L909 158L733 241zM471 896A32 32 0 0 0 476 895L481 893L725 794L300 658C306 666 313 675 319 684A10 10 0 0 0 320 686L340 715C359 745 380 779 406 821L440 880A33 33 0 0 0 471 896z" />
    <glyph glyph-name="line-foodie"
      unicode="&#xE11C;"
      horiz-adv-x="1024" d="M512 858C774 858 986 646 986 384S774 -90 512 -90S38 122 38 384S250 858 512 858zM512 791C287 791 105 609 105 384C105 159 287 -23 512 -23C737 -23 919 159 919 384C919 609 737 791 512 791zM307 460V408L250 409L250 399L249 384L249 382L301 382V330L255 330C279 211 385 121 512 121C599 121 680 164 728 235L735 245L778 218C721 126 621 70 512 70C339 70 198 211 198 384C198 396 199 408 200 421L203 439L206 460H307zM512 698C685 698 826 557 826 384A317 317 0 0 0 824 347L821 329L818 308H761C720 308 686 342 686 384C686 423 716 456 754 459L761 460L764 460L761 469C727 569 634 642 523 647L512 647C425 647 344 604 296 533L289 523L246 550C303 642 403 698 512 698zM774 409L761 408A25 25 0 0 1 737 388L737 384C737 372 745 362 757 360L761 360L774 360L774 369L775 384L775 395L774 406L774 409z" />
    <glyph glyph-name="line-foodie-1"
      unicode="&#x6C;&#x69;&#x6E;&#x65;&#x5F;&#x66;&#x6F;&#x6F;&#x64;&#x69;&#x65;"
      horiz-adv-x="1024" d="M512 858C774 858 986 646 986 384S774 -90 512 -90S38 122 38 384S250 858 512 858zM512 791C287 791 105 609 105 384C105 159 287 -23 512 -23C737 -23 919 159 919 384C919 609 737 791 512 791zM307 460V408L250 409L250 399L249 384L249 382L301 382V330L255 330C279 211 385 121 512 121C599 121 680 164 728 235L735 245L778 218C721 126 621 70 512 70C339 70 198 211 198 384C198 396 199 408 200 421L203 439L206 460H307zM512 698C685 698 826 557 826 384A317 317 0 0 0 824 347L821 329L818 308H761C720 308 686 342 686 384C686 423 716 456 754 459L761 460L764 460L761 469C727 569 634 642 523 647L512 647C425 647 344 604 296 533L289 523L246 550C303 642 403 698 512 698zM774 409L761 408A25 25 0 0 1 737 388L737 384C737 372 745 362 757 360L761 360L774 360L774 369L775 384L775 395L774 406L774 409z" />
    <glyph glyph-name="line-fortune"
      unicode="&#xE2CA;"
      horiz-adv-x="1024" d="M343 466A201 201 0 0 1 493 532A201 201 0 0 1 545 668V794A33 33 0 1 1 479 794V668A136 136 0 0 0 343 532H332A262 262 0 1 1 332 8H692A262 262 0 0 1 692 532H557A255 255 0 0 0 496 466H692A196 196 0 1 0 692 74H332A196 196 0 0 0 332 466H343zM771 699A49 49 0 1 1 771 796A49 49 0 0 1 771 699z" />
    <glyph glyph-name="line-fortune-1"
      unicode="&#x6C;&#x69;&#x6E;&#x65;&#x5F;&#x66;&#x6F;&#x72;&#x74;&#x75;&#x6E;&#x65;"
      horiz-adv-x="1024" d="M343 466A201 201 0 0 1 493 532A201 201 0 0 1 545 668V794A33 33 0 1 1 479 794V668A136 136 0 0 0 343 532H332A262 262 0 1 1 332 8H692A262 262 0 0 1 692 532H557A255 255 0 0 0 496 466H692A196 196 0 1 0 692 74H332A196 196 0 0 0 332 466H343zM771 699A49 49 0 1 1 771 796A49 49 0 0 1 771 699z" />
    <glyph glyph-name="line-friends"
      unicode="&#xE11D;"
      horiz-adv-x="1024" d="M151 761C172 825 237 865 306 853C352 846 383 821 405 785L406 782L421 784C445 788 466 789 497 790L513 790C557 790 581 788 615 783L618 782L620 785C640 818 667 842 708 851L718 853C788 865 853 824 874 761C885 726 884 693 876 659L882 654L890 646C905 632 919 616 933 600C989 528 1021 440 1017 333C1007 108 784 -89 512 -87C240 -88 16 109 7 333C3 441 35 528 92 600C105 617 119 632 134 646C140 652 145 657 151 662L148 659L146 671C141 697 140 722 147 749zM295 788C258 794 225 773 214 740C205 714 208 687 217 659L225 638L208 624L187 605L180 598C167 586 155 573 144 559C97 499 70 427 74 336C81 148 274 -22 512 -21C749 -22 942 148 950 336C954 426 927 498 880 558C869 573 857 586 844 598A541 541 0 0 1 829 612L800 638L807 659C816 687 819 713 810 740C799 773 766 794 729 788C699 783 681 764 667 732L657 708L631 712C584 721 563 723 513 724C461 723 440 721 393 713L367 708L357 732C343 764 325 783 295 788zM515 414C586 414 641 346 641 263C641 181 586 113 515 113C444 113 389 181 389 263C389 346 444 414 515 414zM515 373C469 373 430 325 430 263S469 154 515 154C561 154 600 202 600 263S561 373 515 373zM515 360C530 360 549 360 552 347C554 338 545 321 534 310L534 279L568 237A20 20 0 0 0 539 208L536 211L522 229L501 188A20 20 0 0 0 463 203L465 207L493 262L493 310C482 321 473 338 475 347C478 360 497 360 512 360zM577 471A33 33 0 0 0 610 438A33 33 0 0 0 544 438C544 456 559 471 577 471zM451 471A33 33 0 1 0 451 406A33 33 0 1 0 451 471zM741 762C748 762 757 760 766 756C804 737 795 681 780 655C780 655 764 668 731 686C698 703 679 710 679 710C685 727 707 762 741 762zM285 762C319 762 340 728 345 711C345 711 326 705 292 687C259 670 242 657 242 657C227 682 220 736 259 755C269 760 277 762 285 762z" />
    <glyph glyph-name="line-friends-1"
      unicode="&#x6C;&#x69;&#x6E;&#x65;&#x5F;&#x66;&#x72;&#x69;&#x65;&#x6E;&#x64;&#x73;"
      horiz-adv-x="1024" d="M151 761C172 825 237 865 306 853C352 846 383 821 405 785L406 782L421 784C445 788 466 789 497 790L513 790C557 790 581 788 615 783L618 782L620 785C640 818 667 842 708 851L718 853C788 865 853 824 874 761C885 726 884 693 876 659L882 654L890 646C905 632 919 616 933 600C989 528 1021 440 1017 333C1007 108 784 -89 512 -87C240 -88 16 109 7 333C3 441 35 528 92 600C105 617 119 632 134 646C140 652 145 657 151 662L148 659L146 671C141 697 140 722 147 749zM295 788C258 794 225 773 214 740C205 714 208 687 217 659L225 638L208 624L187 605L180 598C167 586 155 573 144 559C97 499 70 427 74 336C81 148 274 -22 512 -21C749 -22 942 148 950 336C954 426 927 498 880 558C869 573 857 586 844 598A541 541 0 0 1 829 612L800 638L807 659C816 687 819 713 810 740C799 773 766 794 729 788C699 783 681 764 667 732L657 708L631 712C584 721 563 723 513 724C461 723 440 721 393 713L367 708L357 732C343 764 325 783 295 788zM515 414C586 414 641 346 641 263C641 181 586 113 515 113C444 113 389 181 389 263C389 346 444 414 515 414zM515 373C469 373 430 325 430 263S469 154 515 154C561 154 600 202 600 263S561 373 515 373zM515 360C530 360 549 360 552 347C554 338 545 321 534 310L534 279L568 237A20 20 0 0 0 539 208L536 211L522 229L501 188A20 20 0 0 0 463 203L465 207L493 262L493 310C482 321 473 338 475 347C478 360 497 360 512 360zM577 471A33 33 0 0 0 610 438A33 33 0 0 0 544 438C544 456 559 471 577 471zM451 471A33 33 0 1 0 451 406A33 33 0 1 0 451 471zM741 762C748 762 757 760 766 756C804 737 795 681 780 655C780 655 764 668 731 686C698 703 679 710 679 710C685 727 707 762 741 762zM285 762C319 762 340 728 345 711C345 711 326 705 292 687C259 670 242 657 242 657C227 682 220 736 259 755C269 760 277 762 285 762z" />
    <glyph glyph-name="line-fuwa"
      unicode="&#xE153;"
      horiz-adv-x="1024" d="M606 808C628 793 646 776 661 758L666 751L667 751C829 778 924 666 920 543L919 535A48 48 0 0 0 822 542C828 617 771 681 658 650A48 48 0 0 0 604 671C568 728 522 761 450 747L442 745L435 742C381 718 352 675 344 607L342 594A48 48 0 0 0 298 550C204 542 159 494 152 395A48 48 0 0 0 140 366C136 361 127 350 119 334C94 288 89 240 114 194C165 94 331 12 522 19C696 27 815 78 875 145L881 153C931 209 947 286 888 363A48 48 0 1 0 964 423C1058 303 1031 175 955 90C881 -1 734 -68 526 -78C299 -86 97 13 28 149C-14 227 -5 307 34 380A313 313 0 0 0 54 414L57 417L58 428C73 541 136 614 241 639L251 641L251 642C268 732 318 797 399 832L410 837L416 839C489 857 553 844 606 808zM570 551A35 35 0 1 0 570 482A35 35 0 0 0 570 551zM686 551A35 35 0 1 0 686 482A35 35 0 0 0 686 551z" />
    <glyph glyph-name="line-fuwa-1"
      unicode="&#x6C;&#x69;&#x6E;&#x65;&#x5F;&#x66;&#x75;&#x77;&#x61;"
      horiz-adv-x="1024" d="M606 808C628 793 646 776 661 758L666 751L667 751C829 778 924 666 920 543L919 535A48 48 0 0 0 822 542C828 617 771 681 658 650A48 48 0 0 0 604 671C568 728 522 761 450 747L442 745L435 742C381 718 352 675 344 607L342 594A48 48 0 0 0 298 550C204 542 159 494 152 395A48 48 0 0 0 140 366C136 361 127 350 119 334C94 288 89 240 114 194C165 94 331 12 522 19C696 27 815 78 875 145L881 153C931 209 947 286 888 363A48 48 0 1 0 964 423C1058 303 1031 175 955 90C881 -1 734 -68 526 -78C299 -86 97 13 28 149C-14 227 -5 307 34 380A313 313 0 0 0 54 414L57 417L58 428C73 541 136 614 241 639L251 641L251 642C268 732 318 797 399 832L410 837L416 839C489 857 553 844 606 808zM570 551A35 35 0 1 0 570 482A35 35 0 0 0 570 551zM686 551A35 35 0 1 0 686 482A35 35 0 0 0 686 551z" />
    <glyph glyph-name="line-fx"
      unicode="&#xE257;"
      horiz-adv-x="1024" d="M975 786A33 33 0 0 1 932 837L609 566L469 732A33 33 0 0 1 422 736L20 398A33 33 0 0 1 62 347L440 663L579 497C591 483 612 481 626 493L975 786zM847 138L1022 358H936L804 192L672 358H332A145 145 0 0 1 195 213V-77H262V90H476L530 157H262V219A78 78 0 0 0 340 291H639L761 138L589 -77H675L804 84L933 -77H1019L847 138z" />
    <glyph glyph-name="line-fx-1"
      unicode="&#x6C;&#x69;&#x6E;&#x65;&#x5F;&#x66;&#x78;"
      horiz-adv-x="1024" d="M975 786A33 33 0 0 1 932 837L609 566L469 732A33 33 0 0 1 422 736L20 398A33 33 0 0 1 62 347L440 663L579 497C591 483 612 481 626 493L975 786zM847 138L1022 358H936L804 192L672 358H332A145 145 0 0 1 195 213V-77H262V90H476L530 157H262V219A78 78 0 0 0 340 291H639L761 138L589 -77H675L804 84L933 -77H1019L847 138z" />
    <glyph glyph-name="line-game"
      unicode="&#xE2CB;"
      horiz-adv-x="1024" d="M287 497A15 15 0 0 0 302 512H338A15 15 0 0 0 353 497V417H433A15 15 0 0 0 448 402V366A15 15 0 0 0 433 351H353V271A15 15 0 0 0 338 256H302A15 15 0 0 0 287 271V351H207A15 15 0 0 0 192 366V402A15 15 0 0 0 207 417H287V497zM671 320A64 64 0 1 0 543 320A64 64 0 0 0 671 320zM768 384A64 64 0 1 1 768 512A64 64 0 0 1 768 384zM28 594A161 161 0 0 0 189 755H835A161 161 0 0 0 996 594V77A59 59 0 0 0 937 18H87A59 59 0 0 0 28 77V594zM189 689A95 95 0 0 1 95 594V84H929V594A95 95 0 0 1 835 689H189z" />
    <glyph glyph-name="line-game-1"
      unicode="&#x6C;&#x69;&#x6E;&#x65;&#x5F;&#x67;&#x61;&#x6D;&#x65;"
      horiz-adv-x="1024" d="M287 497A15 15 0 0 0 302 512H338A15 15 0 0 0 353 497V417H433A15 15 0 0 0 448 402V366A15 15 0 0 0 433 351H353V271A15 15 0 0 0 338 256H302A15 15 0 0 0 287 271V351H207A15 15 0 0 0 192 366V402A15 15 0 0 0 207 417H287V497zM671 320A64 64 0 1 0 543 320A64 64 0 0 0 671 320zM768 384A64 64 0 1 1 768 512A64 64 0 0 1 768 384zM28 594A161 161 0 0 0 189 755H835A161 161 0 0 0 996 594V77A59 59 0 0 0 937 18H87A59 59 0 0 0 28 77V594zM189 689A95 95 0 0 1 95 594V84H929V594A95 95 0 0 1 835 689H189z" />
    <glyph glyph-name="line-game-community"
      unicode="&#xE22E;"
      horiz-adv-x="1024" d="M136 727A69 69 0 0 1 67 658V173A132 132 0 0 1 197 41H198A230 230 0 0 1 339 86L340 86L371 106A244 244 0 0 0 512 152H512A244 244 0 0 0 655 105L672 94L673 93A245 245 0 0 1 827 41A133 133 0 0 1 957 174V658A69 69 0 0 1 888 727H136zM40 754A136 136 0 0 0 136 794H888A136 136 0 0 0 1024 658V174A199 199 0 0 0 828 -26H828A311 311 0 0 0 633 40L617 50L617 51A178 178 0 0 1 512 86A177 177 0 0 1 409 51L408 51L378 31A297 297 0 0 0 197 -26A198 198 0 0 0 0 173V658C0 694 14 728 40 754zM315 538V443H410V376H315V282H248V376H154V443H248V538H315zM545 625V727H479V625H545zM742 461A51 51 0 1 1 742 563A51 51 0 0 1 742 461zM640 358A51 51 0 1 1 640 461A51 51 0 0 1 640 358zM742 256A51 51 0 1 1 742 358A51 51 0 0 1 742 256zM896 410A51 51 0 1 0 794 410A51 51 0 0 0 896 410z" />
    <glyph glyph-name="line-game-community-1"
      unicode="&#x6C;&#x69;&#x6E;&#x65;&#x5F;&#x67;&#x61;&#x6D;&#x65;&#x5F;&#x63;&#x6F;&#x6D;&#x6D;&#x75;&#x6E;&#x69;&#x74;&#x79;"
      horiz-adv-x="1024" d="M136 727A69 69 0 0 1 67 658V173A132 132 0 0 1 197 41H198A230 230 0 0 1 339 86L340 86L371 106A244 244 0 0 0 512 152H512A244 244 0 0 0 655 105L672 94L673 93A245 245 0 0 1 827 41A133 133 0 0 1 957 174V658A69 69 0 0 1 888 727H136zM40 754A136 136 0 0 0 136 794H888A136 136 0 0 0 1024 658V174A199 199 0 0 0 828 -26H828A311 311 0 0 0 633 40L617 50L617 51A178 178 0 0 1 512 86A177 177 0 0 1 409 51L408 51L378 31A297 297 0 0 0 197 -26A198 198 0 0 0 0 173V658C0 694 14 728 40 754zM315 538V443H410V376H315V282H248V376H154V443H248V538H315zM545 625V727H479V625H545zM742 461A51 51 0 1 1 742 563A51 51 0 0 1 742 461zM640 358A51 51 0 1 1 640 461A51 51 0 0 1 640 358zM742 256A51 51 0 1 1 742 358A51 51 0 0 1 742 256zM896 410A51 51 0 1 0 794 410A51 51 0 0 0 896 410z" />
    <glyph glyph-name="line-game-platform"
      unicode="&#xE155;"
      horiz-adv-x="1024" d="M229 358L704 -112H291C267 -112 249 -104 233 -89L64 81C34 111 31 158 64 191L229 358zM1007 578V164C1007 140 999 123 984 107L819 -58L808 -68C779 -93 735 -94 704 -63L537 103L1007 578zM229 267L109 146C103 139 103 133 109 127L278 -43C282 -47 285 -48 291 -48L548 -48L229 267zM943 421L628 103L749 -17C756 -24 762 -23 768 -17L938 152C942 156 943 158 943 164L943 421zM210 830C240 860 287 864 320 830L487 665L17 190V603C17 630 26 647 43 664zM275 785C268 791 262 791 256 785L85 615C82 611 81 609 81 603L81 347L396 665zM732 880C759 880 776 871 793 854L959 687C989 657 993 610 959 577L794 410L319 880zM732 816L476 816L794 501L914 622C920 629 920 635 914 641L744 812C740 815 738 816 732 816z" />
    <glyph glyph-name="line-game-platform-1"
      unicode="&#x6C;&#x69;&#x6E;&#x65;&#x5F;&#x67;&#x61;&#x6D;&#x65;&#x5F;&#x70;&#x6C;&#x61;&#x74;&#x66;&#x6F;&#x72;&#x6D;"
      horiz-adv-x="1024" d="M229 358L704 -112H291C267 -112 249 -104 233 -89L64 81C34 111 31 158 64 191L229 358zM1007 578V164C1007 140 999 123 984 107L819 -58L808 -68C779 -93 735 -94 704 -63L537 103L1007 578zM229 267L109 146C103 139 103 133 109 127L278 -43C282 -47 285 -48 291 -48L548 -48L229 267zM943 421L628 103L749 -17C756 -24 762 -23 768 -17L938 152C942 156 943 158 943 164L943 421zM210 830C240 860 287 864 320 830L487 665L17 190V603C17 630 26 647 43 664zM275 785C268 791 262 791 256 785L85 615C82 611 81 609 81 603L81 347L396 665zM732 880C759 880 776 871 793 854L959 687C989 657 993 610 959 577L794 410L319 880zM732 816L476 816L794 501L914 622C920 629 920 635 914 641L744 812C740 815 738 816 732 816z" />
    <glyph glyph-name="line-game-social"
      unicode="&#xE156;"
      horiz-adv-x="1024" d="M768 614C912 609 1024 489 1019 345C1014 202 894 89 750 94A259 259 0 0 0 586 161A33 33 0 1 0 630 210A192 192 0 0 1 752 161C859 157 949 241 952 347C956 454 873 544 766 547C686 550 614 506 582 438C571 415 554 373 547 352L545 345C494 181 433 128 319 99C301 95 262 93 243 96C265 101 302 115 319 128C388 180 432 219 476 349L481 365C488 386 508 438 521 466C565 559 662 618 768 614zM343 672C353 668 487 590 487 590C493 586 493 576 487 572A22051 22051 0 0 1 421 535L404 525L353 496L346 491L343 490C335 486 326 490 326 498V535C326 543 323 545 317 547H259C156 547 72 460 72 356C72 251 156 168 259 163C278 162 303 166 333 175C284 145 238 132 195 135C79 143 7 225 5 356C5 493 113 608 248 613L259 614L317 613C323 616 326 620 326 626V662C326 672 333 676 343 672zM757 322A35 35 0 1 0 757 252A35 35 0 0 0 757 322zM289 457A13 13 0 0 0 301 444V388H358A13 13 0 0 0 371 375V335A13 13 0 0 0 358 322H301V266A13 13 0 0 0 289 254H247A13 13 0 0 0 234 266V322H178A13 13 0 0 0 165 335V375A13 13 0 0 0 178 388H234V444A13 13 0 0 0 247 457zM688 389A35 35 0 1 0 688 320A35 35 0 0 0 688 389zM826 389A35 35 0 1 0 826 320A35 35 0 0 0 826 389zM757 458A35 35 0 1 0 757 389A35 35 0 0 0 757 458z" />
    <glyph glyph-name="line-game-social-1"
      unicode="&#x6C;&#x69;&#x6E;&#x65;&#x5F;&#x67;&#x61;&#x6D;&#x65;&#x5F;&#x73;&#x6F;&#x63;&#x69;&#x61;&#x6C;"
      horiz-adv-x="1024" d="M768 614C912 609 1024 489 1019 345C1014 202 894 89 750 94A259 259 0 0 0 586 161A33 33 0 1 0 630 210A192 192 0 0 1 752 161C859 157 949 241 952 347C956 454 873 544 766 547C686 550 614 506 582 438C571 415 554 373 547 352L545 345C494 181 433 128 319 99C301 95 262 93 243 96C265 101 302 115 319 128C388 180 432 219 476 349L481 365C488 386 508 438 521 466C565 559 662 618 768 614zM343 672C353 668 487 590 487 590C493 586 493 576 487 572A22051 22051 0 0 1 421 535L404 525L353 496L346 491L343 490C335 486 326 490 326 498V535C326 543 323 545 317 547H259C156 547 72 460 72 356C72 251 156 168 259 163C278 162 303 166 333 175C284 145 238 132 195 135C79 143 7 225 5 356C5 493 113 608 248 613L259 614L317 613C323 616 326 620 326 626V662C326 672 333 676 343 672zM757 322A35 35 0 1 0 757 252A35 35 0 0 0 757 322zM289 457A13 13 0 0 0 301 444V388H358A13 13 0 0 0 371 375V335A13 13 0 0 0 358 322H301V266A13 13 0 0 0 289 254H247A13 13 0 0 0 234 266V322H178A13 13 0 0 0 165 335V375A13 13 0 0 0 178 388H234V444A13 13 0 0 0 247 457zM688 389A35 35 0 1 0 688 320A35 35 0 0 0 688 389zM826 389A35 35 0 1 0 826 320A35 35 0 0 0 826 389zM757 458A35 35 0 1 0 757 389A35 35 0 0 0 757 458z" />
    <glyph glyph-name="line-giftshop"
      unicode="&#xE11F;"
      horiz-adv-x="1024" d="M512 717H512L639 844L686 797L606 717H870C889 716 907 709 920 695C933 682 941 663 941 645V644L942 68V68C942 49 934 31 921 17C908 4 889 -4 870 -4H155A71 71 0 0 0 104 17A73 73 0 0 0 84 68L82 645A73 73 0 0 0 103 695C116 709 134 716 153 717H418L338 797L385 844L512 717zM479 650H154A5 5 0 0 1 151 648A6 6 0 0 1 149 644L149 497H479V650zM149 430L150 68A6 6 0 0 1 152 64C153 63 154 63 155 63H479V430H149zM545 63H870A5 5 0 0 1 873 64A6 6 0 0 1 875 68L875 430H545V63zM875 497L874 644A6 6 0 0 1 873 648A5 5 0 0 1 869 650H545V497H875z" />
    <glyph glyph-name="line-giftshop-1"
      unicode="&#x6C;&#x69;&#x6E;&#x65;&#x5F;&#x67;&#x69;&#x66;&#x74;&#x73;&#x68;&#x6F;&#x70;"
      horiz-adv-x="1024" d="M512 717H512L639 844L686 797L606 717H870C889 716 907 709 920 695C933 682 941 663 941 645V644L942 68V68C942 49 934 31 921 17C908 4 889 -4 870 -4H155A71 71 0 0 0 104 17A73 73 0 0 0 84 68L82 645A73 73 0 0 0 103 695C116 709 134 716 153 717H418L338 797L385 844L512 717zM479 650H154A5 5 0 0 1 151 648A6 6 0 0 1 149 644L149 497H479V650zM149 430L150 68A6 6 0 0 1 152 64C153 63 154 63 155 63H479V430H149zM545 63H870A5 5 0 0 1 873 64A6 6 0 0 1 875 68L875 430H545V63zM875 497L874 644A6 6 0 0 1 873 648A5 5 0 0 1 869 650H545V497H875z" />
    <glyph glyph-name="line-giftshop-alt"
      unicode="&#xE11E;"
      horiz-adv-x="1024" d="M612 784V717L100 717V50L682 50L682 171H748L748 50L924 50V717L817 717V784H940C966 784 987 764 990 739L991 733V34C991 8 971 -13 946 -16L940 -16H84C58 -16 37 3 34 28L33 34V733C33 759 53 780 78 783L84 784H612zM748 373V254H682V373H748zM554 498C582 469 582 423 554 395A73 73 0 0 0 509 374L502 373L450 373L532 291L496 255L388 363L280 255L244 291L326 373L274 373A73 73 0 0 0 228 390L222 395C194 423 194 469 222 498C249 525 291 526 320 503L325 498L388 435L451 498C479 526 525 526 554 498zM490 464L487 462L450 425L502 425A22 22 0 0 1 514 428L518 431A22 22 0 0 1 490 464zM258 462A22 22 0 0 1 258 431A22 22 0 0 1 269 425L274 425L326 425L289 462A22 22 0 0 1 258 462zM748 576V457H682V576H748zM748 784V660H682V784H748z" />
    <glyph glyph-name="line-giftshop-alt-1"
      unicode="&#x6C;&#x69;&#x6E;&#x65;&#x5F;&#x67;&#x69;&#x66;&#x74;&#x73;&#x68;&#x6F;&#x70;&#x5F;&#x61;&#x6C;&#x74;"
      horiz-adv-x="1024" d="M612 784V717L100 717V50L682 50L682 171H748L748 50L924 50V717L817 717V784H940C966 784 987 764 990 739L991 733V34C991 8 971 -13 946 -16L940 -16H84C58 -16 37 3 34 28L33 34V733C33 759 53 780 78 783L84 784H612zM748 373V254H682V373H748zM554 498C582 469 582 423 554 395A73 73 0 0 0 509 374L502 373L450 373L532 291L496 255L388 363L280 255L244 291L326 373L274 373A73 73 0 0 0 228 390L222 395C194 423 194 469 222 498C249 525 291 526 320 503L325 498L388 435L451 498C479 526 525 526 554 498zM490 464L487 462L450 425L502 425A22 22 0 0 1 514 428L518 431A22 22 0 0 1 490 464zM258 462A22 22 0 0 1 258 431A22 22 0 0 1 269 425L274 425L326 425L289 462A22 22 0 0 1 258 462zM748 576V457H682V576H748zM748 784V660H682V784H748z" />
    <glyph glyph-name="line-go"
      unicode="&#xE2CC;"
      horiz-adv-x="1024" d="M256 261A51 51 0 1 1 256 364A51 51 0 0 1 256 261zM768 261A51 51 0 1 1 768 364A51 51 0 0 1 768 261zM234 765A59 59 0 0 0 288 801H736C759 801 781 787 790 765L893 520H932C964 520 991 493 991 461V143A59 59 0 0 0 932 84H827V-46H760V84H264V-46H197V84H92A59 59 0 0 0 33 143V461C33 493 60 520 92 520H131L234 765zM293 735L204 520H820L730 735H294zM100 453V151H924V453H100z" />
    <glyph glyph-name="line-go-1"
      unicode="&#x6C;&#x69;&#x6E;&#x65;&#x5F;&#x67;&#x6F;"
      horiz-adv-x="1024" d="M256 261A51 51 0 1 1 256 364A51 51 0 0 1 256 261zM768 261A51 51 0 1 1 768 364A51 51 0 0 1 768 261zM234 765A59 59 0 0 0 288 801H736C759 801 781 787 790 765L893 520H932C964 520 991 493 991 461V143A59 59 0 0 0 932 84H827V-46H760V84H264V-46H197V84H92A59 59 0 0 0 33 143V461C33 493 60 520 92 520H131L234 765zM293 735L204 520H820L730 735H294zM100 453V151H924V453H100z" />
    <glyph glyph-name="line-growthy"
      unicode="&#xE154;"
      horiz-adv-x="1024" d="M334 827C438 921 598 918 698 818L946 570C1049 467 1049 301 947 198L702 -50L701 -49L701 -50L692 -59C588 -153 428 -150 329 -51L78 197L69 207C-25 311 -22 471 78 571L325 818zM320 170L201 170L376 -4C447 -75 561 -80 638 -18L646 -10L653 -4L677 20L677 149A286 286 0 0 0 523 97L512 97C438 97 371 125 320 170zM860 562L737 562A286 286 0 0 0 799 384C799 322 779 264 745 217L770 192A46 46 0 0 0 713 121L713 56L900 245C974 319 976 437 907 515L899 523L860 562zM512 579C404 579 317 492 317 384C317 276 404 189 512 189C619 189 707 276 707 384C707 492 619 579 512 579zM297 696L125 524C48 447 48 322 125 245L164 206L286 206A286 286 0 0 0 225 373L224 384C224 457 252 524 297 574L297 696zM651 771C574 848 449 848 372 771L332 732L333 608A286 286 0 0 0 500 671L512 671C585 671 652 644 703 598L824 598z" />
    <glyph glyph-name="line-growthy-1"
      unicode="&#x6C;&#x69;&#x6E;&#x65;&#x5F;&#x67;&#x72;&#x6F;&#x77;&#x74;&#x68;&#x79;"
      horiz-adv-x="1024" d="M334 827C438 921 598 918 698 818L946 570C1049 467 1049 301 947 198L702 -50L701 -49L701 -50L692 -59C588 -153 428 -150 329 -51L78 197L69 207C-25 311 -22 471 78 571L325 818zM320 170L201 170L376 -4C447 -75 561 -80 638 -18L646 -10L653 -4L677 20L677 149A286 286 0 0 0 523 97L512 97C438 97 371 125 320 170zM860 562L737 562A286 286 0 0 0 799 384C799 322 779 264 745 217L770 192A46 46 0 0 0 713 121L713 56L900 245C974 319 976 437 907 515L899 523L860 562zM512 579C404 579 317 492 317 384C317 276 404 189 512 189C619 189 707 276 707 384C707 492 619 579 512 579zM297 696L125 524C48 447 48 322 125 245L164 206L286 206A286 286 0 0 0 225 373L224 384C224 457 252 524 297 574L297 696zM651 771C574 848 449 848 372 771L332 732L333 608A286 286 0 0 0 500 671L512 671C585 671 652 644 703 598L824 598z" />
    <glyph glyph-name="line-insurance"
      unicode="&#xE120;"
      horiz-adv-x="1024" d="M559 745C662 844 823 846 928 750L937 741C1042 636 1042 465 937 360L512 -65L87 360C-18 465 -18 636 87 741C192 847 363 847 469 741L469 741L469 741L559 651L512 604L422 694C342 774 213 774 134 694C55 615 55 486 134 407L512 29L890 407C969 486 969 615 890 694C811 774 682 774 602 694L606 698z" />
    <glyph glyph-name="line-insurance-1"
      unicode="&#x6C;&#x69;&#x6E;&#x65;&#x5F;&#x69;&#x6E;&#x73;&#x75;&#x72;&#x61;&#x6E;&#x63;&#x65;"
      horiz-adv-x="1024" d="M559 745C662 844 823 846 928 750L937 741C1042 636 1042 465 937 360L512 -65L87 360C-18 465 -18 636 87 741C192 847 363 847 469 741L469 741L469 741L559 651L512 604L422 694C342 774 213 774 134 694C55 615 55 486 134 407L512 29L890 407C969 486 969 615 890 694C811 774 682 774 602 694L606 698z" />
    <glyph glyph-name="line-invest"
      unicode="&#xE121;"
      horiz-adv-x="1024" d="M958 417A33 33 0 0 0 991 389L992 384V193A239 239 0 0 0 764 -44L754 -45H373A239 239 0 0 0 153 101L206 154A172 172 0 0 1 364 22H754A172 172 0 0 1 925 184V384A33 33 0 0 0 958 417zM135 177L123 165L89 131A33 33 0 0 0 46 128L42 131A33 33 0 0 0 39 174L42 178L134 270V574A239 239 0 0 0 362 812H563A33 33 0 0 0 568 746L563 746H373A172 172 0 0 1 201 584V337L390 526L524 392L841 709L771 779H958V592L888 662L524 298L390 432L300 341L135 177z" />
    <glyph glyph-name="line-invest-1"
      unicode="&#x6C;&#x69;&#x6E;&#x65;&#x5F;&#x69;&#x6E;&#x76;&#x65;&#x73;&#x74;"
      horiz-adv-x="1024" d="M958 417A33 33 0 0 0 991 389L992 384V193A239 239 0 0 0 764 -44L754 -45H373A239 239 0 0 0 153 101L206 154A172 172 0 0 1 364 22H754A172 172 0 0 1 925 184V384A33 33 0 0 0 958 417zM135 177L123 165L89 131A33 33 0 0 0 46 128L42 131A33 33 0 0 0 39 174L42 178L134 270V574A239 239 0 0 0 362 812H563A33 33 0 0 0 568 746L563 746H373A172 172 0 0 1 201 584V337L390 526L524 392L841 709L771 779H958V592L888 662L524 298L390 432L300 341L135 177z" />
    <glyph glyph-name="line-jobs"
      unicode="&#xE122;"
      horiz-adv-x="1024" d="M648 806C678 806 703 783 706 753L707 747L707 698L937 698C967 698 992 675 995 645L996 639V21C996 -11 969 -38 937 -38H87C55 -38 28 -11 28 21V639C28 672 55 698 87 698L317 698L317 747C317 777 340 802 370 806L376 806H648zM929 318L613 246L613 205A33 33 0 0 0 584 172L580 172H444A33 33 0 0 0 411 205L411 246L95 318L95 29H929L929 318zM546 307H478V238H546V307zM929 632H95L95 386L411 314L411 340A33 33 0 0 0 440 373L444 373H580A33 33 0 0 0 613 340L613 314L929 386L929 632zM640 739H384L384 698H640L640 739z" />
    <glyph glyph-name="line-jobs-1"
      unicode="&#x6C;&#x69;&#x6E;&#x65;&#x5F;&#x6A;&#x6F;&#x62;&#x73;"
      horiz-adv-x="1024" d="M648 806C678 806 703 783 706 753L707 747L707 698L937 698C967 698 992 675 995 645L996 639V21C996 -11 969 -38 937 -38H87C55 -38 28 -11 28 21V639C28 672 55 698 87 698L317 698L317 747C317 777 340 802 370 806L376 806H648zM929 318L613 246L613 205A33 33 0 0 0 584 172L580 172H444A33 33 0 0 0 411 205L411 246L95 318L95 29H929L929 318zM546 307H478V238H546V307zM929 632H95L95 386L411 314L411 340A33 33 0 0 0 440 373L444 373H580A33 33 0 0 0 613 340L613 314L929 386L929 632zM640 739H384L384 698H640L640 739z" />
    <glyph glyph-name="line-keep"
      unicode="&#xE123;"
      horiz-adv-x="1024" d="M791 827H233C172 827 123 778 123 717V-26L123 -31C127 -53 152 -66 173 -54L512 141L851 -54C873 -67 901 -51 901 -26V717C901 778 852 827 791 827zM791 760L796 760A44 44 0 0 0 834 717L834 32L529 209L524 211A33 33 0 0 1 495 209L190 32L190 717A44 44 0 0 0 233 760H791z" />
    <glyph glyph-name="line-keep-1"
      unicode="&#x6C;&#x69;&#x6E;&#x65;&#x5F;&#x6B;&#x65;&#x65;&#x70;"
      horiz-adv-x="1024" d="M791 827H233C172 827 123 778 123 717V-26L123 -31C127 -53 152 -66 173 -54L512 141L851 -54C873 -67 901 -51 901 -26V717C901 778 852 827 791 827zM791 760L796 760A44 44 0 0 0 834 717L834 32L529 209L524 211A33 33 0 0 1 495 209L190 32L190 717A44 44 0 0 0 233 760H791z" />
    <glyph glyph-name="line-login"
      unicode="&#xE15B;"
      horiz-adv-x="1024" d="M719 845H243A49 49 0 0 1 200 821L20 508H413V618A13 13 0 0 0 435 628L668 403A18 18 0 0 0 668 377L435 137A13 13 0 0 0 413 145V256H19L201 -53A49 49 0 0 1 243 -77H719A49 49 0 0 1 761 -53L998 360A49 49 0 0 1 998 408L761 821A49 49 0 0 1 719 845zM709 778L935 384L709 -10H253L135 189H347L347 145C347 102 382 66 426 66A79 79 0 0 1 483 90L716 331C747 362 748 412 720 445L714 450L481 676C450 706 399 705 369 674L364 668A79 79 0 0 1 347 618L347 575H135L253 778H709z" />
    <glyph glyph-name="line-login-1"
      unicode="&#x6C;&#x69;&#x6E;&#x65;&#x5F;&#x6C;&#x6F;&#x67;&#x69;&#x6E;"
      horiz-adv-x="1024" d="M719 845H243A49 49 0 0 1 200 821L20 508H413V618A13 13 0 0 0 435 628L668 403A18 18 0 0 0 668 377L435 137A13 13 0 0 0 413 145V256H19L201 -53A49 49 0 0 1 243 -77H719A49 49 0 0 1 761 -53L998 360A49 49 0 0 1 998 408L761 821A49 49 0 0 1 719 845zM709 778L935 384L709 -10H253L135 189H347L347 145C347 102 382 66 426 66A79 79 0 0 1 483 90L716 331C747 362 748 412 720 445L714 450L481 676C450 706 399 705 369 674L364 668A79 79 0 0 1 347 618L347 575H135L253 778H709z" />
    <glyph glyph-name="line-man"
      unicode="&#xE125;"
      horiz-adv-x="1024" d="M353 579A33 33 0 0 1 306 532L512 326L718 532A33 33 0 0 1 671 579L512 420L353 579zM296 480L296 207A33 33 0 1 1 363 207V413L296 480zM661 207L661 413L728 480V207A33 33 0 1 0 661 207zM307 827A238 238 0 0 1 69 589V179A238 238 0 0 1 307 -59H717A238 238 0 0 1 955 179V589A238 238 0 0 1 717 827H307zM136 589C136 684 212 760 307 760H717C812 760 888 684 888 589V179C888 84 812 8 717 8H307A172 172 0 0 0 136 179V589z" />
    <glyph glyph-name="line-man-1"
      unicode="&#x6C;&#x69;&#x6E;&#x65;&#x5F;&#x6D;&#x61;&#x6E;"
      horiz-adv-x="1024" d="M353 579A33 33 0 0 1 306 532L512 326L718 532A33 33 0 0 1 671 579L512 420L353 579zM296 480L296 207A33 33 0 1 1 363 207V413L296 480zM661 207L661 413L728 480V207A33 33 0 1 0 661 207zM307 827A238 238 0 0 1 69 589V179A238 238 0 0 1 307 -59H717A238 238 0 0 1 955 179V589A238 238 0 0 1 717 827H307zM136 589C136 684 212 760 307 760H717C812 760 888 684 888 589V179C888 84 812 8 717 8H307A172 172 0 0 0 136 179V589z" />
    <glyph glyph-name="line-manga"
      unicode="&#xE126;"
      horiz-adv-x="1024" d="M939 731H625A80 80 0 0 1 546 659V102A174 174 0 0 0 616 120H940zM399 731H84V120H399A176 176 0 0 0 479 102V651A80 80 0 0 1 406 731zM399 798A146 146 0 0 0 512 744A146 146 0 0 0 616 798H947A59 59 0 0 0 1006 745L1006 739V113A59 59 0 0 0 954 54L947 54H625C582 54 550 32 546 8L545 3A33 33 0 0 0 517 -30L512 -30C510 -30 508 -30 507 -30H506L503 -29L502 -29L500 -28L497 -27L496 -26A27 27 0 0 0 493 -24L491 -23C490 -22 490 -21 489 -21L488 -19C487 -19 486 -18 486 -17L485 -15L483 -13C483 -12 482 -12 482 -11S481 -9 481 -8L480 -7A34 34 0 0 0 479 3C479 29 445 54 399 54H77A59 59 0 0 0 18 106L18 113V739A59 59 0 0 0 70 798L77 798z" />
    <glyph glyph-name="line-manga-1"
      unicode="&#x6C;&#x69;&#x6E;&#x65;&#x5F;&#x6D;&#x61;&#x6E;&#x67;&#x61;"
      horiz-adv-x="1024" d="M939 731H625A80 80 0 0 1 546 659V102A174 174 0 0 0 616 120H940zM399 731H84V120H399A176 176 0 0 0 479 102V651A80 80 0 0 1 406 731zM399 798A146 146 0 0 0 512 744A146 146 0 0 0 616 798H947A59 59 0 0 0 1006 745L1006 739V113A59 59 0 0 0 954 54L947 54H625C582 54 550 32 546 8L545 3A33 33 0 0 0 517 -30L512 -30C510 -30 508 -30 507 -30H506L503 -29L502 -29L500 -28L497 -27L496 -26A27 27 0 0 0 493 -24L491 -23C490 -22 490 -21 489 -21L488 -19C487 -19 486 -18 486 -17L485 -15L483 -13C483 -12 482 -12 482 -11S481 -9 481 -8L480 -7A34 34 0 0 0 479 3C479 29 445 54 399 54H77A59 59 0 0 0 18 106L18 113V739A59 59 0 0 0 70 798L77 798z" />
    <glyph glyph-name="line-melody-shop"
      unicode="&#xE127;"
      horiz-adv-x="1024" d="M740 879C762 906 805 900 820 868L890 710A32 32 0 0 0 889 683C879 661 849 634 789 610A502 502 0 0 0 752 597C706 582 661 580 618 587L738 318C808 162 741 -21 588 -95L577 -101C418 -172 230 -100 159 60C88 220 160 407 320 479A313 313 0 0 0 377 498L390 500L280 748A57 57 0 0 0 301 819L306 822C358 848 414 865 471 861C491 859 509 857 535 851L585 840C642 827 666 827 695 839C714 847 728 859 737 874zM772 815L766 809C753 797 738 787 719 779C670 759 634 762 546 782L534 785C503 792 486 795 466 796C424 799 378 786 335 764L342 767L467 486C474 468 465 449 448 443L443 442L438 441C406 440 375 433 346 420C219 363 161 214 218 86C275 -41 424 -98 551 -42S736 164 679 292L531 625C518 653 548 680 575 667L577 666C589 660 607 654 629 650C662 645 697 647 733 658A437 437 0 0 1 765 670C792 681 811 692 823 703L822 702L772 815zM449 326C524 326 585 265 585 189C585 113 524 52 449 52C373 52 312 113 312 189C312 265 373 326 449 326zM449 261C409 261 376 229 376 189C376 149 409 117 449 117C489 117 521 149 521 189C521 229 489 261 449 261z" />
    <glyph glyph-name="line-melody-shop-1"
      unicode="&#x6C;&#x69;&#x6E;&#x65;&#x5F;&#x6D;&#x65;&#x6C;&#x6F;&#x64;&#x79;&#x5F;&#x73;&#x68;&#x6F;&#x70;"
      horiz-adv-x="1024" d="M740 879C762 906 805 900 820 868L890 710A32 32 0 0 0 889 683C879 661 849 634 789 610A502 502 0 0 0 752 597C706 582 661 580 618 587L738 318C808 162 741 -21 588 -95L577 -101C418 -172 230 -100 159 60C88 220 160 407 320 479A313 313 0 0 0 377 498L390 500L280 748A57 57 0 0 0 301 819L306 822C358 848 414 865 471 861C491 859 509 857 535 851L585 840C642 827 666 827 695 839C714 847 728 859 737 874zM772 815L766 809C753 797 738 787 719 779C670 759 634 762 546 782L534 785C503 792 486 795 466 796C424 799 378 786 335 764L342 767L467 486C474 468 465 449 448 443L443 442L438 441C406 440 375 433 346 420C219 363 161 214 218 86C275 -41 424 -98 551 -42S736 164 679 292L531 625C518 653 548 680 575 667L577 666C589 660 607 654 629 650C662 645 697 647 733 658A437 437 0 0 1 765 670C792 681 811 692 823 703L822 702L772 815zM449 326C524 326 585 265 585 189C585 113 524 52 449 52C373 52 312 113 312 189C312 265 373 326 449 326zM449 261C409 261 376 229 376 189C376 149 409 117 449 117C489 117 521 149 521 189C521 229 489 261 449 261z" />
    <glyph glyph-name="line-messaging-api"
      unicode="&#xE15C;"
      horiz-adv-x="1024" d="M929 820A38 38 0 0 0 968 781V141A38 38 0 0 0 929 103H200L56 -52V781A38 38 0 0 0 95 820H929zM901 753H123V118L171 169H901zM316 510A53 53 0 1 0 263 457A53 53 0 0 0 316 510zM513 510A53 53 0 1 0 460 457A53 53 0 0 0 513 510zM708 510A53 53 0 1 0 655 457A53 53 0 0 0 708 510z" />
    <glyph glyph-name="line-messaging-api-1"
      unicode="&#x6C;&#x69;&#x6E;&#x65;&#x5F;&#x6D;&#x65;&#x73;&#x73;&#x61;&#x67;&#x69;&#x6E;&#x67;&#x5F;&#x61;&#x70;&#x69;"
      horiz-adv-x="1024" d="M929 820A38 38 0 0 0 968 781V141A38 38 0 0 0 929 103H200L56 -52V781A38 38 0 0 0 95 820H929zM901 753H123V118L171 169H901zM316 510A53 53 0 1 0 263 457A53 53 0 0 0 316 510zM513 510A53 53 0 1 0 460 457A53 53 0 0 0 513 510zM708 510A53 53 0 1 0 655 457A53 53 0 0 0 708 510z" />
    <glyph glyph-name="line-messenger"
      unicode="&#xE147;"
      horiz-adv-x="1024" d="M804 896C925 896 1024 797 1024 676V92C1024 -29 925 -128 804 -128H220C99 -128 0 -29 0 92V676C0 797 99 896 220 896H804zM505 731C318 731 136 607 136 429C136 275 272 152 449 129C482 122 484 110 484 94C485 79 477 49 476 35C475 14 494 18 508 24C523 29 590 70 627 94C663 124 889 254 883 428C883 584 731 731 505 731zM293 509C297 508 299 505 299 502V373H370C375 373 378 371 378 367V339C377 335 374 332 370 332H266C261 333 259 335 259 339V502C259 506 262 509 266 509H293zM435 509C441 508 441 502 441 502L441 426L441 405L441 395L441 367L441 359L441 339C441 333 437 332 435 332L408 332S400 333 400 339V502C401 506 403 509 408 509H435zM500 509C505 508 506 505 507 504L573 415L580 405V502C580 505 582 507 585 508L587 509H614C617 509 619 507 620 504L621 502V339C621 336 619 334 616 333L614 332H587C586 332 584 333 583 334L581 335L507 436V339C507 336 505 334 502 333L500 332H474C470 332 468 334 467 337L466 339V502C467 506 469 508 471 509L474 509H500zM758 509C763 508 765 506 765 502V474C764 470 762 468 758 468H687V441H758C762 440 765 438 765 434V408C765 403 762 400 758 400H687V373H758C762 372 765 370 765 366V339C765 335 762 332 758 332H654C649 333 646 335 646 339V502C647 506 650 509 654 509H758z" />
    <glyph glyph-name="line-messenger-1"
      unicode="&#x6C;&#x69;&#x6E;&#x65;&#x5F;&#x6D;&#x65;&#x73;&#x73;&#x65;&#x6E;&#x67;&#x65;&#x72;"
      horiz-adv-x="1024" d="M804 896C925 896 1024 797 1024 676V92C1024 -29 925 -128 804 -128H220C99 -128 0 -29 0 92V676C0 797 99 896 220 896H804zM505 731C318 731 136 607 136 429C136 275 272 152 449 129C482 122 484 110 484 94C485 79 477 49 476 35C475 14 494 18 508 24C523 29 590 70 627 94C663 124 889 254 883 428C883 584 731 731 505 731zM293 509C297 508 299 505 299 502V373H370C375 373 378 371 378 367V339C377 335 374 332 370 332H266C261 333 259 335 259 339V502C259 506 262 509 266 509H293zM435 509C441 508 441 502 441 502L441 426L441 405L441 395L441 367L441 359L441 339C441 333 437 332 435 332L408 332S400 333 400 339V502C401 506 403 509 408 509H435zM500 509C505 508 506 505 507 504L573 415L580 405V502C580 505 582 507 585 508L587 509H614C617 509 619 507 620 504L621 502V339C621 336 619 334 616 333L614 332H587C586 332 584 333 583 334L581 335L507 436V339C507 336 505 334 502 333L500 332H474C470 332 468 334 467 337L466 339V502C467 506 469 508 471 509L474 509H500zM758 509C763 508 765 506 765 502V474C764 470 762 468 758 468H687V441H758C762 440 765 438 765 434V408C765 403 762 400 758 400H687V373H758C762 372 765 370 765 366V339C765 335 762 332 758 332H654C649 333 646 335 646 339V502C647 506 650 509 654 509H758z" />
    <glyph glyph-name="line-messenger-alt"
      unicode="&#xE146;"
      horiz-adv-x="1024" d="M506 872C815 872 1024 670 1024 456C1032 218 721 40 672 -1C622 -34 531 -90 510 -98C490 -105 465 -112 466 -82C467 -63 478 -22 477 -1C477 20 474 37 428 47C186 78 0 247 0 457C0 702 250 872 506 872zM650 565H614C608 564 604 561 604 555V423L504 559C503 560 501 564 494 565H458C452 565 449 562 448 555V332C449 325 452 322 458 322H494C500 323 504 326 504 332V465L606 326C608 324 611 322 614 322H650C657 323 660 327 660 332V555C659 562 656 565 650 565zM210 565H173C167 565 164 562 163 555V332C163 326 166 323 173 322H316C322 322 325 325 326 332V370C326 375 323 378 316 378H219V555C219 560 216 564 210 565zM404 565H367C361 565 358 562 357 555V332C357 323 367 322 367 322L405 322C407 322 413 324 413 332L413 335L413 358L413 367L413 386A287300 287300 0 0 0 413 397L413 420L413 432L413 467C413 471 413 475 413 479V554L413 555C413 555 413 564 404 565zM849 565H705C699 565 696 562 695 555V332C695 326 698 323 705 322H849C854 322 858 325 858 332V368C858 374 854 377 849 378H751V416H849C854 416 857 419 858 426V462C858 468 854 471 849 472H751V509H849C853 509 857 512 858 517V555C858 561 855 564 849 565z" />
    <glyph glyph-name="line-messenger-alt-1"
      unicode="&#x6C;&#x69;&#x6E;&#x65;&#x5F;&#x6D;&#x65;&#x73;&#x73;&#x65;&#x6E;&#x67;&#x65;&#x72;&#x5F;&#x61;&#x6C;&#x74;"
      horiz-adv-x="1024" d="M506 872C815 872 1024 670 1024 456C1032 218 721 40 672 -1C622 -34 531 -90 510 -98C490 -105 465 -112 466 -82C467 -63 478 -22 477 -1C477 20 474 37 428 47C186 78 0 247 0 457C0 702 250 872 506 872zM650 565H614C608 564 604 561 604 555V423L504 559C503 560 501 564 494 565H458C452 565 449 562 448 555V332C449 325 452 322 458 322H494C500 323 504 326 504 332V465L606 326C608 324 611 322 614 322H650C657 323 660 327 660 332V555C659 562 656 565 650 565zM210 565H173C167 565 164 562 163 555V332C163 326 166 323 173 322H316C322 322 325 325 326 332V370C326 375 323 378 316 378H219V555C219 560 216 564 210 565zM404 565H367C361 565 358 562 357 555V332C357 323 367 322 367 322L405 322C407 322 413 324 413 332L413 335L413 358L413 367L413 386A287300 287300 0 0 0 413 397L413 420L413 432L413 467C413 471 413 475 413 479V554L413 555C413 555 413 564 404 565zM849 565H705C699 565 696 562 695 555V332C695 326 698 323 705 322H849C854 322 858 325 858 332V368C858 374 854 377 849 378H751V416H849C854 416 857 419 858 426V462C858 468 854 471 849 472H751V509H849C853 509 857 512 858 517V555C858 561 855 564 849 565z" />
    <glyph glyph-name="line-mini-app"
      unicode="&#xE16F;"
      horiz-adv-x="1024" d="M934 563V223C934 120 852 34 749 33A187 187 0 0 0 560 220V368L313 615A72 72 0 0 1 232 631C204 620 187 594 187 563V220C187 170 228 129 279 131C328 132 366 173 366 222V400C366 409 377 414 384 407L458 333A20 20 0 0 0 464 319V223C464 120 381 34 278 33A187 187 0 0 0 90 220V563A168 168 0 0 0 195 721A168 168 0 0 0 382 684L644 422C652 413 658 401 658 388V222C658 173 696 132 745 131A90 90 0 0 1 837 220V563C837 594 820 620 792 631A72 72 0 0 1 711 615L656 561A10 10 0 0 0 642 561L588 615A10 10 0 0 0 588 629L642 684A168 168 0 0 0 829 721A168 168 0 0 0 934 563H934z" />
    <glyph glyph-name="line-mini-app-1"
      unicode="&#x6C;&#x69;&#x6E;&#x65;&#x5F;&#x6D;&#x69;&#x6E;&#x69;&#x5F;&#x61;&#x70;&#x70;"
      horiz-adv-x="1024" d="M934 563V223C934 120 852 34 749 33A187 187 0 0 0 560 220V368L313 615A72 72 0 0 1 232 631C204 620 187 594 187 563V220C187 170 228 129 279 131C328 132 366 173 366 222V400C366 409 377 414 384 407L458 333A20 20 0 0 0 464 319V223C464 120 381 34 278 33A187 187 0 0 0 90 220V563A168 168 0 0 0 195 721A168 168 0 0 0 382 684L644 422C652 413 658 401 658 388V222C658 173 696 132 745 131A90 90 0 0 1 837 220V563C837 594 820 620 792 631A72 72 0 0 1 711 615L656 561A10 10 0 0 0 642 561L588 615A10 10 0 0 0 588 629L642 684A168 168 0 0 0 829 721A168 168 0 0 0 934 563H934z" />
    <glyph glyph-name="line-mini-app-badge"
      unicode="&#xE2C1;"
      horiz-adv-x="1024" d="M866 653L568 825A112 112 0 0 1 456 825L158 653A112 112 0 0 1 102 556V212C102 172 124 135 158 115L456 -57C491 -77 533 -77 568 -57L866 115A112 112 0 0 1 922 212V556C922 596 900 633 866 653zM779 282C779 217 727 163 662 162A118 118 0 0 0 543 281V374L386 530A45 45 0 0 1 335 540A45 45 0 0 1 306 497V281C306 249 333 223 365 224A57 57 0 0 1 420 282V394C420 400 427 403 431 399L478 352C480 350 481 346 481 343V282C481 217 429 163 364 162A118 118 0 0 0 245 281V497C245 542 271 580 312 597A106 106 0 0 0 429 574L595 408C601 402 604 395 604 387V282C604 251 628 225 659 224A57 57 0 0 1 718 281V497A45 45 0 0 1 689 540A45 45 0 0 1 638 530L603 496A6 6 0 0 0 594 496L560 530A6 6 0 0 0 560 539L594 574A106 106 0 0 0 712 597A106 106 0 0 0 779 497V282z" />
    <glyph glyph-name="line-mini-app-badge-1"
      unicode="&#x6C;&#x69;&#x6E;&#x65;&#x5F;&#x6D;&#x69;&#x6E;&#x69;&#x5F;&#x61;&#x70;&#x70;&#x5F;&#x62;&#x61;&#x64;&#x67;&#x65;"
      horiz-adv-x="1024" d="M866 653L568 825A112 112 0 0 1 456 825L158 653A112 112 0 0 1 102 556V212C102 172 124 135 158 115L456 -57C491 -77 533 -77 568 -57L866 115A112 112 0 0 1 922 212V556C922 596 900 633 866 653zM779 282C779 217 727 163 662 162A118 118 0 0 0 543 281V374L386 530A45 45 0 0 1 335 540A45 45 0 0 1 306 497V281C306 249 333 223 365 224A57 57 0 0 1 420 282V394C420 400 427 403 431 399L478 352C480 350 481 346 481 343V282C481 217 429 163 364 162A118 118 0 0 0 245 281V497C245 542 271 580 312 597A106 106 0 0 0 429 574L595 408C601 402 604 395 604 387V282C604 251 628 225 659 224A57 57 0 0 1 718 281V497A45 45 0 0 1 689 540A45 45 0 0 1 638 530L603 496A6 6 0 0 0 594 496L560 530A6 6 0 0 0 560 539L594 574A106 106 0 0 0 712 597A106 106 0 0 0 779 497V282z" />
    <glyph glyph-name="line-mobile"
      unicode="&#xE128;"
      horiz-adv-x="1024" d="M141 13V755H883V13H141zM134 822C101 822 74 795 74 762V6C74 -27 101 -54 134 -54H890C923 -54 950 -27 950 6V762C950 795 923 822 890 822H134zM512 346L312 540V212H558L492 146H246V622H328L512 438L696 622H778V146H712V540L512 346z" />
    <glyph glyph-name="line-mobile-1"
      unicode="&#x6C;&#x69;&#x6E;&#x65;&#x5F;&#x6D;&#x6F;&#x62;&#x69;&#x6C;&#x65;"
      horiz-adv-x="1024" d="M141 13V755H883V13H141zM134 822C101 822 74 795 74 762V6C74 -27 101 -54 134 -54H890C923 -54 950 -27 950 6V762C950 795 923 822 890 822H134zM512 346L312 540V212H558L492 146H246V622H328L512 438L696 622H778V146H712V540L512 346z" />
    <glyph glyph-name="line-monary"
      unicode="&#xE255;"
      horiz-adv-x="1024" d="M477 631A493 493 0 0 1 128 776A497 497 0 0 1 46 769A33 33 0 0 1 18 736L18 -8H238V331A492 492 0 0 1 351 275V289C351 308 352 327 354 345A428 428 0 0 0 86 707A426 426 0 0 0 437 577C450 596 463 614 477 631zM84 59V495A496 496 0 0 1 172 384H172V59H84zM1006 736A33 33 0 0 1 978 769A497 497 0 0 1 896 776C625 776 406 558 402 288V-8H622V261A492 492 0 0 1 786 331V-8H1006V736H1006zM940 495V59H852V384H852A496 496 0 0 1 940 495zM555 314L555 59H468V288A428 428 0 0 0 938 707A428 428 0 0 0 607 325L555 314z" />
    <glyph glyph-name="line-monary-1"
      unicode="&#x6C;&#x69;&#x6E;&#x65;&#x5F;&#x6D;&#x6F;&#x6E;&#x61;&#x72;&#x79;"
      horiz-adv-x="1024" d="M477 631A493 493 0 0 1 128 776A497 497 0 0 1 46 769A33 33 0 0 1 18 736L18 -8H238V331A492 492 0 0 1 351 275V289C351 308 352 327 354 345A428 428 0 0 0 86 707A426 426 0 0 0 437 577C450 596 463 614 477 631zM84 59V495A496 496 0 0 1 172 384H172V59H84zM1006 736A33 33 0 0 1 978 769A497 497 0 0 1 896 776C625 776 406 558 402 288V-8H622V261A492 492 0 0 1 786 331V-8H1006V736H1006zM940 495V59H852V384H852A496 496 0 0 1 940 495zM555 314L555 59H468V288A428 428 0 0 0 938 707A428 428 0 0 0 607 325L555 314z" />
    <glyph glyph-name="line-movie"
      unicode="&#xE12A;"
      horiz-adv-x="1024" d="M917 812C950 812 976 785 976 753V15C976 -17 950 -44 917 -44H107C74 -44 48 -17 48 15V753C48 785 74 812 107 812zM910 573H114L114 23H910L910 573zM435 421L644 300L435 180V421zM170 745H114L114 640H275L170 745zM910 745H747L853 640H910L910 745zM653 745H506L611 640H759L653 745zM412 745H264L370 640H517L412 745z" />
    <glyph glyph-name="line-movie-1"
      unicode="&#x6C;&#x69;&#x6E;&#x65;&#x5F;&#x6D;&#x6F;&#x76;&#x69;&#x65;"
      horiz-adv-x="1024" d="M917 812C950 812 976 785 976 753V15C976 -17 950 -44 917 -44H107C74 -44 48 -17 48 15V753C48 785 74 812 107 812zM910 573H114L114 23H910L910 573zM435 421L644 300L435 180V421zM170 745H114L114 640H275L170 745zM910 745H747L853 640H910L910 745zM653 745H506L611 640H759L653 745zM412 745H264L370 640H517L412 745z" />
    <glyph glyph-name="line-movie-alt"
      unicode="&#xE129;"
      horiz-adv-x="1024" d="M512 858C774 858 986 646 986 384C986 211 893 60 754 -23L941 -23V-90L515 -90L512 -90C255 -90 46 115 39 370L38 384C38 646 250 858 512 858zM512 791C287 791 105 609 105 384C105 159 287 -23 512 -23H512H512L515 -23C739 -21 919 160 919 384C919 609 737 791 512 791zM512 302C558 302 595 265 595 219S558 135 512 135S429 173 429 219S466 302 512 302zM512 251A32 32 0 1 1 512 187A32 32 0 0 1 512 251zM347 467C393 467 430 430 430 384S393 301 347 301S263 338 263 384S301 467 347 467zM677 467C723 467 761 430 761 384S723 301 677 301S594 338 594 384S631 467 677 467zM347 416A32 32 0 1 1 347 352A32 32 0 0 1 347 416zM677 416A32 32 0 1 1 677 352A32 32 0 0 1 677 416zM512 633C558 633 595 595 595 549S558 466 512 466S429 503 429 549S466 633 512 633zM512 581A32 32 0 1 1 512 517A32 32 0 0 1 512 581z" />
    <glyph glyph-name="line-movie-alt-1"
      unicode="&#x6C;&#x69;&#x6E;&#x65;&#x5F;&#x6D;&#x6F;&#x76;&#x69;&#x65;&#x5F;&#x61;&#x6C;&#x74;"
      horiz-adv-x="1024" d="M512 858C774 858 986 646 986 384C986 211 893 60 754 -23L941 -23V-90L515 -90L512 -90C255 -90 46 115 39 370L38 384C38 646 250 858 512 858zM512 791C287 791 105 609 105 384C105 159 287 -23 512 -23H512H512L515 -23C739 -21 919 160 919 384C919 609 737 791 512 791zM512 302C558 302 595 265 595 219S558 135 512 135S429 173 429 219S466 302 512 302zM512 251A32 32 0 1 1 512 187A32 32 0 0 1 512 251zM347 467C393 467 430 430 430 384S393 301 347 301S263 338 263 384S301 467 347 467zM677 467C723 467 761 430 761 384S723 301 677 301S594 338 594 384S631 467 677 467zM347 416A32 32 0 1 1 347 352A32 32 0 0 1 347 416zM677 416A32 32 0 1 1 677 352A32 32 0 0 1 677 416zM512 633C558 633 595 595 595 549S558 466 512 466S429 503 429 549S466 633 512 633zM512 581A32 32 0 1 1 512 517A32 32 0 0 1 512 581z" />
    <glyph glyph-name="line-music"
      unicode="&#xE12B;"
      horiz-adv-x="1024" d="M301 717V756A31 31 0 0 0 326 786L842 881A24 24 0 0 0 870 857V818A30 30 0 0 0 845 788L329 694A23 23 0 0 0 301 717zM226 262H299V569A31 31 0 0 0 324 599L841 693A23 23 0 0 0 869 670V170A173 173 0 0 0 699 -5A170 170 0 0 0 530 165A173 173 0 0 0 704 335H777V589L391 519V98A173 173 0 0 0 221 -77A170 170 0 0 0 51 93A173 173 0 0 0 226 262zM644 111A78 78 0 0 1 754 111C769 125 777 145 777 166V244H699A78 78 0 0 1 644 111zM190 19C200 16 210 14 221 15A78 78 0 0 1 299 93V170H221A78 78 0 0 1 139 93A78 78 0 0 1 190 20z" />
    <glyph glyph-name="line-music-1"
      unicode="&#x6C;&#x69;&#x6E;&#x65;&#x5F;&#x6D;&#x75;&#x73;&#x69;&#x63;"
      horiz-adv-x="1024" d="M301 717V756A31 31 0 0 0 326 786L842 881A24 24 0 0 0 870 857V818A30 30 0 0 0 845 788L329 694A23 23 0 0 0 301 717zM226 262H299V569A31 31 0 0 0 324 599L841 693A23 23 0 0 0 869 670V170A173 173 0 0 0 699 -5A170 170 0 0 0 530 165A173 173 0 0 0 704 335H777V589L391 519V98A173 173 0 0 0 221 -77A170 170 0 0 0 51 93A173 173 0 0 0 226 262zM644 111A78 78 0 0 1 754 111C769 125 777 145 777 166V244H699A78 78 0 0 1 644 111zM190 19C200 16 210 14 221 15A78 78 0 0 1 299 93V170H221A78 78 0 0 1 139 93A78 78 0 0 1 190 20z" />
    <glyph glyph-name="line-nearby"
      unicode="&#xE12C;"
      horiz-adv-x="1024" d="M512 896L528 896C631 892 730 850 805 775C967 613 967 338 805 176C766 137 721 92 674 43L610 -25L512 -128L489 -103L440 -51L360 33A13606 13606 0 0 1 292 102L264 131L219 176C57 338 57 613 219 775C298 853 403 896 512 896zM512 616C450 616 405 574 401 509C399 481 408 434 421 403C424 397 427 390 432 383L439 371C444 363 454 348 457 343C466 328 471 316 472 302C473 299 473 299 473 295C473 249 444 224 353 168L331 154L372 112C394 89 417 65 440 41L475 5L512 -35L548 4L628 87C651 110 672 133 693 154L690 156L683 161C582 222 551 248 551 295L551 300C551 300 552 301 552 302C553 316 558 328 567 343L580 363C584 369 587 374 588 375C594 385 599 394 603 403C616 434 625 481 623 509C619 574 574 616 512 616zM512 832C420 832 331 796 264 730C128 593 128 358 264 222L285 201L308 215C377 257 406 281 409 293L409 295C409 298 407 303 402 310L382 341C374 354 368 365 362 378C345 417 334 475 337 513C343 612 417 680 512 680S681 612 687 513C689 475 679 417 662 378C658 368 653 360 647 350L638 335C633 327 624 314 622 310C618 304 616 300 616 298L615 295C615 284 641 262 706 222L739 201L760 222C893 355 896 582 769 720L760 730C693 796 604 832 512 832z" />
    <glyph glyph-name="line-nearby-1"
      unicode="&#x6C;&#x69;&#x6E;&#x65;&#x5F;&#x6E;&#x65;&#x61;&#x72;&#x62;&#x79;"
      horiz-adv-x="1024" d="M512 896L528 896C631 892 730 850 805 775C967 613 967 338 805 176C766 137 721 92 674 43L610 -25L512 -128L489 -103L440 -51L360 33A13606 13606 0 0 1 292 102L264 131L219 176C57 338 57 613 219 775C298 853 403 896 512 896zM512 616C450 616 405 574 401 509C399 481 408 434 421 403C424 397 427 390 432 383L439 371C444 363 454 348 457 343C466 328 471 316 472 302C473 299 473 299 473 295C473 249 444 224 353 168L331 154L372 112C394 89 417 65 440 41L475 5L512 -35L548 4L628 87C651 110 672 133 693 154L690 156L683 161C582 222 551 248 551 295L551 300C551 300 552 301 552 302C553 316 558 328 567 343L580 363C584 369 587 374 588 375C594 385 599 394 603 403C616 434 625 481 623 509C619 574 574 616 512 616zM512 832C420 832 331 796 264 730C128 593 128 358 264 222L285 201L308 215C377 257 406 281 409 293L409 295C409 298 407 303 402 310L382 341C374 354 368 365 362 378C345 417 334 475 337 513C343 612 417 680 512 680S681 612 687 513C689 475 679 417 662 378C658 368 653 360 647 350L638 335C633 327 624 314 622 310C618 304 616 300 616 298L615 295C615 284 641 262 706 222L739 201L760 222C893 355 896 582 769 720L760 730C693 796 604 832 512 832z" />
    <glyph glyph-name="line-news"
      unicode="&#xE12D;"
      horiz-adv-x="1024" d="M881 743A36 36 0 0 1 845 778H179A36 36 0 0 1 143 743V25A36 36 0 0 1 179 -10H845A36 36 0 0 1 881 25V743zM77 743A102 102 0 0 0 179 845H845A102 102 0 0 0 947 743V25A102 102 0 0 0 845 -77H179A102 102 0 0 0 77 25V743zM360 503H664V570H360V503zM664 352H360V418H664V352zM360 198H664V265H360V198z" />
    <glyph glyph-name="line-news-1"
      unicode="&#x6C;&#x69;&#x6E;&#x65;&#x5F;&#x6E;&#x65;&#x77;&#x73;"
      horiz-adv-x="1024" d="M881 743A36 36 0 0 1 845 778H179A36 36 0 0 1 143 743V25A36 36 0 0 1 179 -10H845A36 36 0 0 1 881 25V743zM77 743A102 102 0 0 0 179 845H845A102 102 0 0 0 947 743V25A102 102 0 0 0 845 -77H179A102 102 0 0 0 77 25V743zM360 503H664V570H360V503zM664 352H360V418H664V352zM360 198H664V265H360V198z" />
    <glyph glyph-name="line-oa"
      unicode="&#xE12F;"
      horiz-adv-x="1024" d="M511 870C668 870 808 849 918 821C932 817 943 804 943 788L944 328C944 180 771 22 528 -99L522 -101H521L512 -102C506 -101 503 -101 501 -100L496 -98C252 22 79 180 79 329V786C79 801 89 814 103 819C203 847 353 870 511 870zM511 803C375 803 246 785 153 762L146 760V328C146 218 296 79 507 -29L511 -31L532 -21C730 83 869 214 877 319V328L876 761L860 765C770 785 660 800 540 802L511 803zM511 570L553 485L647 471L579 405L595 311L511 355L427 311L443 405L375 471L468 485L511 570z" />
    <glyph glyph-name="line-oa-1"
      unicode="&#x6C;&#x69;&#x6E;&#x65;&#x5F;&#x6F;&#x61;"
      horiz-adv-x="1024" d="M511 870C668 870 808 849 918 821C932 817 943 804 943 788L944 328C944 180 771 22 528 -99L522 -101H521L512 -102C506 -101 503 -101 501 -100L496 -98C252 22 79 180 79 329V786C79 801 89 814 103 819C203 847 353 870 511 870zM511 803C375 803 246 785 153 762L146 760V328C146 218 296 79 507 -29L511 -31L532 -21C730 83 869 214 877 319V328L876 761L860 765C770 785 660 800 540 802L511 803zM511 570L553 485L647 471L579 405L595 311L511 355L427 311L443 405L375 471L468 485L511 570z" />
    <glyph glyph-name="line-openchat"
      unicode="&#xE130;"
      horiz-adv-x="1024" d="M659 819C810 819 933 702 939 555L940 544V-17H873V544C873 655 783 747 670 752L659 752H365C250 752 157 664 151 554L151 544V257C151 146 241 55 354 49L365 49H668V-18H365C214 -18 91 99 85 246L84 257V544C84 692 204 813 354 819L365 819H659z" />
    <glyph glyph-name="line-openchat-1"
      unicode="&#x6C;&#x69;&#x6E;&#x65;&#x5F;&#x6F;&#x70;&#x65;&#x6E;&#x63;&#x68;&#x61;&#x74;"
      horiz-adv-x="1024" d="M659 819C810 819 933 702 939 555L940 544V-17H873V544C873 655 783 747 670 752L659 752H365C250 752 157 664 151 554L151 544V257C151 146 241 55 354 49L365 49H668V-18H365C214 -18 91 99 85 246L84 257V544C84 692 204 813 354 819L365 819H659z" />
    <glyph glyph-name="line-openchat-plus"
      unicode="&#xE2C5;"
      horiz-adv-x="1024" d="M365 812C211 812 84 689 84 537V250C84 97 211 -25 365 -25H794V42H365C246 42 151 136 151 250V537C151 651 246 745 365 745H659C778 745 873 651 873 537V-25H940V537C940 689 813 812 659 812H365zM479 609V417H287V351H479V159H545V351H737V417H545V609H479z" />
    <glyph glyph-name="line-openchat-plus-1"
      unicode="&#x6C;&#x69;&#x6E;&#x65;&#x5F;&#x6F;&#x70;&#x65;&#x6E;&#x63;&#x68;&#x61;&#x74;&#x5F;&#x70;&#x6C;&#x75;&#x73;"
      horiz-adv-x="1024" d="M365 812C211 812 84 689 84 537V250C84 97 211 -25 365 -25H794V42H365C246 42 151 136 151 250V537C151 651 246 745 365 745H659C778 745 873 651 873 537V-25H940V537C940 689 813 812 659 812H365zM479 609V417H287V351H479V159H545V351H737V417H545V609H479z" />
    <glyph glyph-name="line-openchat-thread"
      unicode="&#xE284;"
      horiz-adv-x="1024" d="M184 896A159 159 0 0 1 25 737V485A159 159 0 0 1 184 326H227V132A159 159 0 0 1 386 -27H504V-57A71 71 0 0 1 619 -113L725 -27H840A159 159 0 0 1 999 132V384A159 159 0 0 1 840 543H797V737A159 159 0 0 1 638 896H184zM577 -61A4 4 0 0 0 570 -57V39H386C335 39 293 81 293 132V326H350L432 264A71 71 0 0 1 545 321V460C545 469 553 477 562 477H839C891 477 932 435 932 384V132C932 81 891 39 839 39H702L577 -61zM731 543H562C516 543 479 506 479 460V321A5 5 0 0 0 471 317L372 392H184C133 392 92 434 92 485V737C92 788 133 829 184 829H638C689 829 731 788 731 737V543z" />
    <glyph glyph-name="line-openchat-thread-1"
      unicode="&#x6C;&#x69;&#x6E;&#x65;&#x5F;&#x6F;&#x70;&#x65;&#x6E;&#x63;&#x68;&#x61;&#x74;&#x5F;&#x74;&#x68;&#x72;&#x65;&#x61;&#x64;"
      horiz-adv-x="1024" d="M184 896A159 159 0 0 1 25 737V485A159 159 0 0 1 184 326H227V132A159 159 0 0 1 386 -27H504V-57A71 71 0 0 1 619 -113L725 -27H840A159 159 0 0 1 999 132V384A159 159 0 0 1 840 543H797V737A159 159 0 0 1 638 896H184zM577 -61A4 4 0 0 0 570 -57V39H386C335 39 293 81 293 132V326H350L432 264A71 71 0 0 1 545 321V460C545 469 553 477 562 477H839C891 477 932 435 932 384V132C932 81 891 39 839 39H702L577 -61zM731 543H562C516 543 479 506 479 460V321A5 5 0 0 0 471 317L372 392H184C133 392 92 434 92 485V737C92 788 133 829 184 829H638C689 829 731 788 731 737V543z" />
    <glyph glyph-name="line-parttime"
      unicode="&#xE131;"
      horiz-adv-x="1024" d="M664 850A33 33 0 0 0 698 817L698 795L855 795C885 795 910 772 914 742L914 736V-23C914 -53 891 -78 861 -81L855 -82H169C139 -82 114 -59 110 -29L110 -23V736C110 766 133 791 163 794L169 795L339 795L339 817A33 33 0 0 0 367 849L372 850zM339 728L177 728V-15H847V728L698 728L698 706A33 33 0 0 0 669 673L664 673H372A33 33 0 0 0 339 706L339 728zM728 265V214H308V265H728zM667 468C674 468 675 467 675 460C675 451 676 443 675 434C675 430 677 428 680 427C701 419 722 411 743 402C746 401 752 398 752 396C753 394 752 394 752 393C748 386 744 379 741 371C738 367 736 365 734 365C732 365 730 366 727 367C712 375 697 383 682 390C680 391 678 392 675 393V386C675 365 675 345 675 325C676 321 675 318 671 315H644C640 318 639 321 639 325C639 370 639 414 639 459C639 467 640 468 648 468zM588 470C591 470 593 468 597 464C601 461 605 458 609 455C614 450 614 447 609 443A2013 2013 0 0 0 570 410C567 408 566 405 566 402C566 376 566 350 566 325C566 317 565 316 557 316A853 853 0 0 0 548 316L543 316L539 316C532 316 531 318 530 324C530 342 530 360 530 378C530 380 530 381 530 384C520 379 510 374 501 370C495 367 489 365 484 362A8 8 0 0 0 480 361C478 361 477 362 475 364A343 343 0 0 0 465 383C462 387 464 390 469 393C482 398 494 403 506 410C533 424 557 443 580 464C584 468 586 470 588 470zM337 460A43 43 0 0 0 341 460C347 459 352 459 358 458C362 457 366 454 365 450C364 447 357 412 353 393C347 369 339 347 328 325C326 320 324 318 321 318C319 318 317 319 314 321A3253 3253 0 0 0 298 329C291 332 290 335 294 341A293 293 0 0 1 317 402C322 418 325 435 329 451C330 458 331 460 337 460zM404 461C407 461 409 460 410 457C427 418 441 379 450 338C450 337 450 336 451 334C451 331 448 329 446 328A260 260 0 0 0 421 321A7 7 0 0 0 420 321C416 321 415 324 414 328C410 344 406 361 401 377C394 399 386 421 379 443C377 448 377 451 383 453L400 460C402 461 403 461 404 461zM426 472C427 472 428 472 429 471C430 470 444 441 444 440C444 438 443 437 440 435C435 432 432 431 430 431C427 431 426 434 424 440C422 447 419 453 416 459C413 466 413 467 420 470A50 50 0 0 0 424 472A4 4 0 0 0 426 472zM448 481C450 481 451 479 451 478C456 468 463 451 464 449C465 446 463 445 462 444C459 442 456 440 453 439A2 2 0 0 0 452 439C451 439 448 440 447 442A2111 2111 0 0 0 436 470C435 473 435 475 438 477C441 478 443 479 447 481A3 3 0 0 0 448 481zM631 783H405V740H631V783z" />
    <glyph glyph-name="line-parttime-1"
      unicode="&#x6C;&#x69;&#x6E;&#x65;&#x5F;&#x70;&#x61;&#x72;&#x74;&#x74;&#x69;&#x6D;&#x65;"
      horiz-adv-x="1024" d="M664 850A33 33 0 0 0 698 817L698 795L855 795C885 795 910 772 914 742L914 736V-23C914 -53 891 -78 861 -81L855 -82H169C139 -82 114 -59 110 -29L110 -23V736C110 766 133 791 163 794L169 795L339 795L339 817A33 33 0 0 0 367 849L372 850zM339 728L177 728V-15H847V728L698 728L698 706A33 33 0 0 0 669 673L664 673H372A33 33 0 0 0 339 706L339 728zM728 265V214H308V265H728zM667 468C674 468 675 467 675 460C675 451 676 443 675 434C675 430 677 428 680 427C701 419 722 411 743 402C746 401 752 398 752 396C753 394 752 394 752 393C748 386 744 379 741 371C738 367 736 365 734 365C732 365 730 366 727 367C712 375 697 383 682 390C680 391 678 392 675 393V386C675 365 675 345 675 325C676 321 675 318 671 315H644C640 318 639 321 639 325C639 370 639 414 639 459C639 467 640 468 648 468zM588 470C591 470 593 468 597 464C601 461 605 458 609 455C614 450 614 447 609 443A2013 2013 0 0 0 570 410C567 408 566 405 566 402C566 376 566 350 566 325C566 317 565 316 557 316A853 853 0 0 0 548 316L543 316L539 316C532 316 531 318 530 324C530 342 530 360 530 378C530 380 530 381 530 384C520 379 510 374 501 370C495 367 489 365 484 362A8 8 0 0 0 480 361C478 361 477 362 475 364A343 343 0 0 0 465 383C462 387 464 390 469 393C482 398 494 403 506 410C533 424 557 443 580 464C584 468 586 470 588 470zM337 460A43 43 0 0 0 341 460C347 459 352 459 358 458C362 457 366 454 365 450C364 447 357 412 353 393C347 369 339 347 328 325C326 320 324 318 321 318C319 318 317 319 314 321A3253 3253 0 0 0 298 329C291 332 290 335 294 341A293 293 0 0 1 317 402C322 418 325 435 329 451C330 458 331 460 337 460zM404 461C407 461 409 460 410 457C427 418 441 379 450 338C450 337 450 336 451 334C451 331 448 329 446 328A260 260 0 0 0 421 321A7 7 0 0 0 420 321C416 321 415 324 414 328C410 344 406 361 401 377C394 399 386 421 379 443C377 448 377 451 383 453L400 460C402 461 403 461 404 461zM426 472C427 472 428 472 429 471C430 470 444 441 444 440C444 438 443 437 440 435C435 432 432 431 430 431C427 431 426 434 424 440C422 447 419 453 416 459C413 466 413 467 420 470A50 50 0 0 0 424 472A4 4 0 0 0 426 472zM448 481C450 481 451 479 451 478C456 468 463 451 464 449C465 446 463 445 462 444C459 442 456 440 453 439A2 2 0 0 0 452 439C451 439 448 440 447 442A2111 2111 0 0 0 436 470C435 473 435 475 438 477C441 478 443 479 447 481A3 3 0 0 0 448 481zM631 783H405V740H631V783z" />
    <glyph glyph-name="line-pay"
      unicode="&#xE132;"
      horiz-adv-x="1024" d="M914 774C968 774 1011 730 1011 676V92C1011 38 968 -6 914 -6H110C56 -6 13 38 13 92V676C13 730 56 774 110 774zM914 707H110A31 31 0 0 1 79 676V92A31 31 0 0 1 110 61H914A31 31 0 0 1 945 92V676A31 31 0 0 1 914 707zM676 444A7 7 0 0 0 682 440L720 347L757 440A7 7 0 0 0 763 444H804A4 4 0 0 0 808 438L722 223A7 7 0 0 0 716 219H675A4 4 0 0 0 672 224L695 283L631 438A4 4 0 0 0 635 444zM501 448C522 448 538 441 549 429V440C549 442 550 444 553 444H593A4 4 0 0 0 597 440V287A4 4 0 0 0 593 283H553A4 4 0 0 0 549 287V298C538 286 522 279 501 279C459 279 424 316 424 364C424 411 459 448 501 448zM327 508C372 508 406 474 406 431S372 354 328 354H294V291A8 8 0 0 0 286 283H250A8 8 0 0 0 242 291V500A8 8 0 0 0 250 508zM510 403C488 403 472 388 472 364S488 324 510 324S549 339 549 364S533 403 510 403zM327 460H294V402H327C343 402 355 415 355 431C355 447 343 460 327 460z" />
    <glyph glyph-name="line-pay-1"
      unicode="&#x6C;&#x69;&#x6E;&#x65;&#x5F;&#x70;&#x61;&#x79;"
      horiz-adv-x="1024" d="M914 774C968 774 1011 730 1011 676V92C1011 38 968 -6 914 -6H110C56 -6 13 38 13 92V676C13 730 56 774 110 774zM914 707H110A31 31 0 0 1 79 676V92A31 31 0 0 1 110 61H914A31 31 0 0 1 945 92V676A31 31 0 0 1 914 707zM676 444A7 7 0 0 0 682 440L720 347L757 440A7 7 0 0 0 763 444H804A4 4 0 0 0 808 438L722 223A7 7 0 0 0 716 219H675A4 4 0 0 0 672 224L695 283L631 438A4 4 0 0 0 635 444zM501 448C522 448 538 441 549 429V440C549 442 550 444 553 444H593A4 4 0 0 0 597 440V287A4 4 0 0 0 593 283H553A4 4 0 0 0 549 287V298C538 286 522 279 501 279C459 279 424 316 424 364C424 411 459 448 501 448zM327 508C372 508 406 474 406 431S372 354 328 354H294V291A8 8 0 0 0 286 283H250A8 8 0 0 0 242 291V500A8 8 0 0 0 250 508zM510 403C488 403 472 388 472 364S488 324 510 324S549 339 549 364S533 403 510 403zM327 460H294V402H327C343 402 355 415 355 431C355 447 343 460 327 460z" />
    <glyph glyph-name="line-paymap"
      unicode="&#xE24D;"
      horiz-adv-x="1024" d="M658 379A33 33 0 0 1 601 412C594 400 581 388 564 378C547 368 528 362 512 362C480 362 443 385 422 415A33 33 0 0 1 368 376C397 334 453 296 512 296C542 296 572 306 597 320C622 334 644 355 658 379zM400 493A41 41 0 1 1 400 574A41 41 0 0 1 400 492zM665 533A41 41 0 1 0 583 533A41 41 0 0 0 665 533zM802 761C643 917 380 917 221 761C57 601 51 329 216 163L468 -92C481 -106 498 -110 512 -110C527 -110 542 -105 555 -97A33 33 0 0 1 560 -92L813 163L813 163C973 330 966 595 803 761L802 761zM263 209C124 349 129 578 267 714C401 844 622 844 756 714C895 573 899 349 765 209L516 -43A12 12 0 0 0 513 -44L263 209z" />
    </font>
</defs>
</svg>
