<?xml version="1.0" standalone="no"?>
<!DOCTYPE svg PUBLIC "-//W3C//DTD SVG 1.1//EN" "http://www.w3.org/Graphics/SVG/1.1/DTD/svg11.dtd" >
<svg xmlns="http://www.w3.org/2000/svg">
<metadata>
LAICON Brand Solid Version 18.11
Copyright (c) LINE Corporation
</metadata>
<defs>
  <font id="laicon-brand-solid" horiz-adv-x="1024">
    <font-face font-family="laicon-brand-solid"
      units-per-em="1024" ascent="896"
      descent="128"
      font-weight="400"
      font-style="Regular" />
    <missing-glyph horiz-adv-x="1024" /><glyph unicode="&#x20;" horiz-adv-x="512" d="" />
    <glyph glyph-name="demae-can"
      unicode="&#xE258;"
      horiz-adv-x="1024" d="M995 561A24 24 0 0 1 974 573C972 573 971 573 969 572H546A24 24 0 0 1 528 564C528 568 528 572 528 577C528 617 516 653 494 680C510 697 525 718 531 736C545 779 518 815 510 822A16 16 0 0 1 493 823L377 757C331 762 267 757 216 704C152 637 170 556 182 523C184 518 187 514 193 511L198 509C206 484 222 462 246 444C151 457 105 443 80 397C56 354 65 290 67 276C63 263 50 197 97 173C98 173 100 172 101 172C94 166 88 160 84 152L78 138C64 107 47 69 35 40C29 24 28 5 32 -10C41 -43 71 -59 94 -62C99 -63 104 -63 109 -63C145 -63 175 -44 186 -9C188 -4 190 3 191 8C253 12 348 31 416 64C431 71 453 83 467 94H478C530 95 562 83 606 61C639 44 670 22 695 -7C708 -20 723 -29 740 -32C774 -38 806 -21 821 9C833 34 845 60 857 87C860 94 863 101 867 109C872 121 879 133 884 146C899 182 893 218 868 248A95 95 0 0 1 806 282C772 286 742 275 719 249C709 238 702 224 697 205C696 198 693 187 690 179C685 181 678 184 674 185C635 200 583 209 558 211C545 254 539 275 528 296C540 296 551 297 562 298L575 300C645 304 682 332 708 401C735 401 778 411 794 455H937A26 26 0 0 1 958 467L994 537C998 544 998 553 994 561L995 561zM217 232S217 234 219 236C231 247 257 285 227 322A22 22 0 0 0 224 325C242 322 264 318 275 315C278 315 281 314 283 313H285C301 279 314 250 336 179H335C293 165 241 148 176 174C191 182 209 198 217 232zM525 537L561 466C565 459 572 455 581 454C579 443 575 434 563 429C540 419 487 422 461 429C458 430 455 431 452 432C481 452 503 483 514 507C518 518 522 528 524 539C524 539 525 538 525 537L525 537z" />
    <glyph glyph-name="demae-can-1"
      unicode="&#x64;&#x65;&#x6D;&#x61;&#x65;&#x5F;&#x63;&#x61;&#x6E;"
      horiz-adv-x="1024" d="M995 561A24 24 0 0 1 974 573C972 573 971 573 969 572H546A24 24 0 0 1 528 564C528 568 528 572 528 577C528 617 516 653 494 680C510 697 525 718 531 736C545 779 518 815 510 822A16 16 0 0 1 493 823L377 757C331 762 267 757 216 704C152 637 170 556 182 523C184 518 187 514 193 511L198 509C206 484 222 462 246 444C151 457 105 443 80 397C56 354 65 290 67 276C63 263 50 197 97 173C98 173 100 172 101 172C94 166 88 160 84 152L78 138C64 107 47 69 35 40C29 24 28 5 32 -10C41 -43 71 -59 94 -62C99 -63 104 -63 109 -63C145 -63 175 -44 186 -9C188 -4 190 3 191 8C253 12 348 31 416 64C431 71 453 83 467 94H478C530 95 562 83 606 61C639 44 670 22 695 -7C708 -20 723 -29 740 -32C774 -38 806 -21 821 9C833 34 845 60 857 87C860 94 863 101 867 109C872 121 879 133 884 146C899 182 893 218 868 248A95 95 0 0 1 806 282C772 286 742 275 719 249C709 238 702 224 697 205C696 198 693 187 690 179C685 181 678 184 674 185C635 200 583 209 558 211C545 254 539 275 528 296C540 296 551 297 562 298L575 300C645 304 682 332 708 401C735 401 778 411 794 455H937A26 26 0 0 1 958 467L994 537C998 544 998 553 994 561L995 561zM217 232S217 234 219 236C231 247 257 285 227 322A22 22 0 0 0 224 325C242 322 264 318 275 315C278 315 281 314 283 313H285C301 279 314 250 336 179H335C293 165 241 148 176 174C191 182 209 198 217 232zM525 537L561 466C565 459 572 455 581 454C579 443 575 434 563 429C540 419 487 422 461 429C458 430 455 431 452 432C481 452 503 483 514 507C518 518 522 528 524 539C524 539 525 538 525 537L525 537z" />
    <glyph glyph-name="line-account-book"
      unicode="&#xE10D;"
      horiz-adv-x="1024" d="M488 846C502 856 522 856 536 846L583 812L513 762L512 762L137 489V-4H887V492L570 721L639 771L952 546C963 538 969 526 969 513V-19C969 -56 939 -86 902 -86H122C85 -86 55 -56 55 -19V510C55 523 61 536 72 543zM364 233C387 233 405 215 405 193C405 170 387 153 364 153A40 40 0 0 0 324 193C324 215 342 233 364 233zM669 226A33 33 0 0 0 702 193C702 174 687 159 669 159H491C473 159 458 174 458 193A33 33 0 0 0 491 226zM364 389C387 389 405 371 405 349C405 326 387 308 364 308A40 40 0 0 0 324 349C324 371 342 389 364 389zM669 382C687 382 702 367 702 348C702 330 687 315 669 315H491A33 33 0 1 0 491 382z" />
    <glyph glyph-name="line-account-book-1"
      unicode="&#x6C;&#x69;&#x6E;&#x65;&#x5F;&#x61;&#x63;&#x63;&#x6F;&#x75;&#x6E;&#x74;&#x5F;&#x62;&#x6F;&#x6F;&#x6B;"
      horiz-adv-x="1024" d="M488 846C502 856 522 856 536 846L583 812L513 762L512 762L137 489V-4H887V492L570 721L639 771L952 546C963 538 969 526 969 513V-19C969 -56 939 -86 902 -86H122C85 -86 55 -56 55 -19V510C55 523 61 536 72 543zM364 233C387 233 405 215 405 193C405 170 387 153 364 153A40 40 0 0 0 324 193C324 215 342 233 364 233zM669 226A33 33 0 0 0 702 193C702 174 687 159 669 159H491C473 159 458 174 458 193A33 33 0 0 0 491 226zM364 389C387 389 405 371 405 349C405 326 387 308 364 308A40 40 0 0 0 324 349C324 371 342 389 364 389zM669 382C687 382 702 367 702 348C702 330 687 315 669 315H491A33 33 0 1 0 491 382z" />
    <glyph glyph-name="line-air"
      unicode="&#xE152;"
      horiz-adv-x="1024" d="M84 896C104 844 135 780 190 713C211 691 242 660 274 627L292 610A17533 17533 0 0 1 416 487C460 443 497 381 499 278C499 251 499 219 499 180L500 150L500 134V100C500 94 500 88 500 82L499 45A83317 83317 0 0 0 499 -128C327 44 233 140 216 161C149 233 84 345 84 433V526C159 450 219 390 263 346L278 330L299 309L335 274C343 265 349 259 352 257C352 276 341 300 319 327C263 384 226 422 208 440C183 464 144 509 134 530C106 577 93 636 87 700C84 735 83 776 83 811L83 841C83 869 84 890 84 896zM940 896C940 880 943 778 937 700C931 636 918 577 890 530C880 509 841 464 816 440C798 422 761 384 705 327C683 300 672 276 672 257L675 260C678 263 683 268 689 274L731 316C736 320 741 325 746 330L761 346A222401 222401 0 0 1 940 526V433C940 345 875 233 808 161C793 142 713 60 567 -85L540 -113A63360 63360 0 0 0 525 -128C525 -56 525 8 524 64V165C525 211 525 248 525 278C527 381 564 443 608 487C608 487 664 542 723 601L750 627C782 660 813 691 834 713C889 780 920 844 940 896z" />
    <glyph glyph-name="line-air-1"
      unicode="&#x6C;&#x69;&#x6E;&#x65;&#x5F;&#x61;&#x69;&#x72;"
      horiz-adv-x="1024" d="M84 896C104 844 135 780 190 713C211 691 242 660 274 627L292 610A17533 17533 0 0 1 416 487C460 443 497 381 499 278C499 251 499 219 499 180L500 150L500 134V100C500 94 500 88 500 82L499 45A83317 83317 0 0 0 499 -128C327 44 233 140 216 161C149 233 84 345 84 433V526C159 450 219 390 263 346L278 330L299 309L335 274C343 265 349 259 352 257C352 276 341 300 319 327C263 384 226 422 208 440C183 464 144 509 134 530C106 577 93 636 87 700C84 735 83 776 83 811L83 841C83 869 84 890 84 896zM940 896C940 880 943 778 937 700C931 636 918 577 890 530C880 509 841 464 816 440C798 422 761 384 705 327C683 300 672 276 672 257L675 260C678 263 683 268 689 274L731 316C736 320 741 325 746 330L761 346A222401 222401 0 0 1 940 526V433C940 345 875 233 808 161C793 142 713 60 567 -85L540 -113A63360 63360 0 0 0 525 -128C525 -56 525 8 524 64V165C525 211 525 248 525 278C527 381 564 443 608 487C608 487 664 542 723 601L750 627C782 660 813 691 834 713C889 780 920 844 940 896z" />
    <glyph glyph-name="line-b612"
      unicode="&#xE10F;"
      horiz-adv-x="1024" d="M654 773C683 771 692 752 693 741C689 667 681 495 686 385C692 254 695 151 691 78C703 78 732 79 732 79C738 79 747 78 754 71C762 65 767 52 767 41C767 29 761 15 754 9C745 2 736 1 730 1L715 1C691 1 612 0 576 -5L566 -5L561 -5C549 -3 530 7 528 33C527 44 531 58 537 65C547 77 560 77 562 77C570 77 581 76 592 76L598 76C603 77 607 77 611 77C612 90 613 116 614 163L614 180C613 232 612 307 606 413C603 484 604 538 605 574C584 552 554 526 518 507C517 507 510 503 500 503C491 503 478 506 467 522C456 540 461 555 465 562C470 571 478 577 481 579A429 429 0 0 1 540 625C588 671 605 710 610 735L612 741C616 756 626 764 629 766C635 770 645 773 654 773zM843 730C884 729 914 716 936 690C950 674 960 652 964 627C969 603 969 576 964 546C955 483 933 423 911 365C898 331 885 296 875 263C859 210 859 146 861 113C882 114 939 116 939 116C951 116 973 108 974 78C975 46 951 36 942 36L924 35C895 35 836 34 810 33L809 33C803 33 797 35 793 37C790 39 784 44 782 54C781 59 780 69 780 83L779 90C778 120 776 198 793 275C803 316 823 366 837 399C842 411 845 418 847 423C870 485 883 538 884 559C884 574 885 598 880 617C875 637 866 645 851 646L844 647C809 647 802 630 791 608C788 601 786 595 782 590C781 587 774 578 758 574L757 574L753 574L752 574C745 574 734 575 726 580C709 591 707 604 707 613C707 623 710 634 711 637C712 639 718 661 736 683C754 704 786 730 843 730zM426 685C437 685 447 681 455 673C465 663 467 652 467 644C467 635 464 626 459 621C457 618 447 608 445 606C425 588 408 564 393 535C381 511 372 484 364 454C358 428 354 404 352 387C356 388 360 388 364 388C388 387 408 376 423 355C442 328 452 287 452 233C452 187 448 161 443 141C434 102 419 74 398 57C380 42 363 40 356 40L353 41C349 41 331 42 311 58C286 79 270 114 265 163C260 203 258 232 263 317C267 379 276 436 289 485C299 526 313 562 329 593C357 645 385 667 396 674C399 677 404 680 408 682A43 43 0 0 0 426 685zM87 696C112 696 153 687 190 663C218 644 253 610 256 553C257 525 253 498 244 472C236 451 225 431 211 413C203 402 194 392 184 383C202 372 215 355 225 334C235 310 236 288 236 288C239 247 236 209 226 176C217 149 205 125 188 106C161 72 131 61 128 60C117 55 97 49 80 48H79A42 42 0 0 0 65 51C56 56 52 64 52 73L51 101C51 139 50 197 50 249V280C50 315 51 345 52 362C53 387 54 454 54 521L54 581A20721 20721 0 0 1 54 666C54 675 57 681 58 683C66 694 76 696 81 696zM357 302C352 301 348 292 346 287C342 273 342 263 341 231C340 165 351 139 357 130C357 131 358 132 358 133C363 145 368 170 369 225C369 268 364 288 360 297C359 300 358 301 357 302zM130 326L130 158C130 159 130 159 131 160C152 189 156 229 156 258C156 283 151 314 130 326zM134 607L132 436C135 439 139 443 142 447C165 475 176 508 175 546C174 572 164 591 146 602A69 69 0 0 1 134 607z" />
    <glyph glyph-name="line-b612-1"
      unicode="&#x6C;&#x69;&#x6E;&#x65;&#x5F;&#x62;&#x36;&#x31;&#x32;"
      horiz-adv-x="1024" d="M654 773C683 771 692 752 693 741C689 667 681 495 686 385C692 254 695 151 691 78C703 78 732 79 732 79C738 79 747 78 754 71C762 65 767 52 767 41C767 29 761 15 754 9C745 2 736 1 730 1L715 1C691 1 612 0 576 -5L566 -5L561 -5C549 -3 530 7 528 33C527 44 531 58 537 65C547 77 560 77 562 77C570 77 581 76 592 76L598 76C603 77 607 77 611 77C612 90 613 116 614 163L614 180C613 232 612 307 606 413C603 484 604 538 605 574C584 552 554 526 518 507C517 507 510 503 500 503C491 503 478 506 467 522C456 540 461 555 465 562C470 571 478 577 481 579A429 429 0 0 1 540 625C588 671 605 710 610 735L612 741C616 756 626 764 629 766C635 770 645 773 654 773zM843 730C884 729 914 716 936 690C950 674 960 652 964 627C969 603 969 576 964 546C955 483 933 423 911 365C898 331 885 296 875 263C859 210 859 146 861 113C882 114 939 116 939 116C951 116 973 108 974 78C975 46 951 36 942 36L924 35C895 35 836 34 810 33L809 33C803 33 797 35 793 37C790 39 784 44 782 54C781 59 780 69 780 83L779 90C778 120 776 198 793 275C803 316 823 366 837 399C842 411 845 418 847 423C870 485 883 538 884 559C884 574 885 598 880 617C875 637 866 645 851 646L844 647C809 647 802 630 791 608C788 601 786 595 782 590C781 587 774 578 758 574L757 574L753 574L752 574C745 574 734 575 726 580C709 591 707 604 707 613C707 623 710 634 711 637C712 639 718 661 736 683C754 704 786 730 843 730zM426 685C437 685 447 681 455 673C465 663 467 652 467 644C467 635 464 626 459 621C457 618 447 608 445 606C425 588 408 564 393 535C381 511 372 484 364 454C358 428 354 404 352 387C356 388 360 388 364 388C388 387 408 376 423 355C442 328 452 287 452 233C452 187 448 161 443 141C434 102 419 74 398 57C380 42 363 40 356 40L353 41C349 41 331 42 311 58C286 79 270 114 265 163C260 203 258 232 263 317C267 379 276 436 289 485C299 526 313 562 329 593C357 645 385 667 396 674C399 677 404 680 408 682A43 43 0 0 0 426 685zM87 696C112 696 153 687 190 663C218 644 253 610 256 553C257 525 253 498 244 472C236 451 225 431 211 413C203 402 194 392 184 383C202 372 215 355 225 334C235 310 236 288 236 288C239 247 236 209 226 176C217 149 205 125 188 106C161 72 131 61 128 60C117 55 97 49 80 48H79A42 42 0 0 0 65 51C56 56 52 64 52 73L51 101C51 139 50 197 50 249V280C50 315 51 345 52 362C53 387 54 454 54 521L54 581A20721 20721 0 0 1 54 666C54 675 57 681 58 683C66 694 76 696 81 696zM357 302C352 301 348 292 346 287C342 273 342 263 341 231C340 165 351 139 357 130C357 131 358 132 358 133C363 145 368 170 369 225C369 268 364 288 360 297C359 300 358 301 357 302zM130 326L130 158C130 159 130 159 131 160C152 189 156 229 156 258C156 283 151 314 130 326zM134 607L132 436C135 439 139 443 142 447C165 475 176 508 175 546C174 572 164 591 146 602A69 69 0 0 1 134 607z" />
    <glyph glyph-name="line-beacon"
      unicode="&#xE188;"
      horiz-adv-x="1024" d="M854 121A34 34 0 0 0 829 178A444 444 0 0 1 832 798A34 34 0 0 0 880 845A512 512 0 0 0 878 131A34 34 0 0 0 854 121zM201 124A34 34 0 0 1 201 172A444 444 0 0 0 199 805A34 34 0 1 1 151 853A512 512 0 0 1 154 124A34 34 0 0 1 201 124zM337 260A34 34 0 0 1 336 307A253 253 0 0 0 334 669A34 34 0 0 1 287 717A320 320 0 0 1 289 259A34 34 0 0 1 337 260zM742 267A320 320 0 0 1 745 709A34 34 0 1 1 696 663A252 252 0 0 0 694 314A34 34 0 0 1 742 267zM645 484A126 126 0 1 1 485 362V-61A34 34 0 0 1 553 -61V363A126 126 0 0 1 645 484z" />
    <glyph glyph-name="line-beacon-1"
      unicode="&#x6C;&#x69;&#x6E;&#x65;&#x5F;&#x62;&#x65;&#x61;&#x63;&#x6F;&#x6E;"
      horiz-adv-x="1024" d="M854 121A34 34 0 0 0 829 178A444 444 0 0 1 832 798A34 34 0 0 0 880 845A512 512 0 0 0 878 131A34 34 0 0 0 854 121zM201 124A34 34 0 0 1 201 172A444 444 0 0 0 199 805A34 34 0 1 1 151 853A512 512 0 0 1 154 124A34 34 0 0 1 201 124zM337 260A34 34 0 0 1 336 307A253 253 0 0 0 334 669A34 34 0 0 1 287 717A320 320 0 0 1 289 259A34 34 0 0 1 337 260zM742 267A320 320 0 0 1 745 709A34 34 0 1 1 696 663A252 252 0 0 0 694 314A34 34 0 0 1 742 267zM645 484A126 126 0 1 1 485 362V-61A34 34 0 0 1 553 -61V363A126 126 0 0 1 645 484z" />
    <glyph glyph-name="line-bill-split"
      unicode="&#xE110;"
      horiz-adv-x="1024" d="M849 829C881 829 908 802 908 770V13L802 -61L729 -10L657 -61L584 -10L512 -61L440 -10L367 -61L295 -10L222 -61L116 13V770C116 802 143 829 175 829zM559 303H317V251H559V303zM710 303H619V251H710V303zM559 438H317V387H559V438zM710 438H620V387H710V438zM559 574H317V523H559V574zM710 574H619V523H710V574z" />
    <glyph glyph-name="line-bill-split-1"
      unicode="&#x6C;&#x69;&#x6E;&#x65;&#x5F;&#x62;&#x69;&#x6C;&#x6C;&#x5F;&#x73;&#x70;&#x6C;&#x69;&#x74;"
      horiz-adv-x="1024" d="M849 829C881 829 908 802 908 770V13L802 -61L729 -10L657 -61L584 -10L512 -61L440 -10L367 -61L295 -10L222 -61L116 13V770C116 802 143 829 175 829zM559 303H317V251H559V303zM710 303H619V251H710V303zM559 438H317V387H559V438zM710 438H620V387H710V438zM559 574H317V523H559V574zM710 574H619V523H710V574z" />
    <glyph glyph-name="line-bitmax"
      unicode="&#xE111;"
      horiz-adv-x="1024" d="M455 861A113 113 0 0 0 569 861L893 673L893 672C903 666 912 659 919 651L754 555L533 685L533 685A42 42 0 0 1 491 685L270 556L105 651C113 660 122 667 131 673L455 861zM79 607A118 118 0 0 1 74 573V195C74 154 96 116 131 95L455 -93C490 -114 534 -114 569 -93L893 95A116 116 0 0 1 950 195V573A117 117 0 0 1 945 607L797 521L679 452V284A42 42 0 0 0 658 248L533 175A42 42 0 0 0 491 175L491 175L366 248A42 42 0 0 0 345 284V452L260 502A26 26 0 0 0 254 505L79 607zM512 638L320 526L383 489A26 26 0 0 0 396 467V289L512 222L628 289V467A26 26 0 0 0 635 485L636 485A26 26 0 0 0 641 489L704 526L512 638z" />
    <glyph glyph-name="line-bitmax-1"
      unicode="&#x6C;&#x69;&#x6E;&#x65;&#x5F;&#x62;&#x69;&#x74;&#x6D;&#x61;&#x78;"
      horiz-adv-x="1024" d="M455 861A113 113 0 0 0 569 861L893 673L893 672C903 666 912 659 919 651L754 555L533 685L533 685A42 42 0 0 1 491 685L270 556L105 651C113 660 122 667 131 673L455 861zM79 607A118 118 0 0 1 74 573V195C74 154 96 116 131 95L455 -93C490 -114 534 -114 569 -93L893 95A116 116 0 0 1 950 195V573A117 117 0 0 1 945 607L797 521L679 452V284A42 42 0 0 0 658 248L533 175A42 42 0 0 0 491 175L491 175L366 248A42 42 0 0 0 345 284V452L260 502A26 26 0 0 0 254 505L79 607zM512 638L320 526L383 489A26 26 0 0 0 396 467V289L512 222L628 289V467A26 26 0 0 0 635 485L636 485A26 26 0 0 0 641 489L704 526L512 638z" />
    <glyph glyph-name="line-blockchain"
      unicode="&#xE16E;"
      horiz-adv-x="1024" d="M495 878A38 38 0 0 0 522 882L527 880L532 878L730 765A38 38 0 0 0 750 732L750 543L753 540C812 493 842 447 858 380L1004 297A38 38 0 0 0 1023 264V38A38 38 0 0 0 1004 5L805 -110A38 38 0 0 0 767 -110L579 -2C556 -7 531 -9 504 -9C485 -9 468 -7 444 -2L258 -110A38 38 0 0 0 220 -110L20 5A38 38 0 0 0 1 38V264A38 38 0 0 0 20 297L157 374C164 464 201 531 274 580L274 732A38 38 0 0 0 294 765zM787 344L614 247L614 79C629 86 643 95 657 105A33 33 0 0 0 697 52A340 340 0 0 0 660 28L785 -43L785 149L955 248L801 336L798 336L798 338L787 344zM240 344L67 247V55L238 -43L238 149L408 248L240 344zM276 495L274 494C253 471 239 445 231 413A38 38 0 0 0 249 414L254 412L259 410L457 297A38 38 0 0 0 476 264L476 60C487 58 495 57 504 57C520 57 534 58 548 60L548 264A38 38 0 0 0 567 297L768 410A38 38 0 0 0 776 413C765 435 750 453 729 473L531 359A38 38 0 0 0 493 358L293 473A38 38 0 0 0 276 495zM513 812L340 715V523L511 425V617L681 716L513 812z" />
    <glyph glyph-name="line-blockchain-1"
      unicode="&#x6C;&#x69;&#x6E;&#x65;&#x5F;&#x62;&#x6C;&#x6F;&#x63;&#x6B;&#x63;&#x68;&#x61;&#x69;&#x6E;"
      horiz-adv-x="1024" d="M495 878A38 38 0 0 0 522 882L527 880L532 878L730 765A38 38 0 0 0 750 732L750 543L753 540C812 493 842 447 858 380L1004 297A38 38 0 0 0 1023 264V38A38 38 0 0 0 1004 5L805 -110A38 38 0 0 0 767 -110L579 -2C556 -7 531 -9 504 -9C485 -9 468 -7 444 -2L258 -110A38 38 0 0 0 220 -110L20 5A38 38 0 0 0 1 38V264A38 38 0 0 0 20 297L157 374C164 464 201 531 274 580L274 732A38 38 0 0 0 294 765zM787 344L614 247L614 79C629 86 643 95 657 105A33 33 0 0 0 697 52A340 340 0 0 0 660 28L785 -43L785 149L955 248L801 336L798 336L798 338L787 344zM240 344L67 247V55L238 -43L238 149L408 248L240 344zM276 495L274 494C253 471 239 445 231 413A38 38 0 0 0 249 414L254 412L259 410L457 297A38 38 0 0 0 476 264L476 60C487 58 495 57 504 57C520 57 534 58 548 60L548 264A38 38 0 0 0 567 297L768 410A38 38 0 0 0 776 413C765 435 750 453 729 473L531 359A38 38 0 0 0 493 358L293 473A38 38 0 0 0 276 495zM513 812L340 715V523L511 425V617L681 716L513 812z" />
    <glyph glyph-name="line-buzz"
      unicode="&#xE112;"
      horiz-adv-x="1024" d="M914 358A33 33 0 0 0 947 325V-18A33 33 0 0 0 914 -51H571A33 33 0 0 0 538 -18V325A33 33 0 0 0 571 358zM914 819A33 33 0 0 0 947 786V443A33 33 0 0 0 914 410H571A33 33 0 0 0 538 443V786A33 33 0 0 0 571 819zM453 819A33 33 0 0 0 486 786V443A33 33 0 0 0 453 410H110A33 33 0 0 0 77 443V786A33 33 0 0 0 110 819z" />
    <glyph glyph-name="line-buzz-1"
      unicode="&#x6C;&#x69;&#x6E;&#x65;&#x5F;&#x62;&#x75;&#x7A;&#x7A;"
      horiz-adv-x="1024" d="M914 358A33 33 0 0 0 947 325V-18A33 33 0 0 0 914 -51H571A33 33 0 0 0 538 -18V325A33 33 0 0 0 571 358zM914 819A33 33 0 0 0 947 786V443A33 33 0 0 0 914 410H571A33 33 0 0 0 538 443V786A33 33 0 0 0 571 819zM453 819A33 33 0 0 0 486 786V443A33 33 0 0 0 453 410H110A33 33 0 0 0 77 443V786A33 33 0 0 0 110 819z" />
    <glyph glyph-name="line-camera"
      unicode="&#xE113;"
      horiz-adv-x="1024" d="M762 837C874 837 965 746 965 634V134C965 22 874 -69 762 -69H262C150 -69 59 22 59 134V635C59 746 150 837 261 837zM512 585C401 585 311 495 311 384S401 183 512 183S713 273 713 384C713 495 623 585 512 585zM512 534C595 534 662 467 662 384S595 234 512 234C429 234 362 301 362 384S429 534 512 534zM512 471C494 471 477 465 463 456C450 447 439 433 432 418C428 407 425 396 425 384C425 336 464 297 512 297C560 297 599 336 599 384C599 396 596 407 592 418A87 87 0 0 1 561 456C547 465 530 471 512 471zM271 653A43 43 0 0 1 240 580C249 571 260 567 271 567C282 567 292 571 301 580A43 43 0 0 1 301 640A43 43 0 0 1 271 653z" />
    <glyph glyph-name="line-camera-1"
      unicode="&#x6C;&#x69;&#x6E;&#x65;&#x5F;&#x63;&#x61;&#x6D;&#x65;&#x72;&#x61;"
      horiz-adv-x="1024" d="M762 837C874 837 965 746 965 634V134C965 22 874 -69 762 -69H262C150 -69 59 22 59 134V635C59 746 150 837 261 837zM512 585C401 585 311 495 311 384S401 183 512 183S713 273 713 384C713 495 623 585 512 585zM512 534C595 534 662 467 662 384S595 234 512 234C429 234 362 301 362 384S429 534 512 534zM512 471C494 471 477 465 463 456C450 447 439 433 432 418C428 407 425 396 425 384C425 336 464 297 512 297C560 297 599 336 599 384C599 396 596 407 592 418A87 87 0 0 1 561 456C547 465 530 471 512 471zM271 653A43 43 0 0 1 240 580C249 571 260 567 271 567C282 567 292 571 301 580A43 43 0 0 1 301 640A43 43 0 0 1 271 653z" />
    <glyph glyph-name="line-channel"
      unicode="&#xE114;"
      horiz-adv-x="1024" d="M512 858C773 858 986 645 986 384C986 123 773 -90 512 -90S38 123 38 384C38 645 251 858 512 858zM429 536V234L690 385L429 536z" />
    <glyph glyph-name="line-channel-1"
      unicode="&#x6C;&#x69;&#x6E;&#x65;&#x5F;&#x63;&#x68;&#x61;&#x6E;&#x6E;&#x65;&#x6C;"
      horiz-adv-x="1024" d="M512 858C773 858 986 645 986 384C986 123 773 -90 512 -90S38 123 38 384C38 645 251 858 512 858zM429 536V234L690 385L429 536z" />
    <glyph glyph-name="line-chatbot"
      unicode="&#xE115;"
      horiz-adv-x="1024" d="M747 831C850 831 934 747 934 644V256C934 153 850 69 747 69H283L164 -50A44 44 0 0 0 133 -63C128 -63 122 -61 117 -59A43 43 0 0 0 90 -19V644C90 747 174 831 277 831zM619 367H405V316H619V367zM633 570C605 570 582 547 582 519S605 468 633 468S684 491 684 519S661 570 633 570zM391 570C363 570 340 547 340 519S363 468 391 468C419 468 442 491 442 519S419 570 391 570z" />
    <glyph glyph-name="line-chatbot-1"
      unicode="&#x6C;&#x69;&#x6E;&#x65;&#x5F;&#x63;&#x68;&#x61;&#x74;&#x62;&#x6F;&#x74;"
      horiz-adv-x="1024" d="M747 831C850 831 934 747 934 644V256C934 153 850 69 747 69H283L164 -50A44 44 0 0 0 133 -63C128 -63 122 -61 117 -59A43 43 0 0 0 90 -19V644C90 747 174 831 277 831zM619 367H405V316H619V367zM633 570C605 570 582 547 582 519S605 468 633 468S684 491 684 519S661 570 633 570zM391 570C363 570 340 547 340 519S363 468 391 468C419 468 442 491 442 519S419 570 391 570z" />
    <glyph glyph-name="line-coin"
      unicode="&#xE186;"
      horiz-adv-x="1024" d="M512 858A474 474 0 1 1 986 384A474 474 0 0 1 512 858zM657 226H410V592H461V278H655z" />
    <glyph glyph-name="line-coin-1"
      unicode="&#x6C;&#x69;&#x6E;&#x65;&#x5F;&#x63;&#x6F;&#x69;&#x6E;"
      horiz-adv-x="1024" d="M512 858A474 474 0 1 1 986 384A474 474 0 0 1 512 858zM657 226H410V592H461V278H655z" />
    <glyph glyph-name="line-discovery"
      unicode="&#xE117;"
      horiz-adv-x="1024" d="M278 729C406 816 578 828 721 745C863 663 939 509 928 354C1015 253 1043 162 1006 99C978 49 920 28 846 28C815 28 781 32 745 39C676 -8 594 -33 511 -33C441 -33 369 -15 303 23C161 105 85 260 96 414C92 419 88 423 85 428C7 523 -17 609 18 670C54 733 147 754 278 729zM210 671C141 677 92 664 75 636A46 46 0 0 1 70 622C63 593 78 551 112 502C120 491 128 480 137 468C138 468 138 467 139 466C146 457 155 447 165 436C203 396 258 346 336 293C341 289 346 286 350 283C359 277 368 271 377 265C393 255 409 246 426 236C443 226 460 217 476 208C581 153 667 124 730 110C745 107 758 104 770 102L772 102C787 99 800 98 813 96C825 96 836 95 846 95C869 95 889 98 906 103C906 103 907 103 907 103C911 104 915 106 918 108C922 109 926 111 930 114C932 115 934 116 936 118C941 122 946 127 949 132C965 160 951 209 912 266C903 235 890 205 873 175C867 165 860 156 854 146C842 146 829 147 814 148C803 149 790 151 776 153C697 167 586 203 452 280C318 357 231 436 180 497C171 508 163 518 156 528C148 540 140 552 135 562C140 572 145 583 151 593C167 622 188 648 210 671z" />
    <glyph glyph-name="line-discovery-1"
      unicode="&#x6C;&#x69;&#x6E;&#x65;&#x5F;&#x64;&#x69;&#x73;&#x63;&#x6F;&#x76;&#x65;&#x72;&#x79;"
      horiz-adv-x="1024" d="M278 729C406 816 578 828 721 745C863 663 939 509 928 354C1015 253 1043 162 1006 99C978 49 920 28 846 28C815 28 781 32 745 39C676 -8 594 -33 511 -33C441 -33 369 -15 303 23C161 105 85 260 96 414C92 419 88 423 85 428C7 523 -17 609 18 670C54 733 147 754 278 729zM210 671C141 677 92 664 75 636A46 46 0 0 1 70 622C63 593 78 551 112 502C120 491 128 480 137 468C138 468 138 467 139 466C146 457 155 447 165 436C203 396 258 346 336 293C341 289 346 286 350 283C359 277 368 271 377 265C393 255 409 246 426 236C443 226 460 217 476 208C581 153 667 124 730 110C745 107 758 104 770 102L772 102C787 99 800 98 813 96C825 96 836 95 846 95C869 95 889 98 906 103C906 103 907 103 907 103C911 104 915 106 918 108C922 109 926 111 930 114C932 115 934 116 936 118C941 122 946 127 949 132C965 160 951 209 912 266C903 235 890 205 873 175C867 165 860 156 854 146C842 146 829 147 814 148C803 149 790 151 776 153C697 167 586 203 452 280C318 357 231 436 180 497C171 508 163 518 156 528C148 540 140 552 135 562C140 572 145 583 151 593C167 622 188 648 210 671z" />
    <glyph glyph-name="line-dutch-pay"
      unicode="&#xE118;"
      horiz-adv-x="1024" d="M512 858C773 858 986 645 986 384C986 123 773 -90 512 -90C251 -90 38 123 38 384C38 645 251 858 512 858zM628 330H594V162H634V260H635L707 162H740V330H700V232H699L628 330zM701 597L298 195L324 169L726 572L701 597zM420 602H374L328 571V531L373 562H374V422H420V602z" />
    <glyph glyph-name="line-dutch-pay-1"
      unicode="&#x6C;&#x69;&#x6E;&#x65;&#x5F;&#x64;&#x75;&#x74;&#x63;&#x68;&#x5F;&#x70;&#x61;&#x79;"
      horiz-adv-x="1024" d="M512 858C773 858 986 645 986 384C986 123 773 -90 512 -90C251 -90 38 123 38 384C38 645 251 858 512 858zM628 330H594V162H634V260H635L707 162H740V330H700V232H699L628 330zM701 597L298 195L324 169L726 572L701 597zM420 602H374L328 571V531L373 562H374V422H420V602z" />
    <glyph glyph-name="line-ezstore"
      unicode="&#xE119;"
      horiz-adv-x="1024" d="M811 245C914 245 997 161 997 58C997 -41 919 -123 821 -128L811 -128H546C443 -128 359 -44 359 58C359 158 438 240 536 245L546 245H811zM425 896C521 896 600 821 605 726L605 716V702H738A51 51 0 0 0 788 660L788 654L808 287H546C420 287 317 185 317 58C317 19 328 -18 345 -50L352 -62H76C62 -62 49 -56 40 -47A49 49 0 0 0 27 -17L27 -10L61 654A51 51 0 0 0 106 702L112 702H245V716C245 815 326 896 425 896zM787 80H761L759 78V59H710L680 60L678 59V36L680 34L710 35H733C719 28 703 23 682 16L671 13L691 -7C692 -8 693 -8 694 -8C694 -8 695 -8 696 -8A218 218 0 0 1 718 -1L728 4V-9C722 -10 716 -10 710 -11L700 -11L698 -13L707 -40L709 -41C743 -35 770 -30 795 -25C797 -25 798 -24 799 -23L799 -21L800 -10C815 -23 833 -33 855 -39A3 3 0 0 1 857 -39L858 -38L879 -12C859 -8 844 -3 830 4A288 288 0 0 1 844 15L851 21V23L835 35H843L873 34L874 36V59L873 60L843 59H789V79L787 80zM649 137L613 136H530L494 137L493 136L493 99V49L492 -29H525V-11H617V-29H651L650 53V99L650 136L649 137zM771 28C776 17 783 8 791 -1L774 -4L757 -6V19C762 22 766 24 771 28zM617 109V16H525V109H617zM823 162L805 148L805 146C811 143 816 139 820 136L824 133L821 132L802 130C801 136 799 143 797 151L796 160L795 161L767 160L765 158C767 150 768 143 770 136L773 126L741 122L739 121L743 97L745 96L781 102C790 86 802 73 822 66C830 62 838 62 846 62C860 62 872 67 876 88C877 90 876 92 875 93L874 94L852 108C849 94 848 90 843 90C834 90 825 94 817 102L813 107L826 109L861 113L864 115L860 137L857 139L833 134L847 144L847 146C843 150 838 154 832 157L825 161L823 162zM731 162L729 162C717 143 701 127 681 114L671 107L689 91C690 90 691 90 692 90C693 90 694 90 696 91L701 94L706 98L705 64H734V122C739 127 744 132 748 137L755 145L755 148L731 162zM597 539H548V464H597V539zM302 539H252V464H302V539zM425 831C364 831 314 784 310 724L310 716V702H540V716C540 780 489 831 425 831z" />
    <glyph glyph-name="line-ezstore-1"
      unicode="&#x6C;&#x69;&#x6E;&#x65;&#x5F;&#x65;&#x7A;&#x73;&#x74;&#x6F;&#x72;&#x65;"
      horiz-adv-x="1024" d="M811 245C914 245 997 161 997 58C997 -41 919 -123 821 -128L811 -128H546C443 -128 359 -44 359 58C359 158 438 240 536 245L546 245H811zM425 896C521 896 600 821 605 726L605 716V702H738A51 51 0 0 0 788 660L788 654L808 287H546C420 287 317 185 317 58C317 19 328 -18 345 -50L352 -62H76C62 -62 49 -56 40 -47A49 49 0 0 0 27 -17L27 -10L61 654A51 51 0 0 0 106 702L112 702H245V716C245 815 326 896 425 896zM787 80H761L759 78V59H710L680 60L678 59V36L680 34L710 35H733C719 28 703 23 682 16L671 13L691 -7C692 -8 693 -8 694 -8C694 -8 695 -8 696 -8A218 218 0 0 1 718 -1L728 4V-9C722 -10 716 -10 710 -11L700 -11L698 -13L707 -40L709 -41C743 -35 770 -30 795 -25C797 -25 798 -24 799 -23L799 -21L800 -10C815 -23 833 -33 855 -39A3 3 0 0 1 857 -39L858 -38L879 -12C859 -8 844 -3 830 4A288 288 0 0 1 844 15L851 21V23L835 35H843L873 34L874 36V59L873 60L843 59H789V79L787 80zM649 137L613 136H530L494 137L493 136L493 99V49L492 -29H525V-11H617V-29H651L650 53V99L650 136L649 137zM771 28C776 17 783 8 791 -1L774 -4L757 -6V19C762 22 766 24 771 28zM617 109V16H525V109H617zM823 162L805 148L805 146C811 143 816 139 820 136L824 133L821 132L802 130C801 136 799 143 797 151L796 160L795 161L767 160L765 158C767 150 768 143 770 136L773 126L741 122L739 121L743 97L745 96L781 102C790 86 802 73 822 66C830 62 838 62 846 62C860 62 872 67 876 88C877 90 876 92 875 93L874 94L852 108C849 94 848 90 843 90C834 90 825 94 817 102L813 107L826 109L861 113L864 115L860 137L857 139L833 134L847 144L847 146C843 150 838 154 832 157L825 161L823 162zM731 162L729 162C717 143 701 127 681 114L671 107L689 91C690 90 691 90 692 90C693 90 694 90 696 91L701 94L706 98L705 64H734V122C739 127 744 132 748 137L755 145L755 148L731 162zM597 539H548V464H597V539zM302 539H252V464H302V539zM425 831C364 831 314 784 310 724L310 716V702H540V716C540 780 489 831 425 831z" />
    <glyph glyph-name="line-faceplay"
      unicode="&#xE11A;"
      horiz-adv-x="1024" d="M545 851V730H802C907 730 993 645 993 540V84C993 -8 919 -82 828 -83H826C746 -83 698 -53 653 -24C611 3 572 28 512 28S413 3 371 -24C325 -53 275 -83 196 -83C105 -82 31 -8 31 83V540C31 645 117 730 222 730H479V851H545zM690 313C678 320 662 315 656 302C631 252 574 220 512 220C450 220 393 252 368 302C362 315 346 320 334 313C321 307 316 291 322 279C356 212 431 169 512 169C593 169 668 212 702 279A26 26 0 0 1 690 313zM394 562H343V495H276V443H343V377H394V443H461V495H394V562zM659 558C610 558 571 518 571 469C571 420 610 380 659 380C708 380 748 420 748 469S708 558 659 558zM659 507C680 507 697 490 697 469C697 448 680 431 659 431C639 431 622 448 622 469C622 490 639 507 659 507z" />
    <glyph glyph-name="line-faceplay-1"
      unicode="&#x6C;&#x69;&#x6E;&#x65;&#x5F;&#x66;&#x61;&#x63;&#x65;&#x70;&#x6C;&#x61;&#x79;"
      horiz-adv-x="1024" d="M545 851V730H802C907 730 993 645 993 540V84C993 -8 919 -82 828 -83H826C746 -83 698 -53 653 -24C611 3 572 28 512 28S413 3 371 -24C325 -53 275 -83 196 -83C105 -82 31 -8 31 83V540C31 645 117 730 222 730H479V851H545zM690 313C678 320 662 315 656 302C631 252 574 220 512 220C450 220 393 252 368 302C362 315 346 320 334 313C321 307 316 291 322 279C356 212 431 169 512 169C593 169 668 212 702 279A26 26 0 0 1 690 313zM394 562H343V495H276V443H343V377H394V443H461V495H394V562zM659 558C610 558 571 518 571 469C571 420 610 380 659 380C708 380 748 420 748 469S708 558 659 558zM659 507C680 507 697 490 697 469C697 448 680 431 659 431C639 431 622 448 622 469C622 490 639 507 659 507z" />
    <glyph glyph-name="line-flyer"
      unicode="&#xE11B;"
      horiz-adv-x="1024" d="M823 272L996 190A33 33 0 0 0 1015 161A33 33 0 0 0 998 131L528 -124A33 33 0 0 0 512 -128A33 33 0 0 0 496 -124L27 131A33 33 0 0 0 10 161A33 33 0 0 0 28 190L129 239L165 219L200 200L500 31A25 25 0 0 1 525 31C624 89 706 156 774 222C782 230 791 238 799 246C807 255 815 263 823 272zM809 760L812 759A31496 31496 0 0 1 916 716L938 708C958 700 975 693 986 689A33 33 0 0 0 1005 670A33 33 0 0 0 1004 644C984 600 953 533 905 457A1330 1330 0 0 0 774 295A1395 1395 0 0 0 749 270C741 261 733 253 724 245C666 190 598 136 518 87C516 85 514 84 512 82L502 87L255 227L240 235L220 246L185 266L186 266L26 357A33 33 0 0 0 9 385A33 33 0 0 0 24 414C113 470 175 520 227 573L291 593L347 611L711 729L760 744L809 760zM440 880A33 33 0 0 0 481 894C497 887 586 850 680 812C698 805 717 797 735 790L715 783L686 774L637 758V758L396 680H396L345 664L317 655L292 647C302 661 313 675 323 691C360 745 403 817 440 880z" />
    <glyph glyph-name="line-flyer-1"
      unicode="&#x6C;&#x69;&#x6E;&#x65;&#x5F;&#x66;&#x6C;&#x79;&#x65;&#x72;"
      horiz-adv-x="1024" d="M823 272L996 190A33 33 0 0 0 1015 161A33 33 0 0 0 998 131L528 -124A33 33 0 0 0 512 -128A33 33 0 0 0 496 -124L27 131A33 33 0 0 0 10 161A33 33 0 0 0 28 190L129 239L165 219L200 200L500 31A25 25 0 0 1 525 31C624 89 706 156 774 222C782 230 791 238 799 246C807 255 815 263 823 272zM809 760L812 759A31496 31496 0 0 1 916 716L938 708C958 700 975 693 986 689A33 33 0 0 0 1005 670A33 33 0 0 0 1004 644C984 600 953 533 905 457A1330 1330 0 0 0 774 295A1395 1395 0 0 0 749 270C741 261 733 253 724 245C666 190 598 136 518 87C516 85 514 84 512 82L502 87L255 227L240 235L220 246L185 266L186 266L26 357A33 33 0 0 0 9 385A33 33 0 0 0 24 414C113 470 175 520 227 573L291 593L347 611L711 729L760 744L809 760zM440 880A33 33 0 0 0 481 894C497 887 586 850 680 812C698 805 717 797 735 790L715 783L686 774L637 758V758L396 680H396L345 664L317 655L292 647C302 661 313 675 323 691C360 745 403 817 440 880z" />
    <glyph glyph-name="line-foodie"
      unicode="&#xE11C;"
      horiz-adv-x="1024" d="M512 858C773 858 986 645 986 384S773 -90 512 -90C251 -90 38 123 38 384S251 858 512 858zM297 455H199L196 440C193 421 191 403 191 384C191 207 335 63 512 63C623 63 725 120 784 214L754 233C701 149 611 99 512 99C371 99 254 202 231 337H291V373H228C228 376 227 380 227 384C227 396 228 407 229 419H297V455zM512 705C401 705 299 648 240 554L270 535C323 619 413 669 512 669C645 669 757 578 788 455H774C735 455 703 423 703 384S735 313 774 313H825L828 328C831 347 833 365 833 384C833 561 689 705 512 705zM795 419A288 288 0 0 0 795 349H774A35 35 0 0 0 739 384C739 403 755 419 774 419z" />
    <glyph glyph-name="line-foodie-1"
      unicode="&#x6C;&#x69;&#x6E;&#x65;&#x5F;&#x66;&#x6F;&#x6F;&#x64;&#x69;&#x65;"
      horiz-adv-x="1024" d="M512 858C773 858 986 645 986 384S773 -90 512 -90C251 -90 38 123 38 384S251 858 512 858zM297 455H199L196 440C193 421 191 403 191 384C191 207 335 63 512 63C623 63 725 120 784 214L754 233C701 149 611 99 512 99C371 99 254 202 231 337H291V373H228C228 376 227 380 227 384C227 396 228 407 229 419H297V455zM512 705C401 705 299 648 240 554L270 535C323 619 413 669 512 669C645 669 757 578 788 455H774C735 455 703 423 703 384S735 313 774 313H825L828 328C831 347 833 365 833 384C833 561 689 705 512 705zM795 419A288 288 0 0 0 795 349H774A35 35 0 0 0 739 384C739 403 755 419 774 419z" />
    <glyph glyph-name="line-friends"
      unicode="&#xE11D;"
      horiz-adv-x="1024" d="M151 761C172 826 237 865 306 853C349 846 383 822 406 782C435 787 462 789 512 790C562 789 589 787 618 782C642 822 675 846 718 853C787 865 852 826 874 761C884 729 885 695 876 659C925 616 1024 516 1017 333C1008 129 805 -87 515 -87C513 -88 511 -88 509 -87C219 -87 16 130 7 333C0 516 100 616 148 659C140 695 140 730 151 761zM515 393C457 393 409 335 409 263C409 192 457 133 515 133C573 133 621 192 621 263C621 335 573 393 515 393zM515 360C530 360 549 360 552 347C554 338 545 321 534 310V278L568 237C575 228 574 215 565 208A20 20 0 0 0 536 211L522 229L501 188A20 20 0 0 0 483 177A20 20 0 0 0 473 179C463 184 459 197 465 207L493 262V310C482 321 473 338 475 347C478 360 497 360 512 360zM577 469A31 31 0 0 1 577 408A31 31 0 0 1 577 469zM451 469A31 31 0 0 1 421 438C421 421 434 408 451 408A31 31 0 0 1 451 469zM750 803C727 803 711 790 701 776C696 769 692 762 690 756C690 756 712 748 753 726C793 704 813 689 813 689C813 690 814 691 814 692C828 717 831 770 785 793C772 800 760 803 750 803zM280 801C269 801 257 798 244 791C204 771 201 730 209 704C211 698 213 693 215 689C215 689 235 704 275 726C316 748 338 756 338 756C336 760 334 766 330 772C321 786 305 801 280 801z" />
    <glyph glyph-name="line-friends-1"
      unicode="&#x6C;&#x69;&#x6E;&#x65;&#x5F;&#x66;&#x72;&#x69;&#x65;&#x6E;&#x64;&#x73;"
      horiz-adv-x="1024" d="M151 761C172 826 237 865 306 853C349 846 383 822 406 782C435 787 462 789 512 790C562 789 589 787 618 782C642 822 675 846 718 853C787 865 852 826 874 761C884 729 885 695 876 659C925 616 1024 516 1017 333C1008 129 805 -87 515 -87C513 -88 511 -88 509 -87C219 -87 16 130 7 333C0 516 100 616 148 659C140 695 140 730 151 761zM515 393C457 393 409 335 409 263C409 192 457 133 515 133C573 133 621 192 621 263C621 335 573 393 515 393zM515 360C530 360 549 360 552 347C554 338 545 321 534 310V278L568 237C575 228 574 215 565 208A20 20 0 0 0 536 211L522 229L501 188A20 20 0 0 0 483 177A20 20 0 0 0 473 179C463 184 459 197 465 207L493 262V310C482 321 473 338 475 347C478 360 497 360 512 360zM577 469A31 31 0 0 1 577 408A31 31 0 0 1 577 469zM451 469A31 31 0 0 1 421 438C421 421 434 408 451 408A31 31 0 0 1 451 469zM750 803C727 803 711 790 701 776C696 769 692 762 690 756C690 756 712 748 753 726C793 704 813 689 813 689C813 690 814 691 814 692C828 717 831 770 785 793C772 800 760 803 750 803zM280 801C269 801 257 798 244 791C204 771 201 730 209 704C211 698 213 693 215 689C215 689 235 704 275 726C316 748 338 756 338 756C336 760 334 766 330 772C321 786 305 801 280 801z" />
    <glyph glyph-name="line-fuwa"
      unicode="&#xE153;"
      horiz-adv-x="1024" d="M420 840C557 875 646 785 666 752C868 786 924 612 920 550C914 477 933 462 973 414C1075 286 1000 137 957 91C906 26 778 -67 526 -79C273 -87 87 32 28 148C-44 280 47 404 56 416L57 417C74 604 218 637 252 642C264 701 297 799 420 840zM571 551A35 35 0 1 1 571 482A35 35 0 0 1 571 551zM687 551A35 35 0 1 1 687 482A35 35 0 0 1 687 551z" />
    <glyph glyph-name="line-fuwa-1"
      unicode="&#x6C;&#x69;&#x6E;&#x65;&#x5F;&#x66;&#x75;&#x77;&#x61;"
      horiz-adv-x="1024" d="M420 840C557 875 646 785 666 752C868 786 924 612 920 550C914 477 933 462 973 414C1075 286 1000 137 957 91C906 26 778 -67 526 -79C273 -87 87 32 28 148C-44 280 47 404 56 416L57 417C74 604 218 637 252 642C264 701 297 799 420 840zM571 551A35 35 0 1 1 571 482A35 35 0 0 1 571 551zM687 551A35 35 0 1 1 687 482A35 35 0 0 1 687 551z" />
    <glyph glyph-name="line-fx"
      unicode="&#xE257;"
      horiz-adv-x="1024" d="M986 772A51 51 0 1 1 921 850L611 591L483 743A51 51 0 0 1 411 749L18 420A51 51 0 0 1 84 342L437 638L565 486A51 51 0 0 1 637 479L986 772zM306 371H652L778 213L904 371H1023L838 138L1020 -90H901L778 64L655 -90H537L719 138L607 278H314A66 66 0 0 1 249 218V170H531L457 77H249V-90H156V213A158 158 0 0 0 306 371H306z" />
    <glyph glyph-name="line-fx-1"
      unicode="&#x6C;&#x69;&#x6E;&#x65;&#x5F;&#x66;&#x78;"
      horiz-adv-x="1024" d="M986 772A51 51 0 1 1 921 850L611 591L483 743A51 51 0 0 1 411 749L18 420A51 51 0 0 1 84 342L437 638L565 486A51 51 0 0 1 637 479L986 772zM306 371H652L778 213L904 371H1023L838 138L1020 -90H901L778 64L655 -90H537L719 138L607 278H314A66 66 0 0 1 249 218V170H531L457 77H249V-90H156V213A158 158 0 0 0 306 371H306z" />
    <glyph glyph-name="line-game"
      unicode="&#xE2CB;"
      horiz-adv-x="1024" d="M189 755A161 161 0 0 1 28 594V77C28 44 55 18 87 18H937A59 59 0 0 1 996 77V594A161 161 0 0 1 835 755H189zM287 497A15 15 0 0 0 302 512H338A15 15 0 0 0 353 497V417H433A15 15 0 0 0 448 402V366A15 15 0 0 0 433 351H353V271A15 15 0 0 0 338 256H302A15 15 0 0 0 287 271V351H207A15 15 0 0 0 192 366V402A15 15 0 0 0 207 417H287V497zM607 256A64 64 0 1 0 607 384A64 64 0 0 0 607 256zM768 384A64 64 0 1 0 768 512A64 64 0 0 0 768 384z" />
    <glyph glyph-name="line-game-1"
      unicode="&#x6C;&#x69;&#x6E;&#x65;&#x5F;&#x67;&#x61;&#x6D;&#x65;"
      horiz-adv-x="1024" d="M189 755A161 161 0 0 1 28 594V77C28 44 55 18 87 18H937A59 59 0 0 1 996 77V594A161 161 0 0 1 835 755H189zM287 497A15 15 0 0 0 302 512H338A15 15 0 0 0 353 497V417H433A15 15 0 0 0 448 402V366A15 15 0 0 0 433 351H353V271A15 15 0 0 0 338 256H302A15 15 0 0 0 287 271V351H207A15 15 0 0 0 192 366V402A15 15 0 0 0 207 417H287V497zM607 256A64 64 0 1 0 607 384A64 64 0 0 0 607 256zM768 384A64 64 0 1 0 768 512A64 64 0 0 0 768 384z" />
    <glyph glyph-name="line-game-community"
      unicode="&#xE22E;"
      horiz-adv-x="1024" d="M136 794A136 136 0 0 1 0 658V173A198 198 0 0 1 197 -26A297 297 0 0 1 378 31L408 51L409 51A177 177 0 0 0 512 86A178 178 0 0 0 617 51L617 50L633 40A311 311 0 0 1 828 -26H828A199 199 0 0 1 1024 174V658A136 136 0 0 1 888 794H136zM545 727V625H479V727H545zM742 461A51 51 0 1 0 742 563A51 51 0 0 0 742 461zM640 358A51 51 0 1 0 640 461A51 51 0 0 0 640 358zM742 256A51 51 0 1 0 742 358A51 51 0 0 0 742 256zM896 410A51 51 0 1 0 794 410A51 51 0 0 0 896 410zM315 443H410V376H315V282H248V376H154V443H248V538H315V443z" />
    <glyph glyph-name="line-game-community-1"
      unicode="&#x6C;&#x69;&#x6E;&#x65;&#x5F;&#x67;&#x61;&#x6D;&#x65;&#x5F;&#x63;&#x6F;&#x6D;&#x6D;&#x75;&#x6E;&#x69;&#x74;&#x79;"
      horiz-adv-x="1024" d="M136 794A136 136 0 0 1 0 658V173A198 198 0 0 1 197 -26A297 297 0 0 1 378 31L408 51L409 51A177 177 0 0 0 512 86A178 178 0 0 0 617 51L617 50L633 40A311 311 0 0 1 828 -26H828A199 199 0 0 1 1024 174V658A136 136 0 0 1 888 794H136zM545 727V625H479V727H545zM742 461A51 51 0 1 0 742 563A51 51 0 0 0 742 461zM640 358A51 51 0 1 0 640 461A51 51 0 0 0 640 358zM742 256A51 51 0 1 0 742 358A51 51 0 0 0 742 256zM896 410A51 51 0 1 0 794 410A51 51 0 0 0 896 410zM315 443H410V376H315V282H248V376H154V443H248V538H315V443z" />
    <glyph glyph-name="line-game-platform"
      unicode="&#xE155;"
      horiz-adv-x="1024" d="M202 342L678 -128H276C252 -128 240 -118 231 -108L33 91L31 93C12 111 4 144 31 170L31 171L37 177L40 180L50 189L63 203L73 213L107 247L123 263L131 272L150 290L202 342zM1024 552V150C1024 129 1016 117 1007 108L1002 102L999 99L991 91L985 86L972 73L816 -82L805 -93L803 -96C785 -114 752 -122 726 -96L724 -94L719 -89L716 -86L707 -77L688 -58L677 -47L670 -41L657 -27L554 76L1024 552zM298 867L303 862L317 848L321 844L331 835L347 818L360 805L470 696L0 220V622C0 643 8 655 17 664L22 669L25 672L33 680L39 686L52 698L121 767L139 786L190 836L202 849L208 854L219 865L221 867C239 886 272 894 298 867zM748 896C772 896 784 886 793 876L991 677L993 675C1012 657 1020 624 993 598L993 597L986 591L984 588L974 579L961 565L950 555L917 521L901 505L892 496L874 478L822 426L346 896H748z" />
    <glyph glyph-name="line-game-platform-1"
      unicode="&#x6C;&#x69;&#x6E;&#x65;&#x5F;&#x67;&#x61;&#x6D;&#x65;&#x5F;&#x70;&#x6C;&#x61;&#x74;&#x66;&#x6F;&#x72;&#x6D;"
      horiz-adv-x="1024" d="M202 342L678 -128H276C252 -128 240 -118 231 -108L33 91L31 93C12 111 4 144 31 170L31 171L37 177L40 180L50 189L63 203L73 213L107 247L123 263L131 272L150 290L202 342zM1024 552V150C1024 129 1016 117 1007 108L1002 102L999 99L991 91L985 86L972 73L816 -82L805 -93L803 -96C785 -114 752 -122 726 -96L724 -94L719 -89L716 -86L707 -77L688 -58L677 -47L670 -41L657 -27L554 76L1024 552zM298 867L303 862L317 848L321 844L331 835L347 818L360 805L470 696L0 220V622C0 643 8 655 17 664L22 669L25 672L33 680L39 686L52 698L121 767L139 786L190 836L202 849L208 854L219 865L221 867C239 886 272 894 298 867zM748 896C772 896 784 886 793 876L991 677L993 675C1012 657 1020 624 993 598L993 597L986 591L984 588L974 579L961 565L950 555L917 521L901 505L892 496L874 478L822 426L346 896H748z" />
    <glyph glyph-name="line-game-social"
      unicode="&#xE156;"
      horiz-adv-x="1024" d="M768 614C912 609 1024 489 1019 345C1014 202 894 89 750 94A259 259 0 0 0 586 161A33 33 0 1 0 630 210A192 192 0 0 1 752 161C859 157 949 241 952 347C956 454 873 544 766 547C686 550 614 506 582 438C571 415 554 373 547 352L545 345C494 181 433 128 319 99C301 95 262 93 243 96C265 101 302 115 319 128C388 180 432 219 476 349L481 365C488 386 508 438 521 466C565 559 662 618 768 614zM343 672C353 668 487 590 487 590C493 586 493 576 487 572A22051 22051 0 0 1 421 535L404 525L353 496L346 491L343 490C335 486 326 490 326 498V535C326 543 323 545 317 547H259C156 547 72 460 72 356C72 251 156 168 259 163C278 162 303 166 333 175C284 145 238 132 195 135C79 143 7 225 5 356C5 493 113 608 248 613L259 614L317 613C323 616 326 620 326 626V662C326 672 333 676 343 672zM757 322A35 35 0 1 0 757 252A35 35 0 0 0 757 322zM289 457A13 13 0 0 0 301 444V388H358A13 13 0 0 0 371 375V335A13 13 0 0 0 358 322H301V266A13 13 0 0 0 289 254H247A13 13 0 0 0 234 266V322H178A13 13 0 0 0 165 335V375A13 13 0 0 0 178 388H234V444A13 13 0 0 0 247 457zM688 389A35 35 0 1 0 688 320A35 35 0 0 0 688 389zM826 389A35 35 0 1 0 826 320A35 35 0 0 0 826 389zM757 458A35 35 0 1 0 757 389A35 35 0 0 0 757 458z" />
    <glyph glyph-name="line-game-social-1"
      unicode="&#x6C;&#x69;&#x6E;&#x65;&#x5F;&#x67;&#x61;&#x6D;&#x65;&#x5F;&#x73;&#x6F;&#x63;&#x69;&#x61;&#x6C;"
      horiz-adv-x="1024" d="M768 614C912 609 1024 489 1019 345C1014 202 894 89 750 94A259 259 0 0 0 586 161A33 33 0 1 0 630 210A192 192 0 0 1 752 161C859 157 949 241 952 347C956 454 873 544 766 547C686 550 614 506 582 438C571 415 554 373 547 352L545 345C494 181 433 128 319 99C301 95 262 93 243 96C265 101 302 115 319 128C388 180 432 219 476 349L481 365C488 386 508 438 521 466C565 559 662 618 768 614zM343 672C353 668 487 590 487 590C493 586 493 576 487 572A22051 22051 0 0 1 421 535L404 525L353 496L346 491L343 490C335 486 326 490 326 498V535C326 543 323 545 317 547H259C156 547 72 460 72 356C72 251 156 168 259 163C278 162 303 166 333 175C284 145 238 132 195 135C79 143 7 225 5 356C5 493 113 608 248 613L259 614L317 613C323 616 326 620 326 626V662C326 672 333 676 343 672zM757 322A35 35 0 1 0 757 252A35 35 0 0 0 757 322zM289 457A13 13 0 0 0 301 444V388H358A13 13 0 0 0 371 375V335A13 13 0 0 0 358 322H301V266A13 13 0 0 0 289 254H247A13 13 0 0 0 234 266V322H178A13 13 0 0 0 165 335V375A13 13 0 0 0 178 388H234V444A13 13 0 0 0 247 457zM688 389A35 35 0 1 0 688 320A35 35 0 0 0 688 389zM826 389A35 35 0 1 0 826 320A35 35 0 0 0 826 389zM757 458A35 35 0 1 0 757 389A35 35 0 0 0 757 458z" />
    <glyph glyph-name="line-giftshop"
      unicode="&#xE11F;"
      horiz-adv-x="1024" d="M870 717H606L686 797L639 844L545 750V497H941L941 644V645A73 73 0 0 1 920 695A71 71 0 0 1 870 717zM941 430H545V-4H870C889 -4 908 4 921 17A73 73 0 0 1 942 68V68L941 430zM479 -4V430H83L83 68C84 49 91 31 104 17S136 -4 155 -4H479zM83 497H479V750L385 844L338 796L418 717H153A71 71 0 0 1 103 695A73 73 0 0 1 82 645L83 497z" />
    <glyph glyph-name="line-giftshop-1"
      unicode="&#x6C;&#x69;&#x6E;&#x65;&#x5F;&#x67;&#x69;&#x66;&#x74;&#x73;&#x68;&#x6F;&#x70;"
      horiz-adv-x="1024" d="M870 717H606L686 797L639 844L545 750V497H941L941 644V645A73 73 0 0 1 920 695A71 71 0 0 1 870 717zM941 430H545V-4H870C889 -4 908 4 921 17A73 73 0 0 1 942 68V68L941 430zM479 -4V430H83L83 68C84 49 91 31 104 17S136 -4 155 -4H479zM83 497H479V750L385 844L338 796L418 717H153A71 71 0 0 1 103 695A73 73 0 0 1 82 645L83 497z" />
    <glyph glyph-name="line-giftshop-alt"
      unicode="&#xE11E;"
      horiz-adv-x="1024" d="M740 784V660H792V784H940C968 784 991 761 991 734V34C991 7 968 -16 940 -16H84C56 -16 33 7 33 34V734C33 761 56 784 84 784H740zM792 171H740V51H792V171zM792 373H740V254H792V373zM554 498C525 527 479 527 451 498L388 435L325 498C297 527 251 527 222 498C208 484 201 466 201 447C201 427 208 409 222 395C236 381 254 374 274 374H326L244 291L280 255L388 363L496 255L532 291L450 374H502C522 374 540 381 554 395C568 409 575 427 575 447C575 466 568 484 554 498zM274 468C279 468 285 466 289 462L326 425H274A21 21 0 0 0 258 431A21 21 0 0 0 252 447C252 452 254 458 258 462A22 22 0 0 0 274 468zM487 462C495 470 509 470 517 462C522 458 524 452 524 447C524 441 522 435 517 431A21 21 0 0 0 502 425H450zM792 576H740V457H792V576z" />
    <glyph glyph-name="line-giftshop-alt-1"
      unicode="&#x6C;&#x69;&#x6E;&#x65;&#x5F;&#x67;&#x69;&#x66;&#x74;&#x73;&#x68;&#x6F;&#x70;&#x5F;&#x61;&#x6C;&#x74;"
      horiz-adv-x="1024" d="M740 784V660H792V784H940C968 784 991 761 991 734V34C991 7 968 -16 940 -16H84C56 -16 33 7 33 34V734C33 761 56 784 84 784H740zM792 171H740V51H792V171zM792 373H740V254H792V373zM554 498C525 527 479 527 451 498L388 435L325 498C297 527 251 527 222 498C208 484 201 466 201 447C201 427 208 409 222 395C236 381 254 374 274 374H326L244 291L280 255L388 363L496 255L532 291L450 374H502C522 374 540 381 554 395C568 409 575 427 575 447C575 466 568 484 554 498zM274 468C279 468 285 466 289 462L326 425H274A21 21 0 0 0 258 431A21 21 0 0 0 252 447C252 452 254 458 258 462A22 22 0 0 0 274 468zM487 462C495 470 509 470 517 462C522 458 524 452 524 447C524 441 522 435 517 431A21 21 0 0 0 502 425H450zM792 576H740V457H792V576z" />
    <glyph glyph-name="line-go"
      unicode="&#xE2CC;"
      horiz-adv-x="1024" d="M234 765A59 59 0 0 0 288 801H736C759 801 781 787 790 765L893 520H932C964 520 991 493 991 461V143A59 59 0 0 0 932 84H827V-46H760V84H264V-46H197V84H92A59 59 0 0 0 33 143V461C33 493 60 520 92 520H131L234 765zM307 312A51 51 0 1 1 205 312A51 51 0 0 1 307 312zM819 312A51 51 0 1 1 717 312A51 51 0 0 1 819 312zM294 735L204 520H820L730 735H294z" />
    <glyph glyph-name="line-go-1"
      unicode="&#x6C;&#x69;&#x6E;&#x65;&#x5F;&#x67;&#x6F;"
      horiz-adv-x="1024" d="M234 765A59 59 0 0 0 288 801H736C759 801 781 787 790 765L893 520H932C964 520 991 493 991 461V143A59 59 0 0 0 932 84H827V-46H760V84H264V-46H197V84H92A59 59 0 0 0 33 143V461C33 493 60 520 92 520H131L234 765zM307 312A51 51 0 1 1 205 312A51 51 0 0 1 307 312zM819 312A51 51 0 1 1 717 312A51 51 0 0 1 819 312zM294 735L204 520H820L730 735H294z" />
    <glyph glyph-name="line-growthy"
      unicode="&#xE154;"
      horiz-adv-x="1024" d="M318 172C370 124 442 97 512 96C577 95 635 122 666 140C684 148 688 146 689 137C691 129 692 98 692 45V10C692 -11 692 -34 692 -60C645 -99 590 -120 528 -124C419 -128 357 -77 350 -72C345 -69 227 45 156 115L140 131C118 154 103 169 104 170C105 172 138 172 203 173H237C261 173 288 172 318 172zM956 564C1000 507 1021 446 1020 384C1018 290 992 261 975 232C966 222 957 212 948 202L929 182A6980 6980 0 0 0 790 37L769 17C745 -8 728 -23 726 -24C723 -17 722 26 724 104C741 90 756 84 769 84C782 84 794 91 805 105C811 115 813 128 810 141C806 154 785 179 748 215L758 234C779 275 798 318 798 382C798 453 773 508 748 546C744 550 737 555 736 561C734 563 772 564 850 564L899 564C916 564 935 564 956 564zM512 576C620 576 707 489 707 381C707 274 620 187 512 187C405 187 318 274 318 381C318 489 405 576 512 576zM297 792C299 791 300 738 300 632L300 575C254 524 226 456 226 382C226 324 241 269 272 227C276 221 279 213 284 207C282 205 252 204 196 204L163 204C136 204 105 204 68 204C23 258 1 323 4 396C9 509 65 556 100 593L127 621C213 708 293 794 297 792zM522 892C608 890 660 849 671 843C677 840 764 755 834 686L852 668C891 629 920 599 920 598C920 597 862 596 747 596L704 596C649 640 587 669 512 669C451 669 391 647 352 619C343 612 337 609 334 608C332 611 331 684 332 828C389 874 452 895 522 892z" />
    <glyph glyph-name="line-growthy-1"
      unicode="&#x6C;&#x69;&#x6E;&#x65;&#x5F;&#x67;&#x72;&#x6F;&#x77;&#x74;&#x68;&#x79;"
      horiz-adv-x="1024" d="M318 172C370 124 442 97 512 96C577 95 635 122 666 140C684 148 688 146 689 137C691 129 692 98 692 45V10C692 -11 692 -34 692 -60C645 -99 590 -120 528 -124C419 -128 357 -77 350 -72C345 -69 227 45 156 115L140 131C118 154 103 169 104 170C105 172 138 172 203 173H237C261 173 288 172 318 172zM956 564C1000 507 1021 446 1020 384C1018 290 992 261 975 232C966 222 957 212 948 202L929 182A6980 6980 0 0 0 790 37L769 17C745 -8 728 -23 726 -24C723 -17 722 26 724 104C741 90 756 84 769 84C782 84 794 91 805 105C811 115 813 128 810 141C806 154 785 179 748 215L758 234C779 275 798 318 798 382C798 453 773 508 748 546C744 550 737 555 736 561C734 563 772 564 850 564L899 564C916 564 935 564 956 564zM512 576C620 576 707 489 707 381C707 274 620 187 512 187C405 187 318 274 318 381C318 489 405 576 512 576zM297 792C299 791 300 738 300 632L300 575C254 524 226 456 226 382C226 324 241 269 272 227C276 221 279 213 284 207C282 205 252 204 196 204L163 204C136 204 105 204 68 204C23 258 1 323 4 396C9 509 65 556 100 593L127 621C213 708 293 794 297 792zM522 892C608 890 660 849 671 843C677 840 764 755 834 686L852 668C891 629 920 599 920 598C920 597 862 596 747 596L704 596C649 640 587 669 512 669C451 669 391 647 352 619C343 612 337 609 334 608C332 611 331 684 332 828C389 874 452 895 522 892z" />
    <glyph glyph-name="line-insurance"
      unicode="&#xE120;"
      horiz-adv-x="1024" d="M942 755C837 860 669 862 560 763L618 705C693 770 814 768 885 697C961 621 961 497 885 420L512 48L139 420C63 497 63 621 139 697C176 734 226 754 278 754C330 754 379 734 416 697L512 601L570 659L512 717L512 717L474 755C366 863 190 863 82 755C-27 647 -27 471 82 362L512 -68L942 362C1051 471 1051 647 942 755" />
    <glyph glyph-name="line-insurance-1"
      unicode="&#x6C;&#x69;&#x6E;&#x65;&#x5F;&#x69;&#x6E;&#x73;&#x75;&#x72;&#x61;&#x6E;&#x63;&#x65;"
      horiz-adv-x="1024" d="M942 755C837 860 669 862 560 763L618 705C693 770 814 768 885 697C961 621 961 497 885 420L512 48L139 420C63 497 63 621 139 697C176 734 226 754 278 754C330 754 379 734 416 697L512 601L570 659L512 717L512 717L474 755C366 863 190 863 82 755C-27 647 -27 471 82 362L512 -68L942 362C1051 471 1051 647 942 755" />
    <glyph glyph-name="line-invest"
      unicode="&#xE121;"
      horiz-adv-x="1024" d="M958 425C981 425 999 407 999 384V194C999 58 889 -52 753 -52H373C274 -52 189 7 150 91L214 155C231 83 295 30 373 30H753C844 30 917 103 917 194V384C917 407 936 425 958 425zM563 820C586 820 604 802 604 779C604 757 586 738 563 738H373C282 738 209 665 209 574V356L390 537L524 403L836 714L762 788H967V583L894 657L524 287L390 421L294 325L209 240L130 161L95 126A42 42 0 0 0 81 117A41 41 0 0 0 66 114A41 41 0 0 0 37 126C21 142 21 168 37 184L127 274V574C127 710 237 820 373 820z" />
    <glyph glyph-name="line-invest-1"
      unicode="&#x6C;&#x69;&#x6E;&#x65;&#x5F;&#x69;&#x6E;&#x76;&#x65;&#x73;&#x74;"
      horiz-adv-x="1024" d="M958 425C981 425 999 407 999 384V194C999 58 889 -52 753 -52H373C274 -52 189 7 150 91L214 155C231 83 295 30 373 30H753C844 30 917 103 917 194V384C917 407 936 425 958 425zM563 820C586 820 604 802 604 779C604 757 586 738 563 738H373C282 738 209 665 209 574V356L390 537L524 403L836 714L762 788H967V583L894 657L524 287L390 421L294 325L209 240L130 161L95 126A42 42 0 0 0 81 117A41 41 0 0 0 66 114A41 41 0 0 0 37 126C21 142 21 168 37 184L127 274V574C127 710 237 820 373 820z" />
    <glyph glyph-name="line-jobs"
      unicode="&#xE122;"
      horiz-adv-x="1024" d="M996 341V21C996 -11 969 -38 937 -38H88C55 -38 28 -11 28 21V341L61 334L95 326L419 252V205C419 191 430 179 444 179H580C594 179 605 191 605 205V252L929 326L963 334L996 341zM554 315V231H470V315H554zM647 806C680 806 707 779 707 747V698H936C969 698 996 672 996 639V394L963 386L929 379L605 305V340C605 354 594 366 580 366H444C430 366 419 354 419 340V305L95 379L61 386L28 394V639C28 672 55 698 88 698H317V747C317 779 344 806 377 806zM640 739H384V698H640V739z" />
    <glyph glyph-name="line-jobs-1"
      unicode="&#x6C;&#x69;&#x6E;&#x65;&#x5F;&#x6A;&#x6F;&#x62;&#x73;"
      horiz-adv-x="1024" d="M996 341V21C996 -11 969 -38 937 -38H88C55 -38 28 -11 28 21V341L61 334L95 326L419 252V205C419 191 430 179 444 179H580C594 179 605 191 605 205V252L929 326L963 334L996 341zM554 315V231H470V315H554zM647 806C680 806 707 779 707 747V698H936C969 698 996 672 996 639V394L963 386L929 379L605 305V340C605 354 594 366 580 366H444C430 366 419 354 419 340V305L95 379L61 386L28 394V639C28 672 55 698 88 698H317V747C317 779 344 806 377 806zM640 739H384V698H640V739z" />
    <glyph glyph-name="line-keep"
      unicode="&#xE123;"
      horiz-adv-x="1024" d="M817 827H207C161 827 123 789 123 742V-26C123 -37 129 -48 140 -54C150 -60 163 -60 173 -54L512 141L851 -54C856 -57 862 -59 868 -59C873 -59 879 -57 884 -54A33 33 0 0 1 901 -26V742C901 789 863 827 817 827" />
    <glyph glyph-name="line-keep-1"
      unicode="&#x6C;&#x69;&#x6E;&#x65;&#x5F;&#x6B;&#x65;&#x65;&#x70;"
      horiz-adv-x="1024" d="M817 827H207C161 827 123 789 123 742V-26C123 -37 129 -48 140 -54C150 -60 163 -60 173 -54L512 141L851 -54C856 -57 862 -59 868 -59C873 -59 879 -57 884 -54A33 33 0 0 1 901 -26V742C901 789 863 827 817 827" />
    <glyph glyph-name="line-login"
      unicode="&#xE15B;"
      horiz-adv-x="1024" d="M15 507L195 819A51 51 0 0 0 239 845H714A51 51 0 0 0 758 819L994 410A51 51 0 0 0 994 359L758 -51A51 51 0 0 0 714 -77H239A51 51 0 0 0 195 -51L17 257H408V146A10 10 0 0 1 425 139L663 383A10 10 0 0 1 663 397L425 631A10 10 0 0 1 408 624V507H15z" />
    <glyph glyph-name="line-login-1"
      unicode="&#x6C;&#x69;&#x6E;&#x65;&#x5F;&#x6C;&#x6F;&#x67;&#x69;&#x6E;"
      horiz-adv-x="1024" d="M15 507L195 819A51 51 0 0 0 239 845H714A51 51 0 0 0 758 819L994 410A51 51 0 0 0 994 359L758 -51A51 51 0 0 0 714 -77H239A51 51 0 0 0 195 -51L17 257H408V146A10 10 0 0 1 425 139L663 383A10 10 0 0 1 663 397L425 631A10 10 0 0 1 408 624V507H15z" />
    <glyph glyph-name="line-man"
      unicode="&#xE125;"
      horiz-adv-x="1024" d="M69 589A238 238 0 0 0 307 827H717A238 238 0 0 0 955 589V179A238 238 0 0 0 717 -59H307A238 238 0 0 0 69 179V589zM720 472L669 421L669 207A26 26 0 0 1 720 207L720 472zM330 581A26 26 0 0 1 306 565A25 25 0 0 1 311 537L512 336L713 537A25 25 0 0 1 718 565A26 26 0 0 1 685 579A26 26 0 0 1 676 573L512 409L348 573A26 26 0 0 1 330 581zM330 181A26 26 0 0 1 355 207V421L304 472L304 207A26 26 0 0 1 330 181z" />
    <glyph glyph-name="line-man-1"
      unicode="&#x6C;&#x69;&#x6E;&#x65;&#x5F;&#x6D;&#x61;&#x6E;"
      horiz-adv-x="1024" d="M69 589A238 238 0 0 0 307 827H717A238 238 0 0 0 955 589V179A238 238 0 0 0 717 -59H307A238 238 0 0 0 69 179V589zM720 472L669 421L669 207A26 26 0 0 1 720 207L720 472zM330 581A26 26 0 0 1 306 565A25 25 0 0 1 311 537L512 336L713 537A25 25 0 0 1 718 565A26 26 0 0 1 685 579A26 26 0 0 1 676 573L512 409L348 573A26 26 0 0 1 330 581zM330 181A26 26 0 0 1 355 207V421L304 472L304 207A26 26 0 0 1 330 181z" />
    <glyph glyph-name="line-manga"
      unicode="&#xE126;"
      horiz-adv-x="1024" d="M375 775A143 143 0 0 0 487 721V-7H454C454 19 417 42 375 42H58A58 58 0 0 0 0 100V717A58 58 0 0 0 58 775zM966 775A58 58 0 0 0 1024 717V100A58 58 0 0 0 966 42H649C607 42 570 19 570 -7H537V721A143 143 0 0 0 649 775z" />
    <glyph glyph-name="line-manga-1"
      unicode="&#x6C;&#x69;&#x6E;&#x65;&#x5F;&#x6D;&#x61;&#x6E;&#x67;&#x61;"
      horiz-adv-x="1024" d="M375 775A143 143 0 0 0 487 721V-7H454C454 19 417 42 375 42H58A58 58 0 0 0 0 100V717A58 58 0 0 0 58 775zM966 775A58 58 0 0 0 1024 717V100A58 58 0 0 0 966 42H649C607 42 570 19 570 -7H537V721A143 143 0 0 0 649 775z" />
    <glyph glyph-name="line-melody-shop"
      unicode="&#xE127;"
      horiz-adv-x="1024" d="M781 889C788 900 804 898 809 886L884 718S865 678 758 644C649 609 564 655 564 655L722 299C790 146 721 -33 568 -102C415 -170 235 -101 167 52C99 206 167 385 321 453A302 302 0 0 0 432 479L296 786A26 26 0 0 0 308 821C340 837 402 863 465 858C557 852 641 805 720 838C752 851 771 872 781 889zM546 221C521 278 455 303 399 278C343 253 317 187 342 130C367 74 433 49 490 74C546 99 571 165 546 221z" />
    <glyph glyph-name="line-melody-shop-1"
      unicode="&#x6C;&#x69;&#x6E;&#x65;&#x5F;&#x6D;&#x65;&#x6C;&#x6F;&#x64;&#x79;&#x5F;&#x73;&#x68;&#x6F;&#x70;"
      horiz-adv-x="1024" d="M781 889C788 900 804 898 809 886L884 718S865 678 758 644C649 609 564 655 564 655L722 299C790 146 721 -33 568 -102C415 -170 235 -101 167 52C99 206 167 385 321 453A302 302 0 0 0 432 479L296 786A26 26 0 0 0 308 821C340 837 402 863 465 858C557 852 641 805 720 838C752 851 771 872 781 889zM546 221C521 278 455 303 399 278C343 253 317 187 342 130C367 74 433 49 490 74C546 99 571 165 546 221z" />
    <glyph glyph-name="line-messaging-api"
      unicode="&#xE15C;"
      horiz-adv-x="1024" d="M931 819A36 36 0 0 0 967 784V138A36 36 0 0 0 931 102H199L57 -52V784A36 36 0 0 0 93 819H931zM316 509C287 509 263 485 263 456C263 427 287 403 316 403C346 403 369 427 369 456C369 485 346 509 316 509zM513 509C483 509 460 485 460 456C460 427 483 403 513 403C542 403 566 427 566 456C566 485 542 509 513 509zM708 509C679 509 655 485 655 456C655 427 679 403 708 403C738 403 761 427 761 456C761 485 738 509 708 509z" />
    <glyph glyph-name="line-messaging-api-1"
      unicode="&#x6C;&#x69;&#x6E;&#x65;&#x5F;&#x6D;&#x65;&#x73;&#x73;&#x61;&#x67;&#x69;&#x6E;&#x67;&#x5F;&#x61;&#x70;&#x69;"
      horiz-adv-x="1024" d="M931 819A36 36 0 0 0 967 784V138A36 36 0 0 0 931 102H199L57 -52V784A36 36 0 0 0 93 819H931zM316 509C287 509 263 485 263 456C263 427 287 403 316 403C346 403 369 427 369 456C369 485 346 509 316 509zM513 509C483 509 460 485 460 456C460 427 483 403 513 403C542 403 566 427 566 456C566 485 542 509 513 509zM708 509C679 509 655 485 655 456C655 427 679 403 708 403C738 403 761 427 761 456C761 485 738 509 708 509z" />
    <glyph glyph-name="line-messenger"
      unicode="&#xE147;"
      horiz-adv-x="1024" d="M804 896C925 896 1024 797 1024 676V92C1024 -29 925 -128 804 -128H220C99 -128 0 -29 0 92V676C0 797 99 896 220 896H804zM505 731C318 731 136 607 136 429C136 275 272 152 449 129C482 122 484 110 484 94C485 79 477 49 476 35C475 14 494 18 508 24C523 29 590 70 627 94C663 124 889 254 883 428C883 584 731 731 505 731zM293 509C297 508 299 505 299 502V373H370C375 373 378 371 378 367V339C377 335 374 332 370 332H266C261 333 259 335 259 339V502C259 506 262 509 266 509H293zM435 509C441 508 441 502 441 502L441 426L441 405L441 395L441 367L441 359L441 339C441 333 437 332 435 332L408 332S400 333 400 339V502C401 506 403 509 408 509H435zM500 509C505 508 506 505 507 504L573 415L580 405V502C580 505 582 507 585 508L587 509H614C617 509 619 507 620 504L621 502V339C621 336 619 334 616 333L614 332H587C586 332 584 333 583 334L581 335L507 436V339C507 336 505 334 502 333L500 332H474C470 332 468 334 467 337L466 339V502C467 506 469 508 471 509L474 509H500zM758 509C763 508 765 506 765 502V474C764 470 762 468 758 468H687V441H758C762 440 765 438 765 434V408C765 403 762 400 758 400H687V373H758C762 372 765 370 765 366V339C765 335 762 332 758 332H654C649 333 646 335 646 339V502C647 506 650 509 654 509H758z" />
    <glyph glyph-name="line-messenger-1"
      unicode="&#x6C;&#x69;&#x6E;&#x65;&#x5F;&#x6D;&#x65;&#x73;&#x73;&#x65;&#x6E;&#x67;&#x65;&#x72;"
      horiz-adv-x="1024" d="M804 896C925 896 1024 797 1024 676V92C1024 -29 925 -128 804 -128H220C99 -128 0 -29 0 92V676C0 797 99 896 220 896H804zM505 731C318 731 136 607 136 429C136 275 272 152 449 129C482 122 484 110 484 94C485 79 477 49 476 35C475 14 494 18 508 24C523 29 590 70 627 94C663 124 889 254 883 428C883 584 731 731 505 731zM293 509C297 508 299 505 299 502V373H370C375 373 378 371 378 367V339C377 335 374 332 370 332H266C261 333 259 335 259 339V502C259 506 262 509 266 509H293zM435 509C441 508 441 502 441 502L441 426L441 405L441 395L441 367L441 359L441 339C441 333 437 332 435 332L408 332S400 333 400 339V502C401 506 403 509 408 509H435zM500 509C505 508 506 505 507 504L573 415L580 405V502C580 505 582 507 585 508L587 509H614C617 509 619 507 620 504L621 502V339C621 336 619 334 616 333L614 332H587C586 332 584 333 583 334L581 335L507 436V339C507 336 505 334 502 333L500 332H474C470 332 468 334 467 337L466 339V502C467 506 469 508 471 509L474 509H500zM758 509C763 508 765 506 765 502V474C764 470 762 468 758 468H687V441H758C762 440 765 438 765 434V408C765 403 762 400 758 400H687V373H758C762 372 765 370 765 366V339C765 335 762 332 758 332H654C649 333 646 335 646 339V502C647 506 650 509 654 509H758z" />
    <glyph glyph-name="line-messenger-alt"
      unicode="&#xE146;"
      horiz-adv-x="1024" d="M506 872C815 872 1024 670 1024 456C1032 218 721 40 672 -1C622 -34 531 -90 510 -98C490 -105 465 -112 466 -82C467 -63 478 -22 477 -1C477 20 474 37 428 47C186 78 0 247 0 457C0 702 250 872 506 872zM650 565H614C608 564 604 561 604 555V423L504 559C503 560 501 564 494 565H458C452 565 449 562 448 555V332C449 325 452 322 458 322H494C500 323 504 326 504 332V465L606 326C608 324 611 322 614 322H650C657 323 660 327 660 332V555C659 562 656 565 650 565zM210 565H173C167 565 164 562 163 555V332C163 326 166 323 173 322H316C322 322 325 325 326 332V370C326 375 323 378 316 378H219V555C219 560 216 564 210 565zM404 565H367C361 565 358 562 357 555V332C357 323 367 322 367 322L405 322C407 322 413 324 413 332L413 335L413 358L413 367L413 386A287300 287300 0 0 0 413 397L413 420L413 432L413 467C413 471 413 475 413 479V554L413 555C413 555 413 564 404 565zM849 565H705C699 565 696 562 695 555V332C695 326 698 323 705 322H849C854 322 858 325 858 332V368C858 374 854 377 849 378H751V416H849C854 416 857 419 858 426V462C858 468 854 471 849 472H751V509H849C853 509 857 512 858 517V555C858 561 855 564 849 565z" />
    <glyph glyph-name="line-messenger-alt-1"
      unicode="&#x6C;&#x69;&#x6E;&#x65;&#x5F;&#x6D;&#x65;&#x73;&#x73;&#x65;&#x6E;&#x67;&#x65;&#x72;&#x5F;&#x61;&#x6C;&#x74;"
      horiz-adv-x="1024" d="M506 872C815 872 1024 670 1024 456C1032 218 721 40 672 -1C622 -34 531 -90 510 -98C490 -105 465 -112 466 -82C467 -63 478 -22 477 -1C477 20 474 37 428 47C186 78 0 247 0 457C0 702 250 872 506 872zM650 565H614C608 564 604 561 604 555V423L504 559C503 560 501 564 494 565H458C452 565 449 562 448 555V332C449 325 452 322 458 322H494C500 323 504 326 504 332V465L606 326C608 324 611 322 614 322H650C657 323 660 327 660 332V555C659 562 656 565 650 565zM210 565H173C167 565 164 562 163 555V332C163 326 166 323 173 322H316C322 322 325 325 326 332V370C326 375 323 378 316 378H219V555C219 560 216 564 210 565zM404 565H367C361 565 358 562 357 555V332C357 323 367 322 367 322L405 322C407 322 413 324 413 332L413 335L413 358L413 367L413 386A287300 287300 0 0 0 413 397L413 420L413 432L413 467C413 471 413 475 413 479V554L413 555C413 555 413 564 404 565zM849 565H705C699 565 696 562 695 555V332C695 326 698 323 705 322H849C854 322 858 325 858 332V368C858 374 854 377 849 378H751V416H849C854 416 857 419 858 426V462C858 468 854 471 849 472H751V509H849C853 509 857 512 858 517V555C858 561 855 564 849 565z" />
    <glyph glyph-name="line-mini-app"
      unicode="&#xE16F;"
      horiz-adv-x="1024" d="M934 563V223C934 120 852 34 749 33A187 187 0 0 0 560 220V368L313 615A72 72 0 0 1 232 631C204 620 187 594 187 563V220C187 170 228 129 279 131C328 132 366 173 366 222V400C366 409 377 414 384 407L458 333A20 20 0 0 0 464 319V223C464 120 381 34 278 33A187 187 0 0 0 90 220V563A168 168 0 0 0 195 721A168 168 0 0 0 382 684L644 422C652 413 658 401 658 388V222C658 173 696 132 745 131A90 90 0 0 1 837 220V563C837 594 820 620 792 631A72 72 0 0 1 711 615L656 561A10 10 0 0 0 642 561L588 615A10 10 0 0 0 588 629L642 684A168 168 0 0 0 829 721A168 168 0 0 0 934 563H934z" />
    <glyph glyph-name="line-mini-app-1"
      unicode="&#x6C;&#x69;&#x6E;&#x65;&#x5F;&#x6D;&#x69;&#x6E;&#x69;&#x5F;&#x61;&#x70;&#x70;"
      horiz-adv-x="1024" d="M934 563V223C934 120 852 34 749 33A187 187 0 0 0 560 220V368L313 615A72 72 0 0 1 232 631C204 620 187 594 187 563V220C187 170 228 129 279 131C328 132 366 173 366 222V400C366 409 377 414 384 407L458 333A20 20 0 0 0 464 319V223C464 120 381 34 278 33A187 187 0 0 0 90 220V563A168 168 0 0 0 195 721A168 168 0 0 0 382 684L644 422C652 413 658 401 658 388V222C658 173 696 132 745 131A90 90 0 0 1 837 220V563C837 594 820 620 792 631A72 72 0 0 1 711 615L656 561A10 10 0 0 0 642 561L588 615A10 10 0 0 0 588 629L642 684A168 168 0 0 0 829 721A168 168 0 0 0 934 563H934z" />
    <glyph glyph-name="line-mini-app-badge"
      unicode="&#xE2C1;"
      horiz-adv-x="1024" d="M866 653L568 825A112 112 0 0 1 456 825L158 653A112 112 0 0 1 102 556V212C102 172 124 135 158 115L456 -57C491 -77 533 -77 568 -57L866 115A112 112 0 0 1 922 212V556C922 596 900 633 866 653zM779 282C779 217 727 163 662 162A118 118 0 0 0 543 281V374L386 530A45 45 0 0 1 335 540A45 45 0 0 1 306 497V281C306 249 333 223 365 224A57 57 0 0 1 420 282V394C420 400 427 403 431 399L478 352C480 350 481 346 481 343V282C481 217 429 163 364 162A118 118 0 0 0 245 281V497C245 542 271 580 312 597A106 106 0 0 0 429 574L595 408C601 402 604 395 604 387V282C604 251 628 225 659 224A57 57 0 0 1 718 281V497A45 45 0 0 1 689 540A45 45 0 0 1 638 530L603 496A6 6 0 0 0 594 496L560 530A6 6 0 0 0 560 539L594 574A106 106 0 0 0 712 597A106 106 0 0 0 779 497V282z" />
    <glyph glyph-name="line-mini-app-badge-1"
      unicode="&#x6C;&#x69;&#x6E;&#x65;&#x5F;&#x6D;&#x69;&#x6E;&#x69;&#x5F;&#x61;&#x70;&#x70;&#x5F;&#x62;&#x61;&#x64;&#x67;&#x65;"
      horiz-adv-x="1024" d="M866 653L568 825A112 112 0 0 1 456 825L158 653A112 112 0 0 1 102 556V212C102 172 124 135 158 115L456 -57C491 -77 533 -77 568 -57L866 115A112 112 0 0 1 922 212V556C922 596 900 633 866 653zM779 282C779 217 727 163 662 162A118 118 0 0 0 543 281V374L386 530A45 45 0 0 1 335 540A45 45 0 0 1 306 497V281C306 249 333 223 365 224A57 57 0 0 1 420 282V394C420 400 427 403 431 399L478 352C480 350 481 346 481 343V282C481 217 429 163 364 162A118 118 0 0 0 245 281V497C245 542 271 580 312 597A106 106 0 0 0 429 574L595 408C601 402 604 395 604 387V282C604 251 628 225 659 224A57 57 0 0 1 718 281V497A45 45 0 0 1 689 540A45 45 0 0 1 638 530L603 496A6 6 0 0 0 594 496L560 530A6 6 0 0 0 560 539L594 574A106 106 0 0 0 712 597A106 106 0 0 0 779 497V282z" />
    <glyph glyph-name="line-mobile"
      unicode="&#xE128;"
      horiz-adv-x="1024" d="M512 357L306 564V208H554L503 157H255V625H317L512 430L708 625H770V157H718V564L512 358zM890 822H134C101 822 74 795 74 762V6C74 -27 101 -54 134 -54H890C923 -54 950 -27 950 6V762C950 795 923 822 890 822z" />
    <glyph glyph-name="line-mobile-1"
      unicode="&#x6C;&#x69;&#x6E;&#x65;&#x5F;&#x6D;&#x6F;&#x62;&#x69;&#x6C;&#x65;"
      horiz-adv-x="1024" d="M512 357L306 564V208H554L503 157H255V625H317L512 430L708 625H770V157H718V564L512 358zM890 822H134C101 822 74 795 74 762V6C74 -27 101 -54 134 -54H890C923 -54 950 -27 950 6V762C950 795 923 822 890 822z" />
    <glyph glyph-name="line-monary"
      unicode="&#xE255;"
      horiz-adv-x="1024" d="M485 624A533 533 0 0 1 361 289V272C164 335 21 518 18 736A33 33 0 0 0 46 769A497 497 0 0 0 128 776A493 493 0 0 0 485 624zM402 288C406 558 625 776 896 776A497 497 0 0 0 978 769A33 33 0 0 0 1006 736C1003 504 840 310 622 261L622 -8H402V288zM18 537A537 537 0 0 1 238 283V-8H18V537zM786 283V-8H1006V537A537 537 0 0 0 786 283z" />
    <glyph glyph-name="line-monary-1"
      unicode="&#x6C;&#x69;&#x6E;&#x65;&#x5F;&#x6D;&#x6F;&#x6E;&#x61;&#x72;&#x79;"
      horiz-adv-x="1024" d="M485 624A533 533 0 0 1 361 289V272C164 335 21 518 18 736A33 33 0 0 0 46 769A497 497 0 0 0 128 776A493 493 0 0 0 485 624zM402 288C406 558 625 776 896 776A497 497 0 0 0 978 769A33 33 0 0 0 1006 736C1003 504 840 310 622 261L622 -8H402V288zM18 537A537 537 0 0 1 238 283V-8H18V537zM786 283V-8H1006V537A537 537 0 0 0 786 283z" />
    <glyph glyph-name="line-movie"
      unicode="&#xE12A;"
      horiz-adv-x="1024" d="M976 581V16C976 -17 950 -43 918 -43H106C74 -43 48 -17 48 16V581H976zM435 396V155L644 275H644L582 311L435 396zM917 812C950 812 976 786 976 753V632H901L721 812zM115 812L148 779L181 745L294 632H48V753C48 786 74 812 107 812H115zM382 812L415 779L448 745L561 633H366L220 779L187 812H382zM649 812L682 779L715 745L828 633H634L487 779L454 812H649z" />
    <glyph glyph-name="line-movie-1"
      unicode="&#x6C;&#x69;&#x6E;&#x65;&#x5F;&#x6D;&#x6F;&#x76;&#x69;&#x65;"
      horiz-adv-x="1024" d="M976 581V16C976 -17 950 -43 918 -43H106C74 -43 48 -17 48 16V581H976zM435 396V155L644 275H644L582 311L435 396zM917 812C950 812 976 786 976 753V632H901L721 812zM115 812L148 779L181 745L294 632H48V753C48 786 74 812 107 812H115zM382 812L415 779L448 745L561 633H366L220 779L187 812H382zM649 812L682 779L715 745L828 633H634L487 779L454 812H649z" />
    <glyph glyph-name="line-movie-alt"
      unicode="&#xE129;"
      horiz-adv-x="1024" d="M512 858C773 858 986 645 986 384C986 211 892 60 753 -23H941V-90H512C251 -90 38 123 38 384C38 645 251 858 512 858zM512 276C480 276 454 250 454 219S480 161 512 161S570 187 570 219S544 276 512 276zM347 442C315 442 289 416 289 384C289 352 315 326 347 326C378 326 404 352 404 384C404 416 378 442 347 442zM677 442C646 442 620 416 620 384C620 352 646 326 677 326C709 326 735 352 735 384C735 416 709 442 677 442zM512 607C480 607 454 581 454 549S480 492 512 492S570 518 570 549S544 607 512 607z" />
    <glyph glyph-name="line-movie-alt-1"
      unicode="&#x6C;&#x69;&#x6E;&#x65;&#x5F;&#x6D;&#x6F;&#x76;&#x69;&#x65;&#x5F;&#x61;&#x6C;&#x74;"
      horiz-adv-x="1024" d="M512 858C773 858 986 645 986 384C986 211 892 60 753 -23H941V-90H512C251 -90 38 123 38 384C38 645 251 858 512 858zM512 276C480 276 454 250 454 219S480 161 512 161S570 187 570 219S544 276 512 276zM347 442C315 442 289 416 289 384C289 352 315 326 347 326C378 326 404 352 404 384C404 416 378 442 347 442zM677 442C646 442 620 416 620 384C620 352 646 326 677 326C709 326 735 352 735 384C735 416 709 442 677 442zM512 607C480 607 454 581 454 549S480 492 512 492S570 518 570 549S544 607 512 607z" />
    <glyph glyph-name="line-nearby"
      unicode="&#xE12C;"
      horiz-adv-x="1024" d="M512 896C623 896 727 853 805 775C967 613 967 339 805 176C686 58 537 -102 535 -103L512 -128L489 -103C487 -102 338 58 219 176C57 339 57 613 219 775C297 853 401 896 512 896zM512 648C436 648 374 595 369 511C367 480 375 427 391 391C410 348 441 322 441 295C441 262 390 228 336 195L308 178C388 96 472 7 512 -35C552 7 636 96 716 178C653 217 583 256 583 295C583 322 614 348 633 391C649 427 657 480 655 511C650 595 588 648 512 648z" />
    <glyph glyph-name="line-nearby-1"
      unicode="&#x6C;&#x69;&#x6E;&#x65;&#x5F;&#x6E;&#x65;&#x61;&#x72;&#x62;&#x79;"
      horiz-adv-x="1024" d="M512 896C623 896 727 853 805 775C967 613 967 339 805 176C686 58 537 -102 535 -103L512 -128L489 -103C487 -102 338 58 219 176C57 339 57 613 219 775C297 853 401 896 512 896zM512 648C436 648 374 595 369 511C367 480 375 427 391 391C410 348 441 322 441 295C441 262 390 228 336 195L308 178C388 96 472 7 512 -35C552 7 636 96 716 178C653 217 583 256 583 295C583 322 614 348 633 391C649 427 657 480 655 511C650 595 588 648 512 648z" />
    <glyph glyph-name="line-news"
      unicode="&#xE12D;"
      horiz-adv-x="1024" d="M179 845A102 102 0 0 1 77 743V25A102 102 0 0 1 179 -77H845A102 102 0 0 1 947 25V743A102 102 0 0 1 845 845H179zM664 498H360V575H664V498zM664 424V347H360V424H664zM664 193H360V270H664V193z" />
    <glyph glyph-name="line-news-1"
      unicode="&#x6C;&#x69;&#x6E;&#x65;&#x5F;&#x6E;&#x65;&#x77;&#x73;"
      horiz-adv-x="1024" d="M179 845A102 102 0 0 1 77 743V25A102 102 0 0 1 179 -77H845A102 102 0 0 1 947 25V743A102 102 0 0 1 845 845H179zM664 498H360V575H664V498zM664 424V347H360V424H664zM664 193H360V270H664V193z" />
    <glyph glyph-name="line-oa"
      unicode="&#xE12F;"
      horiz-adv-x="1024" d="M512 870C323 870 169 835 113 819C97 809 87 794 87 778V323C87 159 302 0 497 -97C502 -97 507 -102 512 -102S522 -102 527 -97C727 0 937 159 937 323V778C937 794 927 809 911 814C855 829 701 870 512 870zM512 655L573 517L712 502L614 399L635 256L512 317L389 251L410 394L312 497L451 512L512 655z" />
    <glyph glyph-name="line-oa-1"
      unicode="&#x6C;&#x69;&#x6E;&#x65;&#x5F;&#x6F;&#x61;"
      horiz-adv-x="1024" d="M512 870C323 870 169 835 113 819C97 809 87 794 87 778V323C87 159 302 0 497 -97C502 -97 507 -102 512 -102S522 -102 527 -97C727 0 937 159 937 323V778C937 794 927 809 911 814C855 829 701 870 512 870zM512 655L573 517L712 502L614 399L635 256L512 317L389 251L410 394L312 497L451 512L512 655z" />
    <glyph glyph-name="line-openchat"
      unicode="&#xE130;"
      horiz-adv-x="1024" d="M947 -36H845V535C845 636 760 719 655 719H369C264 719 179 636 179 535V256C179 154 264 72 369 72H664V-31H369C208 -31 77 98 77 256V535C77 693 208 821 369 821H655C816 821 947 693 947 535V-36z" />
    <glyph glyph-name="line-openchat-1"
      unicode="&#x6C;&#x69;&#x6E;&#x65;&#x5F;&#x6F;&#x70;&#x65;&#x6E;&#x63;&#x68;&#x61;&#x74;"
      horiz-adv-x="1024" d="M947 -36H845V535C845 636 760 719 655 719H369C264 719 179 636 179 535V256C179 154 264 72 369 72H664V-31H369C208 -31 77 98 77 256V535C77 693 208 821 369 821H655C816 821 947 693 947 535V-36z" />
    <glyph glyph-name="line-openchat-plus"
      unicode="&#xE2C5;"
      horiz-adv-x="1024" d="M365 812C211 812 84 689 84 537V250C84 97 211 -25 365 -25H794L940 -25V537C940 689 813 812 659 812H365zM479 609H545V417H737V351H545V159H479V351H287V417H479V609z" />
    <glyph glyph-name="line-openchat-plus-1"
      unicode="&#x6C;&#x69;&#x6E;&#x65;&#x5F;&#x6F;&#x70;&#x65;&#x6E;&#x63;&#x68;&#x61;&#x74;&#x5F;&#x70;&#x6C;&#x75;&#x73;"
      horiz-adv-x="1024" d="M365 812C211 812 84 689 84 537V250C84 97 211 -25 365 -25H794L940 -25V537C940 689 813 812 659 812H365zM479 609H545V417H737V351H545V159H479V351H287V417H479V609z" />
    <glyph glyph-name="line-openchat-thread"
      unicode="&#xE284;"
      horiz-adv-x="1024" d="M25 737A159 159 0 0 0 184 896H638A159 159 0 0 0 797 737V610H562C516 610 479 572 479 526V288A5 5 0 0 0 472 284L372 359H184A159 159 0 0 0 25 518V737zM227 292V132A159 159 0 0 1 386 -27H504V-57A71 71 0 0 1 619 -113L725 -27H840A159 159 0 0 1 999 132V384A159 159 0 0 1 840 543H562A17 17 0 0 1 545 526V288A71 71 0 0 0 432 231L350 292H227z" />
    <glyph glyph-name="line-openchat-thread-1"
      unicode="&#x6C;&#x69;&#x6E;&#x65;&#x5F;&#x6F;&#x70;&#x65;&#x6E;&#x63;&#x68;&#x61;&#x74;&#x5F;&#x74;&#x68;&#x72;&#x65;&#x61;&#x64;"
      horiz-adv-x="1024" d="M25 737A159 159 0 0 0 184 896H638A159 159 0 0 0 797 737V610H562C516 610 479 572 479 526V288A5 5 0 0 0 472 284L372 359H184A159 159 0 0 0 25 518V737zM227 292V132A159 159 0 0 1 386 -27H504V-57A71 71 0 0 1 619 -113L725 -27H840A159 159 0 0 1 999 132V384A159 159 0 0 1 840 543H562A17 17 0 0 1 545 526V288A71 71 0 0 0 432 231L350 292H227z" />
    <glyph glyph-name="line-parttime"
      unicode="&#xE131;"
      horiz-adv-x="1024" d="M664 850C683 850 698 835 698 816V795H855C888 795 914 768 914 736V-23C914 -55 888 -82 855 -82H169C136 -82 110 -55 110 -23V736C110 768 136 795 169 795H339V816C339 835 354 850 372 850zM728 258H308V222H728V258zM667 468H648C640 468 639 467 639 459C639 414 639 370 639 325C639 321 640 318 643 315H671C675 318 675 321 675 325C675 345 675 365 675 386V392C678 392 680 391 682 390C697 383 712 375 727 367C730 366 732 365 734 365C737 365 738 367 741 371C744 379 748 386 752 393C752 394 753 394 752 396C752 398 746 401 743 402C722 411 701 419 680 427C677 428 675 430 675 434C676 443 675 451 675 460C675 467 674 468 667 468zM588 470C586 470 584 468 580 464C557 443 533 424 506 410C494 403 481 398 469 392C464 390 462 387 465 383C468 376 472 370 475 364C477 362 478 361 480 361C481 361 483 361 484 362L500 370C510 374 520 379 530 384C530 381 530 380 530 378C530 360 530 342 530 324C530 318 532 316 539 316C542 316 545 316 548 316L553 316L557 316C565 316 566 317 566 325C566 350 566 376 566 402C566 405 567 408 570 410C583 421 596 432 609 443C614 447 614 450 609 455C605 458 601 461 597 464C593 468 591 470 588 470zM337 460C331 460 330 458 329 451C325 435 322 418 317 402C312 381 304 361 294 341C290 335 291 332 298 329L314 321C317 319 319 318 321 318C324 318 326 320 328 325C339 347 347 369 353 393C357 412 364 447 365 450C366 454 362 457 358 458C352 459 347 460 341 460A43 43 0 0 1 337 460zM404 461C403 461 402 461 400 460C394 458 389 456 383 453C377 451 377 448 379 443C386 421 394 399 401 377C406 361 410 344 414 328C415 324 416 321 420 321C420 321 421 321 421 321C430 323 438 325 446 328C448 329 451 331 451 334C450 336 450 337 450 338C441 379 427 418 410 457C409 460 407 461 404 461zM426 472C425 472 425 472 424 472C423 471 421 471 420 470C413 467 413 466 416 459C419 453 422 447 424 440C426 434 427 431 430 431C432 431 435 432 440 435C443 437 444 438 444 440C444 441 430 470 429 471C428 472 427 472 426 472zM448 481C448 481 447 481 447 481C443 479 441 478 438 477C435 475 435 473 436 470C440 461 446 445 447 442C448 440 451 439 452 439C452 439 452 439 453 439C456 440 459 442 462 444A4 4 0 0 1 464 449A1257 1257 0 0 1 451 478C451 479 450 481 448 481zM631 783H405V740H631V783z" />
    <glyph glyph-name="line-parttime-1"
      unicode="&#x6C;&#x69;&#x6E;&#x65;&#x5F;&#x70;&#x61;&#x72;&#x74;&#x74;&#x69;&#x6D;&#x65;"
      horiz-adv-x="1024" d="M664 850C683 850 698 835 698 816V795H855C888 795 914 768 914 736V-23C914 -55 888 -82 855 -82H169C136 -82 110 -55 110 -23V736C110 768 136 795 169 795H339V816C339 835 354 850 372 850zM728 258H308V222H728V258zM667 468H648C640 468 639 467 639 459C639 414 639 370 639 325C639 321 640 318 643 315H671C675 318 675 321 675 325C675 345 675 365 675 386V392C678 392 680 391 682 390C697 383 712 375 727 367C730 366 732 365 734 365C737 365 738 367 741 371C744 379 748 386 752 393C752 394 753 394 752 396C752 398 746 401 743 402C722 411 701 419 680 427C677 428 675 430 675 434C676 443 675 451 675 460C675 467 674 468 667 468zM588 470C586 470 584 468 580 464C557 443 533 424 506 410C494 403 481 398 469 392C464 390 462 387 465 383C468 376 472 370 475 364C477 362 478 361 480 361C481 361 483 361 484 362L500 370C510 374 520 379 530 384C530 381 530 380 530 378C530 360 530 342 530 324C530 318 532 316 539 316C542 316 545 316 548 316L553 316L557 316C565 316 566 317 566 325C566 350 566 376 566 402C566 405 567 408 570 410C583 421 596 432 609 443C614 447 614 450 609 455C605 458 601 461 597 464C593 468 591 470 588 470zM337 460C331 460 330 458 329 451C325 435 322 418 317 402C312 381 304 361 294 341C290 335 291 332 298 329L314 321C317 319 319 318 321 318C324 318 326 320 328 325C339 347 347 369 353 393C357 412 364 447 365 450C366 454 362 457 358 458C352 459 347 460 341 460A43 43 0 0 1 337 460zM404 461C403 461 402 461 400 460C394 458 389 456 383 453C377 451 377 448 379 443C386 421 394 399 401 377C406 361 410 344 414 328C415 324 416 321 420 321C420 321 421 321 421 321C430 323 438 325 446 328C448 329 451 331 451 334C450 336 450 337 450 338C441 379 427 418 410 457C409 460 407 461 404 461zM426 472C425 472 425 472 424 472C423 471 421 471 420 470C413 467 413 466 416 459C419 453 422 447 424 440C426 434 427 431 430 431C432 431 435 432 440 435C443 437 444 438 444 440C444 441 430 470 429 471C428 472 427 472 426 472zM448 481C448 481 447 481 447 481C443 479 441 478 438 477C435 475 435 473 436 470C440 461 446 445 447 442C448 440 451 439 452 439C452 439 452 439 453 439C456 440 459 442 462 444A4 4 0 0 1 464 449A1257 1257 0 0 1 451 478C451 479 450 481 448 481zM631 783H405V740H631V783z" />
    <glyph glyph-name="line-pay"
      unicode="&#xE132;"
      horiz-adv-x="1024" d="M914 773C967 773 1010 729 1010 676V92C1010 39 967 -5 914 -5H110C57 -5 14 39 14 92V676C14 729 57 773 110 773zM676 444H635C632 444 630 441 631 438L695 283L672 224C670 222 672 219 675 219H716C719 219 721 221 722 223L808 438A4 4 0 0 1 804 444H763C760 444 758 442 757 440L720 347L682 440A7 7 0 0 1 676 444zM501 448C459 448 424 411 424 364C424 316 459 279 501 279C522 279 538 286 549 298V287C549 285 550 283 553 283H593C595 283 597 285 597 287V440C597 442 595 444 593 444H553C550 444 549 442 549 440V429C538 441 522 448 501 448zM328 508H250C246 508 242 505 242 500V291C242 287 246 283 250 283H286C290 283 294 287 294 291V354H328C372 354 406 388 406 431C406 474 372 508 328 508zM510 403C533 403 549 388 549 364C549 339 533 324 510 324C488 324 472 339 472 364C472 388 488 403 510 403zM327 460C343 460 355 447 355 431C355 415 343 402 327 402H294V460z" />
    <glyph glyph-name="line-pay-1"
      unicode="&#x6C;&#x69;&#x6E;&#x65;&#x5F;&#x70;&#x61;&#x79;"
      horiz-adv-x="1024" d="M914 773C967 773 1010 729 1010 676V92C1010 39 967 -5 914 -5H110C57 -5 14 39 14 92V676C14 729 57 773 110 773zM676 444H635C632 444 630 441 631 438L695 283L672 224C670 222 672 219 675 219H716C719 219 721 221 722 223L808 438A4 4 0 0 1 804 444H763C760 444 758 442 757 440L720 347L682 440A7 7 0 0 1 676 444zM501 448C459 448 424 411 424 364C424 316 459 279 501 279C522 279 538 286 549 298V287C549 285 550 283 553 283H593C595 283 597 285 597 287V440C597 442 595 444 593 444H553C550 444 549 442 549 440V429C538 441 522 448 501 448zM328 508H250C246 508 242 505 242 500V291C242 287 246 283 250 283H286C290 283 294 287 294 291V354H328C372 354 406 388 406 431C406 474 372 508 328 508zM510 403C533 403 549 388 549 364C549 339 533 324 510 324C488 324 472 339 472 364C472 388 488 403 510 403zM327 460C343 460 355 447 355 431C355 415 343 402 327 402H294V460z" />
    <glyph glyph-name="line-paymap"
      unicode="&#xE24D;"
      horiz-adv-x="1024" d="M221 761C380 917 643 917 802 761L803 761C966 595 973 330 813 163L813 163L560 -92A33 33 0 0 0 555 -97A78 78 0 0 0 512 -110C498 -110 481 -106 468 -92L215 163C51 329 57 601 221 761zM665 533A41 41 0 1 1 583 533A41 41 0 0 1 665 533zM400 492A41 41 0 1 1 400 574A41 41 0 0 1 400 492zM658 379A33 33 0 0 1 601 412C594 400 581 388 564 378C547 368 528 362 512 362C480 362 443 385 422 415A33 33 0 0 1 368 376C397 334 453 296 512 296C542 296 572 306 597 320C622 334 644 355 658 379z" />
    <glyph glyph-name="line-paymap-1"
      unicode="&#x6C;&#x69;&#x6E;&#x65;&#x5F;&#x70;&#x61;&#x79;&#x6D;&#x61;&#x70;"
      horiz-adv-x="1024" d="M221 761C380 917 643 917 802 761L803 761C966 595 973 330 813 163L813 163L560 -92A33 33 0 0 0 555 -97A78 78 0 0 0 512 -110C498 -110 481 -106 468 -92L215 163C51 329 57 601 221 761zM665 533A41 41 0 1 1 583 533A41 41 0 0 1 665 533zM400 492A41 41 0 1 1 400 574A41 41 0 0 1 400 492zM658 379A33 33 0 0 1 601 412C594 400 581 388 564 378C547 368 528 362 512 362C480 362 443 385 422 415A33 33 0 0 1 368 376C397 334 453 296 512 296C542 296 572 306 597 320C622 334 644 355 658 379z" />
    <glyph glyph-name="line-pion"
      unicode="&#xE150;"
      horiz-adv-x="1024" d="M512 896L1024 384L512 -128L384 0L768 384L384 768L512 896zM256 640L512 384L256 128L0 384L256 640z" />
    <glyph glyph-name="line-pion-1"
      unicode="&#x6C;&#x69;&#x6E;&#x65;&#x5F;&#x70;&#x69;&#x6F;&#x6E;"
      horiz-adv-x="1024" d="M512 896L1024 384L512 -128L384 0L768 384L384 768L512 896zM256 640L512 384L256 128L0 384L256 640z" />
    <glyph glyph-name="line-pocket-money"
      unicode="&#xE253;"
      horiz-adv-x="1024" d="M916 812H211V710H864V264A259 259 0 0 0 605 5H419A259 259 0 0 0 160 264V812H57V264A361 361 0 0 1 419 -97H605A361 361 0 0 1 967 264V761A51 51 0 0 1 916 812zM512 466L456 562H392V520L445 428H391V351H473V324H391V247H473V199H550V247H633V324H550V351H633V428H578L632 519V562H568L512 466V466z" />
    <glyph glyph-name="line-pocket-money-1"
      unicode="&#x6C;&#x69;&#x6E;&#x65;&#x5F;&#x70;&#x6F;&#x63;&#x6B;&#x65;&#x74;&#x5F;&#x6D;&#x6F;&#x6E;&#x65;&#x79;"
      horiz-adv-x="1024" d="M916 812H211V710H864V264A259 259 0 0 0 605 5H419A259 259 0 0 0 160 264V812H57V264A361 361 0 0 1 419 -97H605A361 361 0 0 1 967 264V761A51 51 0 0 1 916 812zM512 466L456 562H392V520L445 428H391V351H473V324H391V247H473V199H550V247H633V324H550V351H633V428H578L632 519V562H568L512 466V466z" />
    <glyph glyph-name="line-point"
      unicode="&#xE134;"
      horiz-adv-x="1024" d="M512 858C773 858 986 645 986 384C986 123 773 -90 512 -90S38 123 38 384C38 645 251 858 512 858zM550 530H425V206H477V320H550C608 320 656 367 656 425S608 530 550 530zM550 479C580 479 604 455 604 425C604 395 580 371 550 371H477V479z" />
    <glyph glyph-name="line-point-1"
      unicode="&#x6C;&#x69;&#x6E;&#x65;&#x5F;&#x70;&#x6F;&#x69;&#x6E;&#x74;"
      horiz-adv-x="1024" d="M512 858C773 858 986 645 986 384C986 123 773 -90 512 -90S38 123 38 384C38 645 251 858 512 858zM550 530H425V206H477V320H550C608 320 656 367 656 425S608 530 550 530zM550 479C580 479 604 455 604 425C604 395 580 371 550 371H477V479z" />
    <glyph glyph-name="line-premium"
      unicode="&#xE2B7;"
      horiz-adv-x="1024" d="M18 679C18 739 67 788 126 788H898C957 788 1006 739 1006 679V89C1006 29 957 -20 898 -20H126A109 109 0 0 0 18 89V679zM510 267H336V587A25 25 0 0 1 312 612H245A25 25 0 0 1 220 587V176C220 162 231 151 245 151H510A25 25 0 0 1 534 176V243A25 25 0 0 1 510 267zM588 491A12 12 0 0 1 588 469C647 441 675 414 702 355A12 12 0 0 1 724 355C752 414 779 441 838 469A12 12 0 0 1 838 491C779 518 752 546 724 605A12 12 0 0 1 702 605C675 546 647 518 588 491z" />
    <glyph glyph-name="line-premium-1"
      unicode="&#x6C;&#x69;&#x6E;&#x65;&#x5F;&#x70;&#x72;&#x65;&#x6D;&#x69;&#x75;&#x6D;"
      horiz-adv-x="1024" d="M18 679C18 739 67 788 126 788H898C957 788 1006 739 1006 679V89C1006 29 957 -20 898 -20H126A109 109 0 0 0 18 89V679zM510 267H336V587A25 25 0 0 1 312 612H245A25 25 0 0 1 220 587V176C220 162 231 151 245 151H510A25 25 0 0 1 534 176V243A25 25 0 0 1 510 267zM588 491A12 12 0 0 1 588 469C647 441 675 414 702 355A12 12 0 0 1 724 355C752 414 779 441 838 469A12 12 0 0 1 838 491C779 518 752 546 724 605A12 12 0 0 1 702 605C675 546 647 518 588 491z" />
    <glyph glyph-name="line-quaty"
      unicode="&#xE151;"
      horiz-adv-x="1024" d="M799 623L943 384L799 145H530L602 265H728L799 384L728 503H575L436 272L368 384L512 623H799zM494 623L422 503H296L225 384L296 265H449L588 496L656 384L512 145H225L81 384L225 623H494z" />
    <glyph glyph-name="line-quaty-1"
      unicode="&#x6C;&#x69;&#x6E;&#x65;&#x5F;&#x71;&#x75;&#x61;&#x74;&#x79;"
      horiz-adv-x="1024" d="M799 623L943 384L799 145H530L602 265H728L799 384L728 503H575L436 272L368 384L512 623H799zM494 623L422 503H296L225 384L296 265H449L588 496L656 384L512 145H225L81 384L225 623H494z" />
    <glyph glyph-name="line-reward-cards"
      unicode="&#xE135;"
      horiz-adv-x="1024" d="M856 467A334 334 0 0 1 831 536L958 609C954 616 951 624 947 631C943 638 937 645 933 651L807 578A300 300 0 0 1 760 634L890 709C738 882 480 930 272 811C65 691 -22 443 52 225L182 300C188 276 196 253 207 231L81 158C85 150 88 143 92 136C96 129 101 122 105 115L232 189A302 302 0 0 1 279 133L149 58C301 -116 559 -164 766 -44C974 76 1061 323 987 542L856 467zM98 333C78 496 155 664 307 751S642 822 773 723L702 682C596 747 459 756 343 689C227 622 166 499 169 374L98 333V333zM694 316A15 15 0 0 0 682 291L570 294L517 195A15 15 0 0 0 489 198L458 306L348 325A15 15 0 0 0 342 353L434 416L419 526C417 540 433 549 444 541L532 472L633 521A15 15 0 0 0 654 502L615 397L693 316H694zM730 17C579 -70 395 -53 263 46L334 87C441 21 578 13 694 80C810 147 871 270 868 395L939 435C958 272 881 104 730 17z" />
    <glyph glyph-name="line-reward-cards-1"
      unicode="&#x6C;&#x69;&#x6E;&#x65;&#x5F;&#x72;&#x65;&#x77;&#x61;&#x72;&#x64;&#x5F;&#x63;&#x61;&#x72;&#x64;&#x73;"
      horiz-adv-x="1024" d="M856 467A334 334 0 0 1 831 536L958 609C954 616 951 624 947 631C943 638 937 645 933 651L807 578A300 300 0 0 1 760 634L890 709C738 882 480 930 272 811C65 691 -22 443 52 225L182 300C188 276 196 253 207 231L81 158C85 150 88 143 92 136C96 129 101 122 105 115L232 189A302 302 0 0 1 279 133L149 58C301 -116 559 -164 766 -44C974 76 1061 323 987 542L856 467zM98 333C78 496 155 664 307 751S642 822 773 723L702 682C596 747 459 756 343 689C227 622 166 499 169 374L98 333V333zM694 316A15 15 0 0 0 682 291L570 294L517 195A15 15 0 0 0 489 198L458 306L348 325A15 15 0 0 0 342 353L434 416L419 526C417 540 433 549 444 541L532 472L633 521A15 15 0 0 0 654 502L615 397L693 316H694zM730 17C579 -70 395 -53 263 46L334 87C441 21 578 13 694 80C810 147 871 270 868 395L939 435C958 272 881 104 730 17z" />
    <glyph glyph-name="line-score"
      unicode="&#xE136;"
      horiz-adv-x="1024" d="M959 708C976 724 976 750 959 766C944 782 918 782 902 766L492 357L371 478A41 41 0 0 1 314 478C298 462 298 436 314 420L492 241L845 594C885 531 906 458 906 384C906 167 729 -10 512 -10S118 167 118 384S295 778 512 778C581 778 650 760 709 725C729 714 754 721 765 740C776 760 770 785 750 796C678 838 596 860 512 860C249 860 36 647 36 384C36 121 249 -92 512 -92C775 -92 988 121 988 384C988 480 959 574 905 653L959 708z" />
    <glyph glyph-name="line-score-1"
      unicode="&#x6C;&#x69;&#x6E;&#x65;&#x5F;&#x73;&#x63;&#x6F;&#x72;&#x65;"
      horiz-adv-x="1024" d="M959 708C976 724 976 750 959 766C944 782 918 782 902 766L492 357L371 478A41 41 0 0 1 314 478C298 462 298 436 314 420L492 241L845 594C885 531 906 458 906 384C906 167 729 -10 512 -10S118 167 118 384S295 778 512 778C581 778 650 760 709 725C729 714 754 721 765 740C776 760 770 785 750 796C678 838 596 860 512 860C249 860 36 647 36 384C36 121 249 -92 512 -92C775 -92 988 121 988 384C988 480 959 574 905 653L959 708z" />
    <glyph glyph-name="line-securities"
      unicode="&#xE137;"
      horiz-adv-x="1024" d="M226 218V-31H144V218H226zM458 367V-31H377V367H458zM691 324V-31H609V324H691zM923 516V-31H841V516H923zM932 784C946 767 944 741 927 726L575 432L439 595L150 353A41 41 0 0 0 124 343A41 41 0 0 0 92 358C78 375 80 401 97 416L449 710L585 547L874 789C891 804 917 801 932 784z" />
    <glyph glyph-name="line-securities-1"
      unicode="&#x6C;&#x69;&#x6E;&#x65;&#x5F;&#x73;&#x65;&#x63;&#x75;&#x72;&#x69;&#x74;&#x69;&#x65;&#x73;"
      horiz-adv-x="1024" d="M226 218V-31H144V218H226zM458 367V-31H377V367H458zM691 324V-31H609V324H691zM923 516V-31H841V516H923zM932 784C946 767 944 741 927 726L575 432L439 595L150 353A41 41 0 0 0 124 343A41 41 0 0 0 92 358C78 375 80 401 97 416L449 710L585 547L874 789C891 804 917 801 932 784z" />
    <glyph glyph-name="line-shopping"
      unicode="&#xE139;"
      horiz-adv-x="1024" d="M393 692A119 119 0 0 0 512 810A119 119 0 0 0 631 692V677H393V691zM334 432V510H386V432H334zM638 432V510H690V432H638zM886 628A52 52 0 0 1 834 677H697V691A185 185 0 0 1 512 877A185 185 0 0 1 327 692V677H190C162 677 139 655 138 628L103 -56A50 50 0 0 1 153 -109H871A50 50 0 0 1 921 -56L886 628z" />
    <glyph glyph-name="line-shopping-1"
      unicode="&#x6C;&#x69;&#x6E;&#x65;&#x5F;&#x73;&#x68;&#x6F;&#x70;&#x70;&#x69;&#x6E;&#x67;"
      horiz-adv-x="1024" d="M393 692A119 119 0 0 0 512 810A119 119 0 0 0 631 692V677H393V691zM334 432V510H386V432H334zM638 432V510H690V432H638zM886 628A52 52 0 0 1 834 677H697V691A185 185 0 0 1 512 877A185 185 0 0 1 327 692V677H190C162 677 139 655 138 628L103 -56A50 50 0 0 1 153 -109H871A50 50 0 0 1 921 -56L886 628z" />
    <glyph glyph-name="line-shopping-alt"
      unicode="&#xE138;"
      horiz-adv-x="1024" d="M393 697A119 119 0 0 0 512 816A119 119 0 0 0 631 697V697H393V697zM841 697H697V697A186 186 0 0 1 512 883A186 186 0 0 1 327 697V697H183C150 697 124 671 124 638V116H900V638C900 671 874 697 841 697zM124 65V-56C124 -88 150 -115 183 -115H841C874 -115 900 -88 900 -56V65H124z" />
    <glyph glyph-name="line-shopping-alt-1"
      unicode="&#x6C;&#x69;&#x6E;&#x65;&#x5F;&#x73;&#x68;&#x6F;&#x70;&#x70;&#x69;&#x6E;&#x67;&#x5F;&#x61;&#x6C;&#x74;"
      horiz-adv-x="1024" d="M393 697A119 119 0 0 0 512 816A119 119 0 0 0 631 697V697H393V697zM841 697H697V697A186 186 0 0 1 512 883A186 186 0 0 1 327 697V697H183C150 697 124 671 124 638V116H900V638C900 671 874 697 841 697zM124 65V-56C124 -88 150 -115 183 -115H841C874 -115 900 -88 900 -56V65H124z" />
    <glyph glyph-name="line-today"
      unicode="&#xE13C;"
      horiz-adv-x="1024" d="M472 827A341 341 0 0 1 412 614C422 438 561 300 737 290C818 285 894 309 955 353C974 366 999 352 998 330C988 -5 872 -102 513 -102C134 -102 26 6 26 385C26 741 121 858 449 870C471 871 485 846 472 827zM755 870C889 870 998 761 998 627S889 384 755 384S512 493 512 627S621 870 755 870z" />
    <glyph glyph-name="line-today-1"
      unicode="&#x6C;&#x69;&#x6E;&#x65;&#x5F;&#x74;&#x6F;&#x64;&#x61;&#x79;"
      horiz-adv-x="1024" d="M472 827A341 341 0 0 1 412 614C422 438 561 300 737 290C818 285 894 309 955 353C974 366 999 352 998 330C988 -5 872 -102 513 -102C134 -102 26 6 26 385C26 741 121 858 449 870C471 871 485 846 472 827zM755 870C889 870 998 761 998 627S889 384 755 384S512 493 512 627S621 870 755 870z" />
    <glyph glyph-name="line-touch"
      unicode="&#xE2E8;"
      horiz-adv-x="1024" d="M694 852A95 95 0 0 0 788 758V519C810 510 828 494 839 473L842 466L842 466L907 296L907 296C930 236 942 172 942 107V-23A99 99 0 0 0 843 -123H764A152 152 0 0 0 619 -14L619 -13L617 -8H330A95 95 0 0 0 236 87V758A95 95 0 0 0 330 852H694zM788 156A33 33 0 0 0 727 137L637 274A14 14 0 0 1 622 280A15 15 0 0 1 610 265L611 262L611 262L683 5A85 85 0 0 1 764 -56H843C861 -56 876 -41 876 -23V107A468 468 0 0 1 845 272L788 420V156zM479 763A26 26 0 0 1 479 712H545A26 26 0 0 1 545 763H479zM78 839A28 28 0 0 0 118 799L112 793A177 177 0 0 1 112 556L118 549L122 545A28 28 0 0 0 83 506L78 510L70 518A233 233 0 0 0 78 839zM906 839A28 28 0 0 0 946 839A233 233 0 0 0 946 510L941 506A28 28 0 0 0 906 549L912 556A177 177 0 0 1 912 793L906 799L902 804A28 28 0 0 0 906 839zM159 766A28 28 0 0 0 195 723L190 718A69 69 0 0 1 190 631L195 626L198 621A28 28 0 0 0 159 582L155 586L146 595A125 125 0 0 0 155 763L159 766zM829 763A28 28 0 0 0 865 766L869 763L878 753C897 729 907 700 906 671A125 125 0 0 0 869 586L865 582A28 28 0 0 0 829 626C842 639 849 656 850 673A69 69 0 0 1 829 723A28 28 0 0 0 829 763z" />
    <glyph glyph-name="line-touch-1"
      unicode="&#x6C;&#x69;&#x6E;&#x65;&#x5F;&#x74;&#x6F;&#x75;&#x63;&#x68;"
      horiz-adv-x="1024" d="M694 852A95 95 0 0 0 788 758V519C810 510 828 494 839 473L842 466L842 466L907 296L907 296C930 236 942 172 942 107V-23A99 99 0 0 0 843 -123H764A152 152 0 0 0 619 -14L619 -13L617 -8H330A95 95 0 0 0 236 87V758A95 95 0 0 0 330 852H694zM788 156A33 33 0 0 0 727 137L637 274A14 14 0 0 1 622 280A15 15 0 0 1 610 265L611 262L611 262L683 5A85 85 0 0 1 764 -56H843C861 -56 876 -41 876 -23V107A468 468 0 0 1 845 272L788 420V156zM479 763A26 26 0 0 1 479 712H545A26 26 0 0 1 545 763H479zM78 839A28 28 0 0 0 118 799L112 793A177 177 0 0 1 112 556L118 549L122 545A28 28 0 0 0 83 506L78 510L70 518A233 233 0 0 0 78 839zM906 839A28 28 0 0 0 946 839A233 233 0 0 0 946 510L941 506A28 28 0 0 0 906 549L912 556A177 177 0 0 1 912 793L906 799L902 804A28 28 0 0 0 906 839zM159 766A28 28 0 0 0 195 723L190 718A69 69 0 0 1 190 631L195 626L198 621A28 28 0 0 0 159 582L155 586L146 595A125 125 0 0 0 155 763L159 766zM829 763A28 28 0 0 0 865 766L869 763L878 753C897 729 907 700 906 671A125 125 0 0 0 869 586L865 582A28 28 0 0 0 829 626C842 639 849 656 850 673A69 69 0 0 1 829 723A28 28 0 0 0 829 763z" />
    <glyph glyph-name="line-traffic-qr"
      unicode="&#xE13D;"
      horiz-adv-x="1024" d="M939 250V-91H598V250H939zM554 242V-4H306V-91H239V-4H196C169 -4 147 18 147 45V242H554zM872 183H664V-25H872V183zM760 38V2H691V38H760zM846 87V2H787V38H810V87H846zM794 157V53H691V157H794zM312 165C289 165 271 146 271 124C271 101 289 83 312 83C334 83 353 101 353 124C353 146 334 165 312 165zM758 121H727V89H758V121zM846 157V118H810V154L810 154L844 156L846 157zM877 683V569H952V503H877V293H147V503H72V569H147V683H877zM828 859C855 859 877 837 877 810V734H147V810C147 837 169 859 196 859z" />
    <glyph glyph-name="line-traffic-qr-1"
      unicode="&#x6C;&#x69;&#x6E;&#x65;&#x5F;&#x74;&#x72;&#x61;&#x66;&#x66;&#x69;&#x63;&#x5F;&#x71;&#x72;"
      horiz-adv-x="1024" d="M939 250V-91H598V250H939zM554 242V-4H306V-91H239V-4H196C169 -4 147 18 147 45V242H554zM872 183H664V-25H872V183zM760 38V2H691V38H760zM846 87V2H787V38H810V87H846zM794 157V53H691V157H794zM312 165C289 165 271 146 271 124C271 101 289 83 312 83C334 83 353 101 353 124C353 146 334 165 312 165zM758 121H727V89H758V121zM846 157V118H810V154L810 154L844 156L846 157zM877 683V569H952V503H877V293H147V503H72V569H147V683H877zM828 859C855 859 877 837 877 810V734H147V810C147 837 169 859 196 859z" />
    <glyph glyph-name="line-travel"
      unicode="&#xE13E;"
      horiz-adv-x="1024" d="M959 828C949 837 933 848 905 848C865 848 811 823 773 784L636 647L183 769C164 774 142 768 127 754L87 714A33 33 0 0 1 77 686C79 676 85 667 94 661L433 460C401 418 329 327 275 271L152 326C131 334 106 329 90 313L60 283A33 33 0 0 1 50 257C51 247 56 238 64 232L239 106L363 -67C369 -75 378 -80 387 -80C388 -80 389 -80 390 -80C399 -80 407 -77 414 -71L443 -41C460 -25 465 -1 456 22L402 145C458 198 549 270 591 302L792 -37A33 33 0 0 1 817 -53C827 -55 837 -51 844 -44L885 -4C899 11 905 32 900 52L778 506L915 642C970 697 1003 784 959 828" />
    <glyph glyph-name="line-travel-1"
      unicode="&#x6C;&#x69;&#x6E;&#x65;&#x5F;&#x74;&#x72;&#x61;&#x76;&#x65;&#x6C;"
      horiz-adv-x="1024" d="M959 828C949 837 933 848 905 848C865 848 811 823 773 784L636 647L183 769C164 774 142 768 127 754L87 714A33 33 0 0 1 77 686C79 676 85 667 94 661L433 460C401 418 329 327 275 271L152 326C131 334 106 329 90 313L60 283A33 33 0 0 1 50 257C51 247 56 238 64 232L239 106L363 -67C369 -75 378 -80 387 -80C388 -80 389 -80 390 -80C399 -80 407 -77 414 -71L443 -41C460 -25 465 -1 456 22L402 145C458 198 549 270 591 302L792 -37A33 33 0 0 1 817 -53C827 -55 837 -51 844 -44L885 -4C899 11 905 32 900 52L778 506L915 642C970 697 1003 784 959 828" />
    <glyph glyph-name="line-tv"
      unicode="&#xE13F;"
      horiz-adv-x="1024" d="M227 787A33 33 0 0 0 260 786L900 413A33 33 0 0 0 900 355L260 -18A33 33 0 0 0 210 10V758A33 33 0 0 0 227 787z" />
    <glyph glyph-name="line-tv-1"
      unicode="&#x6C;&#x69;&#x6E;&#x65;&#x5F;&#x74;&#x76;"
      horiz-adv-x="1024" d="M227 787A33 33 0 0 0 260 786L900 413A33 33 0 0 0 900 355L260 -18A33 33 0 0 0 210 10V758A33 33 0 0 0 227 787z" />
    </font>
</defs>
</svg>
