<?xml version="1.0" standalone="no"?>
<!DOCTYPE svg PUBLIC "-//W3C//DTD SVG 1.1//EN" "http://www.w3.org/Graphics/SVG/1.1/DTD/svg11.dtd" >
<svg xmlns="http://www.w3.org/2000/svg">
<metadata>
LAICON Extrabold Version 16.17
Copyright (c) LINE Corporation
</metadata>
<defs>
  <font id="laicon-extrabold" horiz-adv-x="1024">
    <font-face font-family="laicon-regular"
      units-per-em="1024" ascent="896"
      descent="128"
      font-weight="800"
      font-style="Extra Bold" />
    <missing-glyph horiz-adv-x="1024" /><glyph unicode="&#x20;" horiz-adv-x="512" d="" />
    <glyph glyph-name="address-book"
      unicode="&#xE15D;"
      horiz-adv-x="1024" d="M236 743V25H899V743H236zM144 763C144 803 176 835 216 835H920C959 835 991 803 991 763V5C991 -35 959 -67 920 -67H216C176 -67 144 -35 144 5V763zM493 532A42 42 0 0 0 493 530V516L487 509A63 63 0 0 1 486 504A54 54 0 0 1 485 498A22 22 0 0 1 485 496C485 494 486 492 486 491A4 4 0 0 1 486 491L496 485L501 475C513 455 520 441 527 430C534 422 539 413 541 406C545 397 546 387 547 378C548 369 548 359 546 349C544 341 540 325 524 313L524 313L401 229L401 228C395 225 387 218 381 211C378 207 376 205 376 203A0 0 0 0 1 375 203V198H760V203L760 203C759 205 757 208 754 211C749 218 741 225 735 228L735 229L612 313C597 324 592 341 590 349C588 359 588 369 588 378C589 387 591 396 594 405C596 412 600 422 607 430C614 441 622 454 633 475L639 485L649 491L649 492L649 492C650 492 650 494 651 496A20 20 0 0 1 651 497A50 50 0 0 1 649 503A61 61 0 0 1 648 508L642 516V530A42 42 0 0 0 642 532C641 575 604 609 568 609C532 609 493 574 493 532zM760 202S760 202 760 202L760 202zM375 202L375 202L375 202zM493 533L493 534L493 533zM411 539C415 624 489 691 568 691C648 691 719 624 724 539L724 539A140 140 0 0 0 729 524C731 515 734 500 732 485C729 465 721 449 711 437A78 78 0 0 0 700 427A769 769 0 0 0 674 383L672 379L671 378A33 33 0 0 1 670 373L781 297C792 289 806 277 817 264C827 252 842 231 842 205V116H294V205C294 231 309 252 319 264C330 277 344 289 355 297L466 373A31 31 0 0 1 465 377L463 378L460 383A778 778 0 0 0 434 428A77 77 0 0 0 423 438C414 450 406 465 404 485C401 499 404 514 406 523A138 138 0 0 0 411 539zM22 254H226V161H22V254zM22 601H226V509H22V601z" />
    <glyph glyph-name="album"
      unicode="&#xE000;"
      horiz-adv-x="1024" d="M724 210L524 522L324 210H724zM690 566C653 566 622 536 622 498S653 430 690 430C728 430 758 461 758 498S728 566 690 566zM215 742V26H877V742H215zM123 763C123 802 155 835 195 835H897C937 835 969 802 969 763V5C969 -34 937 -67 897 -67H195C155 -67 123 -34 123 5V763zM23 253H169V161H23V253zM23 601H169V509H23V601z" />
    <glyph glyph-name="antenna"
      unicode="&#xE001;"
      horiz-adv-x="1024" d="M466 -119V427H558V-119H466zM512 520C564 520 605 478 605 427C605 375 564 333 512 333S419 375 419 427C419 478 460 520 512 520zM630 167V274C675 309 705 364 705 427C705 533 619 620 512 620C405 620 319 533 319 427C319 364 349 309 394 274V167C296 212 227 311 227 427C227 584 355 712 512 712C669 712 797 584 797 427C797 311 728 212 630 167zM630 -14V83C773 132 876 267 876 427C876 627 713 790 512 790S148 627 148 427C148 267 251 132 394 83V-14C200 38 56 216 56 427C56 678 260 882 512 882C764 882 968 678 968 427C968 216 824 38 630 -14z" />
    <glyph glyph-name="arrow-down"
      unicode="&#xE003;"
      horiz-adv-x="1024" d="M512 70L859 399L923 332L512 -57L101 332L165 399L512 70zM466 19V794H558V19H466z" />
    <glyph glyph-name="arrow-down-circle"
      unicode="&#xE002;"
      horiz-adv-x="1024" d="M512 778A394 394 0 1 1 512 -10A394 394 0 0 1 512 778zM26 384A486 486 0 1 0 998 384A486 486 0 0 0 26 384zM558 281V640H466V281L390 353L327 285L511 111L697 285L634 353L558 281H558z" />
    <glyph glyph-name="arrow-left"
      unicode="&#xE005;"
      horiz-adv-x="1024" d="M242 338L527 37L460 -27L71 384L460 795L527 731L242 430H922V338H242z" />
    <glyph glyph-name="arrow-left-circle"
      unicode="&#xE004;"
      horiz-adv-x="1024" d="M906 384A394 394 0 0 1 791 663A394 394 0 0 1 233 663A394 394 0 1 1 906 384zM512 870A486 486 0 0 0 856 40A486 486 0 1 0 168 728A486 486 0 0 0 512 870zM409 338H768V430H409L481 506L413 569L239 384L413 199L481 262L409 338z" />
    <glyph glyph-name="arrow-left-up"
      unicode="&#xE24E;"
      horiz-adv-x="1024" d="M184 712H742V620H276V154H184V712zM230 666L794 102L230 666zM761 70L198 633L263 698L826 135L761 70z" />
    <glyph glyph-name="arrow-out-square"
      unicode="&#xE006;"
      horiz-adv-x="1024" d="M476 408L876 809L942 744L541 343L476 408zM881 749H661V841H973V530H881V749zM148 676V25C148 23 149 22 149 21A5 5 0 0 1 150 20A10 10 0 0 1 156 17H799C805 17 808 19 809 20L809 20V427H901V19C901 -35 854 -75 799 -75H156C109 -75 56 -39 56 25V680C56 709 73 731 87 745C102 759 126 772 152 772H560V680H154L154 680A16 16 0 0 1 150 677A17 17 0 0 1 148 676z" />
    <glyph glyph-name="arrow-right"
      unicode="&#xE008;"
      horiz-adv-x="1024" d="M826 384L497 731L564 795L953 384L564 -27L497 37L826 384zM877 430V338H102V430H877z" />
    <glyph glyph-name="arrow-right-circle"
      unicode="&#xE007;"
      horiz-adv-x="1024" d="M118 384A394 394 0 1 1 906 384A394 394 0 0 1 118 384zM512 -102A486 486 0 1 0 512 870A486 486 0 0 0 512 -102zM615 430H256V338H615L543 262L611 199L785 384L611 569L543 506L615 430z" />
    <glyph glyph-name="arrow-right-up"
      unicode="&#xE288;"
      horiz-adv-x="1024" d="M748 554L263 70L198 135L682 620H282V712H840V154H748V554z" />
    <glyph glyph-name="arrow-to-down"
      unicode="&#xE009;"
      horiz-adv-x="1024" d="M513 209L265 444L329 511L513 337L695 511L759 444L513 209zM558 735V282H466V735H558zM922 31H102V123H922V31z" />
    <glyph glyph-name="arrow-to-left"
      unicode="&#xE00A;"
      horiz-adv-x="1024" d="M508 338H863V430H509L639 567L572 631L337 383L572 137L639 201L508 338zM159 -26V794H251V-26H159z" />
    <glyph glyph-name="arrow-to-right"
      unicode="&#xE00B;"
      horiz-adv-x="1024" d="M516 338H161V430H515L385 567L452 631L687 383L452 137L385 201L516 338zM865 -26V794H773V-26H865z" />
    <glyph glyph-name="arrow-to-top"
      unicode="&#xE00C;"
      horiz-adv-x="1024" d="M558 388V33H466V387L329 257L265 324L513 559L759 324L695 257L558 388zM922 737H102V645H922V737z" />
    <glyph glyph-name="arrow-turn-down-right"
      unicode="&#xE296;"
      horiz-adv-x="1024" d="M159 742V461A302 302 0 0 1 461 159H734L607 33L673 -33L910 205L673 442L607 377L734 251H461A210 210 0 0 0 251 461V742H159z" />
    <glyph glyph-name="arrow-u-turn-right"
      unicode="&#xE297;"
      horiz-adv-x="1024" d="M251 486A210 210 0 0 0 671 486V173L570 273L505 208L717 -4L929 208L863 273L763 173V486A302 302 0 1 1 159 486V128H251V486z" />
    <glyph glyph-name="arrow-up"
      unicode="&#xE00E;"
      horiz-adv-x="1024" d="M512 698L165 369L101 436L512 825L923 436L859 369L512 698zM466 749H558V-26H466V749z" />
    <glyph glyph-name="arrow-up-circle"
      unicode="&#xE00D;"
      horiz-adv-x="1024" d="M512 -10A394 394 0 0 1 906 384A394 394 0 0 1 791 663A394 394 0 0 1 233 663A394 394 0 0 1 512 -10zM998 384A486 486 0 1 0 26 384A486 486 0 1 0 998 384zM466 487V128H558V487L634 416L697 483L512 657L327 483L390 415L466 487z" />
    <glyph glyph-name="arrows-diagonal-in"
      unicode="&#xE00F;"
      horiz-adv-x="1024" d="M364 532V712H456V440H184V532H364zM660 236V56H568V328H840V236H660zM920 -89L582 249L647 314L985 -24L920 -89zM377 454L39 792L104 857L442 519L377 454z" />
    <glyph glyph-name="arrows-diagonal-out"
      unicode="&#xE010;"
      horiz-adv-x="1024" d="M392 438L54 776L120 842L458 504L392 438zM904 -74L566 264L632 330L970 -8L904 -74zM891 5V184H983V-87H712V5H891zM133 763V584H41V855H312V763H133z" />
    <glyph glyph-name="arrows-up-down"
      unicode="&#xE20A;"
      horiz-adv-x="1024" d="M336 742V48H244V742H336zM290 113L413 236L478 171L290 -17L102 171L167 236L290 113zM688 26V720H780V26H688zM734 655L611 532L546 597L734 785L922 597L857 532L734 655z" />
    <glyph glyph-name="asterisk"
      unicode="&#xE1E0;"
      horiz-adv-x="1024" d="M466 76V692H558V76H466zM756 190L222 498L268 578L802 270L756 190zM756 190L222 498L268 578L802 270L756 190zM802 498L268 190L222 270L756 578L802 498z" />
    <glyph glyph-name="astronaut"
      unicode="&#xE173;"
      horiz-adv-x="1024" d="M517 251C369 251 251 364 251 502S369 753 517 753C666 753 783 640 783 502S666 251 517 251zM517 666C420 666 343 594 343 507C343 420 420 348 517 348S691 420 691 507C691 594 614 666 517 666zM916 -97H118C92 -97 72 -77 72 -51C72 61 77 154 164 205C169 230 179 251 200 266C189 287 179 307 174 328C102 358 102 456 102 486C102 558 113 604 143 630C143 640 154 645 169 650C215 799 343 886 522 886C701 886 829 799 870 650C881 645 896 640 901 630C927 604 942 558 942 486C942 451 942 358 870 328C865 307 855 287 845 266C860 251 870 230 876 210C973 159 968 46 968 -46C963 -77 942 -97 916 -97zM164 -5H870C870 77 860 113 814 128C794 133 783 154 783 174C783 184 778 195 768 195C748 195 727 210 722 230C717 251 727 271 748 282C753 287 773 328 783 364C788 384 804 399 819 399C829 399 845 404 845 476C845 543 835 558 835 558C809 553 788 568 783 589V594C758 727 666 794 517 794C328 794 266 691 251 604C246 579 220 563 200 563C200 563 189 543 189 486C189 415 210 410 215 410C236 404 251 389 251 374C256 338 271 307 292 282C307 271 312 251 307 230C302 210 287 200 266 200C256 200 251 189 251 184C251 164 241 143 220 133C184 118 164 92 164 -5zM763 -46H671V20C671 26 671 26 666 26H358C353 26 353 26 353 20V-46H261V20C261 72 307 118 358 118H666C717 118 763 72 763 20V-46zM620 615L555 565L605 500L670 550L620 615z" />
    <glyph glyph-name="astronauts"
      unicode="&#xE1F2;"
      horiz-adv-x="1024" d="M778 72C763 113 737 138 717 154C722 159 722 164 727 169C753 184 778 215 778 261V266C778 302 778 348 753 374C748 379 742 384 737 384C691 481 614 532 512 532C410 532 333 481 297 389C292 384 287 384 282 379C251 348 251 307 251 271V266C251 220 271 189 302 174C302 169 307 159 307 154C282 133 261 108 246 72C230 36 230 -46 230 -82C236 -108 256 -128 282 -128H748C773 -128 794 -108 794 -82C788 -51 788 36 778 72zM543 -36H481V-26H543V-36zM635 -36V20C635 46 614 67 589 67H435C410 67 389 46 389 20V-36H328C328 0 333 31 333 41C353 92 399 108 399 108C420 113 430 133 430 148C430 169 420 184 399 195C394 195 379 215 374 230C369 246 358 256 343 256V307C358 312 369 323 374 338C384 374 420 440 512 440C604 440 640 379 650 343C655 328 666 317 681 312V261C666 256 655 246 650 236C645 220 630 200 625 200C604 195 594 174 594 154S609 118 625 113C625 113 671 97 691 46C696 36 696 5 696 -31H635V-36zM1024 292C1024 266 1004 246 978 246H829V266C829 287 829 312 824 333H927C927 364 922 389 922 399C906 445 860 461 860 461C840 466 829 486 829 502C829 522 840 538 860 548C865 548 881 568 886 584C891 599 901 609 916 609V655C901 660 891 671 886 686C870 727 840 778 758 778S645 727 630 686C625 671 614 660 599 655V609C614 604 625 594 630 584C635 573 640 563 645 558C609 579 563 589 517 589C512 599 512 604 512 609C512 599 512 594 507 589C456 589 410 579 374 558C379 563 384 573 389 584C394 599 404 609 420 609V655C404 660 394 671 389 686C379 727 343 778 261 778S148 727 133 686C133 671 123 660 108 655V609C123 604 133 594 138 584C143 568 154 553 164 548C184 543 195 522 195 502S184 466 164 461C164 461 118 445 102 399C97 389 97 364 97 333H200C195 307 195 282 195 266V246H46C20 246 0 266 0 292C0 328 0 404 15 440C26 471 51 497 72 517L61 527C36 543 15 573 15 614V620C15 655 15 696 41 722C46 732 51 737 56 737C92 819 169 870 261 870C358 870 430 819 466 737C471 732 476 732 481 727C507 707 512 676 512 650C512 676 517 707 538 727C543 732 548 737 553 737C589 819 666 870 758 870C855 870 927 819 963 737C968 732 973 732 978 727C1004 701 1004 655 1004 625V620C1004 579 983 548 957 532C957 527 952 522 947 517C968 502 988 476 1004 440C1024 404 1024 323 1024 292z" />
    <glyph glyph-name="at-mark"
      unicode="&#xE011;"
      horiz-adv-x="1024" d="M174 384A338 338 0 1 0 842 311C838 294 830 271 816 252C803 235 788 225 768 225A31 31 0 0 0 737 256V538A46 46 0 0 1 651 561A225 225 0 1 1 654 209A123 123 0 0 1 768 133C825 133 865 164 890 197C914 229 926 266 932 291A430 430 0 1 1 512 -46A46 46 0 0 1 512 46A338 338 0 0 0 174 384zM645 384A133 133 0 1 0 379 384A133 133 0 0 0 645 384z" />
    <glyph glyph-name="backward-layer"
      unicode="&#xE012;"
      horiz-adv-x="1024" d="M259 486C259 563 320 625 397 625H699V742C699 782 667 814 627 814H141C101 814 69 782 69 742V282C69 242 101 210 141 210H259V486zM325 486C325 526 357 558 397 558H883C923 558 955 526 955 486V26C955 -14 923 -46 883 -46H397C357 -46 325 -14 325 26V486zM417 466V46H863V466H417z" />
    <glyph glyph-name="balloons"
      unicode="&#xE225;"
      horiz-adv-x="1024" d="M726 312L574 -100A46 46 0 0 0 488 -100L341 305L427 336L531 50L640 344L726 312zM656 642C649 676 638 708 624 738C673 775 734 793 804 780C880 766 932 714 959 652C986 590 990 516 971 449C931 311 792 231 676 263C643 272 615 289 591 311C610 336 626 365 639 396C655 373 677 358 700 352C762 335 855 379 882 474C896 523 893 574 875 615C858 655 828 682 787 689C736 699 690 680 656 642zM159 699C135 644 131 575 150 510C187 383 311 321 396 344C477 367 542 474 516 606C489 738 392 822 278 800C223 790 182 753 159 699zM74 735C107 812 170 874 261 891C441 925 573 787 606 624C639 461 563 294 420 256C280 218 110 316 61 485C37 568 42 660 74 735zM195 684C231 753 286 767 314 771L327 690C318 689 309 687 299 681C289 675 278 666 267 646C256 624 254 592 260 562L180 547C172 587 172 640 195 684z" />
    <glyph glyph-name="barometer-speed"
      unicode="&#xE20D;"
      horiz-adv-x="1024" d="M318 120C383 58 471 20 568 20C769 20 932 183 932 384S769 748 568 748C471 748 383 710 318 648L253 713C335 792 446 840 568 840C820 840 1024 636 1024 384S820 -72 568 -72C446 -72 335 -23 253 55L318 120zM573 410A26 26 0 1 1 573 358A26 26 0 0 1 573 410zM456 384C456 449 508 502 573 502C638 502 691 449 691 384C691 319 638 266 573 266C508 266 456 319 456 384zM379 476H97V568H379V476zM282 338H0V430H282V338zM591 463L737 597L799 529L653 395L591 463zM379 200H97V292H379V200z" />
    <glyph glyph-name="bars"
      unicode="&#xE013;"
      horiz-adv-x="1024" d="M870 338H154V430H870V338zM870 41H154V133H870V41zM870 635H154V727H870V635z" />
    <glyph glyph-name="bars-check"
      unicode="&#xE213;"
      horiz-adv-x="1024" d="M861 655H77V748H861V655zM486 36H77V128H486V36zM861 346H77V438H861V346zM740 64L958 282L1023 217L740 -66L551 123L616 188L740 64z" />
    <glyph glyph-name="bars-music"
      unicode="&#xE22A;"
      horiz-adv-x="1024" d="M819 701H35V794H819V701zM409 82H35V174H409V82zM35 392H599V484H35V392zM731 260A148 148 0 1 1 823 118H823V463L927 347L995 408L847 574C806 620 731 591 731 530V260zM674 179A56 56 0 0 0 714 83A56 56 0 0 0 618 123A56 56 0 0 0 674 179z" />
    <glyph glyph-name="bars-plus"
      unicode="&#xE22F;"
      horiz-adv-x="1024" d="M886 655H102V748H886V655zM514 36H102V128H514V36zM973 36H614V128H973V36zM748 -97V262H840V-97H748zM886 346H102V438H886V346z" />
    <glyph glyph-name="baseball-ball"
      unicode="&#xE014;"
      horiz-adv-x="1024" d="M512 773C297 773 123 599 123 384S297 -5 512 -5S901 169 901 384S727 773 512 773zM31 384C31 650 246 865 512 865C778 865 993 650 993 384C993 118 778 -97 512 -97C246 -97 31 118 31 384zM249 631A46 46 0 0 0 313 623C329 604 342 583 354 560A46 46 0 0 0 273 517A338 338 0 0 1 241 566A46 46 0 0 0 249 631zM348 458A46 46 0 0 0 400 418A435 435 0 0 0 404 343A46 46 0 0 0 357 299A46 46 0 0 0 312 347A343 343 0 0 1 309 406A46 46 0 0 0 348 458zM348 257A46 46 0 0 0 373 197A430 430 0 0 0 339 130A46 46 0 0 0 276 116A46 46 0 0 0 261 179A338 338 0 0 1 288 232A46 46 0 0 0 348 257zM772 628A46 46 0 0 0 781 563A338 338 0 0 1 753 521A46 46 0 0 0 691 503A46 46 0 0 0 672 565A429 429 0 0 0 707 619A46 46 0 0 0 772 628zM674 453C700 450 718 427 714 401A345 345 0 0 1 712 351A46 46 0 0 0 667 304A46 46 0 0 0 620 349A435 435 0 0 0 623 413A46 46 0 0 0 674 453zM677 253A46 46 0 0 0 738 228C744 212 752 197 761 183A46 46 0 1 0 682 135A429 429 0 0 0 653 192A46 46 0 0 0 677 253z" />
    <glyph glyph-name="beauty"
      unicode="&#xE270;"
      horiz-adv-x="1024" d="M512 696C325 696 174 545 174 358V153A297 297 0 0 0 124 -12L115 -26A46 46 0 0 0 51 -38A46 46 0 0 0 38 26L48 39A205 205 0 0 1 82 153V358C82 596 274 788 512 788A46 46 0 0 0 558 742A46 46 0 0 0 512 696zM896 404A46 46 0 0 0 942 358V153A297 297 0 0 0 892 -12L883 -26A46 46 0 0 0 819 -38A46 46 0 0 0 806 26L816 39A205 205 0 0 1 850 153V358A46 46 0 0 0 896 404zM236 358A46 46 0 0 0 282 404H742A46 46 0 0 0 788 358V230C788 78 665 -46 512 -46C359 -46 236 78 236 230V358zM328 312V230C328 129 410 46 512 46C614 46 696 129 696 230V312H328zM744 816A17 17 0 0 1 710 816L709 807A85 85 0 0 0 631 729L623 729A17 17 0 0 1 623 695L631 694A85 85 0 0 0 709 616L710 608A17 17 0 0 1 744 608L745 616A85 85 0 0 0 823 694L831 695A17 17 0 0 1 831 729L823 729A85 85 0 0 0 745 807L744 816zM893 615A13 13 0 0 1 868 615L867 609A64 64 0 0 0 809 551L803 550A13 13 0 0 1 803 525L809 524A64 64 0 0 0 867 466L868 460A13 13 0 0 1 893 460L894 466A64 64 0 0 0 952 524L959 525A13 13 0 0 1 959 550L952 551A64 64 0 0 0 894 609L893 615z" />
    <glyph glyph-name="beer"
      unicode="&#xE1B1;"
      horiz-adv-x="1024" d="M870 133H783V225H870V512H783V604H870C922 604 963 563 963 512V230C963 174 922 133 870 133zM737 -102H261C210 -102 169 -61 169 -10V323H261V-10H732V604H824V-10C829 -61 788 -102 737 -102zM276 287C128 287 61 399 61 507C61 573 97 630 159 660C184 763 266 845 369 865C471 886 568 850 635 773C655 778 681 783 707 778C799 763 829 676 829 604V558H609C517 558 492 507 466 440C435 374 399 287 276 287zM425 778C415 778 399 778 389 773C312 758 256 696 241 620L236 594L215 584C174 573 154 543 154 507C154 476 164 379 276 379C338 379 353 410 384 476C415 548 461 650 614 650H732C727 671 712 686 691 691C676 696 645 686 640 681L604 666L584 701C543 748 486 778 425 778zM466 205H374V92H466V205zM625 415H532V87H625V415z" />
    <glyph glyph-name="beginner-mark"
      unicode="&#xE2B2;"
      horiz-adv-x="1024" d="M927 707C927 836 784 914 675 845L512 741L349 845C240 914 97 836 97 707V224A148 148 0 0 1 164 100L436 -79A138 138 0 0 1 588 -79L860 100A148 148 0 0 1 927 224V707zM724 767A72 72 0 0 0 835 707V224A56 56 0 0 0 809 177L558 11V661L724 767zM466 661V11L215 177A56 56 0 0 0 189 224V707A72 72 0 0 0 300 767L466 661z" />
    <glyph glyph-name="bell"
      unicode="&#xE015;"
      horiz-adv-x="1024" d="M512 839A365 365 0 0 1 147 474V239A271 271 0 0 0 100 86A46 46 0 0 1 138 14H466V-86H558V14H886A46 46 0 0 1 924 86A271 271 0 0 0 877 239V474A365 365 0 0 1 512 839zM239 474A273 273 0 0 0 785 474V239C785 192 793 147 810 106H214A364 364 0 0 1 239 239V474z" />
    <glyph glyph-name="bell-slash"
      unicode="&#xE29F;"
      horiz-adv-x="1024" d="M818 673A365 365 0 0 1 147 474V239A271 271 0 0 0 100 86A46 46 0 0 1 138 14H159L101 -44L166 -109L959 684L894 749L818 673zM251 106H214A364 364 0 0 1 239 239V474A273 273 0 0 0 751 606L251 106zM877 474V477L785 385V239C785 192 793 147 810 106H506L414 14H466V-87H558V14H886A46 46 0 0 1 924 86A271 271 0 0 0 877 239V474z" />
    <glyph glyph-name="bicycle"
      unicode="&#xE016;"
      horiz-adv-x="1024" d="M236 394C156 394 90 329 90 248C90 168 156 102 236 102C317 102 382 168 382 248C382 329 317 394 236 394zM0 248C0 379 106 485 236 485C367 485 473 379 473 248C473 118 367 12 236 12C106 12 0 118 0 248zM788 394C707 394 642 329 642 248C642 168 707 102 788 102C868 102 934 168 934 248C934 329 868 394 788 394zM551 248C551 379 657 485 788 485C918 485 1024 379 1024 248C1024 118 918 12 788 12C657 12 551 118 551 248zM511 711A45 45 0 0 0 556 756H651L830 264A45 45 0 0 0 745 233L588 666H556A45 45 0 0 0 511 711zM317 601H668A45 45 0 0 0 668 511H380L279 233A45 45 0 1 0 194 264L317 601z" />
    <glyph glyph-name="billing-document"
      unicode="&#xE017;"
      horiz-adv-x="1024" d="M88 759C88 821 139 871 201 871H765C827 871 878 821 878 759V302H785V759A20 20 0 0 1 765 779H201A20 20 0 0 1 180 759V53A20 20 0 0 1 201 32H494V-60H201C139 -60 88 -9 88 53V759zM647 540H319V632H647V540zM647 360H319V452H647V360zM612 179C616 177 622 175 629 172C654 164 691 159 732 159C774 159 810 164 835 172C842 175 848 177 852 179C848 181 842 184 835 186C810 194 774 200 732 200C691 200 654 194 629 186C622 184 616 181 612 179zM611 245C643 255 686 261 732 261C778 261 821 255 854 245C870 239 885 233 897 224C908 215 922 200 922 179C922 158 908 144 897 135C885 126 870 119 854 114C821 103 778 97 732 97C686 97 643 103 611 114C594 119 579 126 567 135C556 144 543 158 543 179C543 200 556 215 567 224C579 233 594 239 611 245zM604 0L605 -1C609 -4 617 -8 629 -12C654 -20 691 -26 732 -26C774 -26 810 -20 835 -12C848 -8 856 -4 860 -1L860 0V179H922V-5C922 -26 908 -41 897 -49C885 -59 870 -65 854 -71C821 -81 778 -87 732 -87C686 -87 643 -81 611 -71C594 -65 579 -59 567 -49C556 -41 543 -26 543 -5V179H604V0zM862 1C862 1 862 1 862 1A1 1 0 0 0 862 1zM603 1A1 1 0 0 0 602 1A1 1 0 0 0 603 1zM629 80C654 72 691 67 732 67C774 67 810 72 835 80C848 84 856 88 860 92A16 16 0 0 1 862 93C861 93 860 91 860 87H922C922 66 908 51 897 43C885 34 870 27 854 22C821 11 778 5 732 5C686 5 643 11 611 22C594 27 579 34 567 43C556 51 543 66 543 87H604C604 91 603 93 603 93A16 16 0 0 1 605 92C609 88 617 84 629 80zM602 93A1 1 0 0 0 603 93A1 1 0 0 0 602 93zM862 93C862 93 862 93 862 93A1 1 0 0 0 862 93z" />
    <glyph glyph-name="bitcoin"
      unicode="&#xE018;"
      horiz-adv-x="1024" d="M397 525V610H489V525H397zM507 525V610H599V525H507zM397 151V235H489V151H397zM507 151V235H599V151H507zM363 571H547C613 571 666 518 666 452S613 334 547 334H443V426H547A26 26 0 1 1 547 479H363V571zM443 426H572C638 426 691 373 691 308S638 189 572 189H363V281H572A26 26 0 1 1 572 334H443V426zM397 235V525H489V235H397zM512 778C294 778 118 602 118 384S294 -10 512 -10S906 166 906 384S730 778 512 778zM26 384C26 653 243 870 512 870S998 653 998 384S781 -102 512 -102S26 115 26 384z" />
    <glyph glyph-name="block-quote-text"
      unicode="&#xE2A3;"
      horiz-adv-x="1024" d="M115 748H909V655H115V748zM125 448H218V3H125V448zM909 338H358V430H909V338zM909 20H358V113H909V20z" />
    <glyph glyph-name="book"
      unicode="&#xE1EA;"
      horiz-adv-x="1024" d="M388 504H163V597H388V504zM388 353H163V445H388V353zM388 201H163V293H388V201zM860 504H635V597H860V504zM860 353H635V445H860V353zM860 201H635V293H860V201zM466 648C466 726 527 793 607 793H918C973 793 1014 747 1014 695V105C1014 53 973 8 918 8H593C580 8 567 4 557 -2A90 90 0 0 1 547 -9A57 57 0 0 1 544 -11A46 46 0 0 0 512 -25H512A46 46 0 0 0 479 -10A46 46 0 0 0 469 5A46 46 0 0 0 466 24V648zM558 96A152 152 0 0 0 593 100H918C919 100 919 100 920 101C921 102 922 103 922 105V695C922 697 921 699 920 700C919 700 919 700 918 700H607C582 700 558 679 558 648V96zM104 700C103 699 103 697 103 695V105C103 103 103 102 104 101C105 100 106 100 106 100H432C443 100 455 99 466 96V644C466 677 441 700 414 700H106C106 700 105 700 104 700zM512 21V21C480 -11 480 -11 480 -11L480 -11L480 -12L480 -12L480 -12L480 -11A56 56 0 0 1 477 -9A89 89 0 0 1 467 -2C457 4 445 8 432 8H106C52 8 11 53 11 105V695C11 747 52 793 106 793H414C495 793 558 724 558 644V21H512z" />
    <glyph glyph-name="book-push"
      unicode="&#xE240;"
      horiz-adv-x="1024" d="M876 768C876 813 839 850 794 850H218C151 850 97 796 97 730V38C97 -28 151 -82 218 -82H664A247 247 0 0 0 604 -5H218A44 44 0 0 0 218 82H580A248 248 0 0 0 579 104C579 123 581 141 585 159H218C202 159 188 156 174 151V730A44 44 0 0 0 218 773H794A5 5 0 0 0 799 768V349A249 249 0 0 0 876 345V768zM824 -95C714 -95 625 -6 625 104C625 215 714 304 824 304S1024 215 1024 104C1024 -6 935 -95 824 -95zM800 131V-7H851V131L901 81L937 118L826 229L714 118L750 81L800 131z" />
    <glyph glyph-name="border-all"
      unicode="&#xE019;"
      horiz-adv-x="1024" d="M31 865H993V-97H31V865zM123 773V-5H901V773H123zM466 -51V819H558V-51H466zM77 430H947V338H77V430z" />
    <glyph glyph-name="border-bottom"
      unicode="&#xE01A;"
      horiz-adv-x="1024" d="M148 840H56V748H148V840zM353 840H261V748H353V840zM558 840H466V748H558V840zM763 840H671V748H763V840zM968 840H876V748H968V840zM148 635H56V543H148V635zM558 635H466V543H558V635zM968 635H876V543H968V635zM353 431H261V339H353V431zM763 431H671V339H763V431zM148 430H56V338H148V430zM558 430H466V338H558V430zM968 430H876V338H968V430zM148 225H56V133H148V225zM558 225H466V133H558V225zM968 225H876V133H968V225zM968 20H56V-72H968V20z" />
    <glyph glyph-name="border-center-horizontal"
      unicode="&#xE01B;"
      horiz-adv-x="1024" d="M148 840H56V748H148V840zM353 840H261V748H353V840zM558 840H466V748H558V840zM763 840H671V748H763V840zM968 840H876V748H968V840zM148 635H56V543H148V635zM558 635H466V543H558V635zM968 635H876V543H968V635zM968 431H56V339H968V431zM148 225H56V133H148V225zM558 225H466V133H558V225zM968 225H876V133H968V225zM353 21H261V-71H353V21zM763 21H671V-71H763V21zM148 20H56V-72H148V20zM558 20H466V-72H558V20zM968 20H876V-72H968V20z" />
    <glyph glyph-name="border-center-vertical"
      unicode="&#xE01C;"
      horiz-adv-x="1024" d="M148 840H56V748H148V840zM353 840H261V748H353V840zM559 840H467V-72H559V840zM763 840H671V748H763V840zM968 840H876V748H968V840zM149 635H57V543H149V635zM968 635H876V543H968V635zM148 430H56V338H148V430zM353 430H261V338H353V430zM763 430H671V338H763V430zM968 430H876V338H968V430zM149 225H57V133H149V225zM968 225H876V133H968V225zM148 20H56V-72H148V20zM353 20H261V-72H353V20zM763 20H671V-72H763V20zM968 20H876V-72H968V20z" />
    <glyph glyph-name="border-inner"
      unicode="&#xE01D;"
      horiz-adv-x="1024" d="M148 840H56V748H148V840zM353 840H261V748H353V840zM558 840H466V430H57V338H466V-72H558V338H968V430H558V840zM762 840H670V748H762V840zM967 840H875V748H967V840zM149 635H57V543H149V635zM967 635H875V543H967V635zM149 225H57V133H149V225zM967 225H875V133H967V225zM148 20H56V-72H148V20zM353 20H261V-72H353V20zM762 20H670V-72H762V20zM967 20H875V-72H967V20z" />
    <glyph glyph-name="border-left"
      unicode="&#xE01E;"
      horiz-adv-x="1024" d="M148 840H56V-72H148V840zM353 840H261V748H353V840zM558 840H466V748H558V840zM763 840H671V748H763V840zM968 840H876V748H968V840zM558 635H466V543H558V635zM968 635H876V543H968V635zM353 431H261V339H353V431zM558 431H466V339H558V431zM763 431H671V339H763V431zM968 431H876V339H968V431zM558 225H466V133H558V225zM968 225H876V133H968V225zM353 20H261V-72H353V20zM558 20H466V-72H558V20zM763 20H671V-72H763V20zM968 20H876V-72H968V20z" />
    <glyph glyph-name="border-none"
      unicode="&#xE01F;"
      horiz-adv-x="1024" d="M148 840H56V748H148V840zM353 840H261V748H353V840zM557 840H465V748H557V840zM763 840H671V748H763V840zM968 840H876V748H968V840zM149 635H57V543H149V635zM558 635H466V543H558V635zM968 635H876V543H968V635zM148 430H56V338H148V430zM353 430H261V338H353V430zM557 430H465V338H557V430zM763 430H671V338H763V430zM968 430H876V338H968V430zM149 225H57V133H149V225zM558 225H466V133H558V225zM968 225H876V133H968V225zM148 20H56V-72H148V20zM353 20H261V-72H353V20zM557 20H465V-72H557V20zM763 20H671V-72H763V20zM968 20H876V-72H968V20z" />
    <glyph glyph-name="border-outer"
      unicode="&#xE020;"
      horiz-adv-x="1024" d="M968 840H56V-72H968V840zM148 20V748H876V20H148zM558 635H466V543H558V635zM353 430H261V338H353V430zM557 430H465V338H557V430zM763 430H671V338H763V430zM558 225H466V133H558V225z" />
    <glyph glyph-name="border-right"
      unicode="&#xE021;"
      horiz-adv-x="1024" d="M148 840H56V748H148V840zM353 840H261V748H353V840zM558 840H466V748H558V840zM763 840H671V748H763V840zM968 840H876V-72H968V840zM148 635H56V543H148V635zM558 635H466V543H558V635zM148 431H56V339H148V431zM353 431H261V339H353V431zM558 431H466V339H558V431zM763 431H671V339H763V431zM148 225H56V133H148V225zM558 225H466V133H558V225zM148 20H56V-72H148V20zM353 20H261V-72H353V20zM558 20H466V-72H558V20zM763 20H671V-72H763V20z" />
    <glyph glyph-name="border-style"
      unicode="&#xE023;"
      horiz-adv-x="1024" d="M968 840H56V-72H148V748H968V840zM558 635H466V543H558V635zM968 635H876V543H968V635zM353 431H261V339H353V431zM558 431H466V339H558V431zM763 431H671V339H763V431zM968 431H876V339H968V431zM558 225H466V133H558V225zM968 225H876V133H968V225zM353 20H261V-72H353V20zM558 20H466V-72H558V20zM763 20H671V-72H763V20zM968 20H876V-72H968V20z" />
    <glyph glyph-name="border-style-alt"
      unicode="&#xE022;"
      horiz-adv-x="1024" d="M148 840H56V748H148V840zM353 840H261V748H353V840zM558 840H466V748H558V840zM763 840H671V748H763V840zM968 840H876V20H56V-72H968V840zM148 635H56V543H148V635zM558 635H466V543H558V635zM148 429H56V337H148V429zM353 429H261V337H353V429zM558 429H466V337H558V429zM763 429H671V337H763V429zM148 225H56V133H148V225zM558 225H466V133H558V225z" />
    <glyph glyph-name="border-top"
      unicode="&#xE024;"
      horiz-adv-x="1024" d="M968 840H56V748H968V840zM148 635H56V543H148V635zM557 635H465V543H557V635zM968 635H876V543H968V635zM148 430H56V338H148V430zM353 430H261V338H353V430zM557 430H465V338H557V430zM763 430H671V338H763V430zM968 430H876V338H968V430zM148 225H56V133H148V225zM557 225H465V133H557V225zM968 225H876V133H968V225zM148 20H56V-72H148V20zM353 20H261V-72H353V20zM557 20H465V-72H557V20zM763 20H671V-72H763V20zM968 20H876V-72H968V20z" />
    <glyph glyph-name="box"
      unicode="&#xE026;"
      horiz-adv-x="1024" d="M231 801A98 98 0 0 0 300 829H724C750 829 775 819 793 801L957 637A98 98 0 0 0 986 567L986 37C986 -18 942 -61 888 -61H136C82 -61 38 -18 38 37V567C38 593 48 618 67 637L231 801zM300 737A6 6 0 0 1 296 736L132 571A6 6 0 0 1 130 567V37A6 6 0 0 1 136 31H888A6 6 0 0 1 894 37L894 567A6 6 0 0 1 892 571L728 736A6 6 0 0 1 724 737H300zM940 543H84V635H940V543z" />
    <glyph glyph-name="box-check"
      unicode="&#xE025;"
      horiz-adv-x="1024" d="M477 271L635 428L700 363L477 141L324 294L389 360L477 271zM231 801A98 98 0 0 0 300 829H724C750 829 775 819 793 801L957 637A98 98 0 0 0 986 567L986 37C986 -18 942 -61 888 -61H136C82 -61 38 -18 38 37V567C38 593 48 618 67 637L231 801zM300 737A6 6 0 0 1 296 736L132 571A6 6 0 0 1 130 567V37A6 6 0 0 1 136 31H888A6 6 0 0 1 894 37L894 567A6 6 0 0 1 892 571L728 736A6 6 0 0 1 724 737H300zM940 543H84V635H940V543z" />
    <glyph glyph-name="boxes-3"
      unicode="&#xE1E5;"
      horiz-adv-x="1024" d="M466 835C497 850 532 850 563 835L722 742C753 722 768 691 768 655V471C768 435 748 404 717 389L563 297C532 282 497 282 466 297L307 389C276 404 256 440 256 471V655C256 691 271 722 302 742L466 835zM517 753H512L394 686L512 620H517L635 686L517 753zM676 604L563 538L558 532V399L676 466L681 471V604H676zM466 399V538L348 604V471S348 466 353 466L466 399zM676 466C707 481 742 481 773 466L932 374C963 358 983 323 983 292V108C983 72 963 41 937 26L778 -67C748 -82 712 -82 681 -67L512 20C481 36 466 72 466 102V287C466 323 486 353 517 369L676 466zM727 389H722L604 323L722 256H727L845 323L727 389zM891 241L773 174L768 169V36L886 102V241H891zM676 31V169L558 236V102S558 97 563 97L676 31zM251 466C282 481 317 481 348 466L507 374C538 358 558 323 558 292V108C558 72 538 41 512 26L353 -67C323 -82 287 -82 256 -67L97 26C67 41 51 77 51 108V292C51 328 72 358 102 374L251 466zM302 389L179 323L297 256H302L420 323L302 389zM466 241L348 174L343 169V36L461 102V241H466zM256 31V169L138 236V97L256 31z" />
    <glyph glyph-name="brackets-curly-i"
      unicode="&#xE2AD;"
      horiz-adv-x="1024" d="M108 640A148 148 0 0 0 256 788H307V696H256A56 56 0 0 1 200 640V461A122 122 0 0 0 173 384C190 363 200 336 200 307V128A56 56 0 0 1 256 72H282V-20H256A148 148 0 0 0 108 128V307A31 31 0 0 1 77 338L51 338V430L77 430A31 31 0 0 1 108 461V640zM916 640A148 148 0 0 1 768 788H717V696H768A56 56 0 0 0 824 640V461C824 432 834 405 851 384A122 122 0 0 1 824 307V128A56 56 0 0 0 768 72H742V-20H768A148 148 0 0 1 916 128V307A31 31 0 0 0 947 338L973 338V430L947 430A31 31 0 0 0 916 461V640zM466 476V118H558V476H466zM512 643A59 59 0 1 1 512 525A59 59 0 0 1 512 643z" />
    <glyph glyph-name="briefcase"
      unicode="&#xE185;"
      horiz-adv-x="1024" d="M145 591V34H879V591H145zM53 611C53 651 85 683 124 683H900C939 683 972 651 972 611V13C972 -26 939 -59 900 -59H124C85 -59 53 -26 53 13V611zM409 757V637H317V778C317 817 349 849 388 849H636C675 849 707 817 707 778V637H615V757H409z" />
    <glyph glyph-name="browser"
      unicode="&#xE027;"
      horiz-adv-x="1024" d="M131 699V69A438 438 0 0 1 134 69L893 69V699H134L131 699zM892 56L892 56L892 56zM134 791H906C928 791 955 786 972 759C985 739 985 715 985 703V70C985 57 985 34 974 14C968 2 958 -8 945 -15C932 -21 919 -23 906 -23L134 -23C123 -23 111 -23 100 -21C89 -19 74 -15 62 -3C49 10 43 25 41 36C39 47 39 59 39 70V703C39 713 39 725 41 737C44 749 50 764 65 776C79 787 94 789 103 790C113 791 124 791 134 791zM939 466H85V558H939V466zM250 663H173V586H250V663zM367 663H290V586H367V663z" />
    <glyph glyph-name="browser-arrow-up"
      unicode="&#xE2B6;"
      horiz-adv-x="1024" d="M173 663H250V586H173V663zM290 663H367V586H290V663zM131 466V69H666V-23H135C123 -23 111 -23 100 -21A74 74 0 0 0 62 -3A71 71 0 0 0 41 36A177 177 0 0 0 39 70V703C39 713 39 725 41 737C44 749 50 764 65 776C79 787 94 789 103 790C113 791 124 791 134 791H906C928 791 955 786 972 759C985 739 985 715 985 703V307H893V466H131zM131 558H893V699H131V558zM844 287L696 140L761 74L798 111V-11H890V111L926 74L992 140L844 287z" />
    <glyph glyph-name="browser-times"
      unicode="&#xE2B5;"
      horiz-adv-x="1024" d="M173 663H250V586H173V663zM290 663H367V586H290V663zM131 466V69H653V-23H135A205 205 0 0 0 100 -21A74 74 0 0 0 62 -3A71 71 0 0 0 41 36A177 177 0 0 0 39 70V703C39 713 39 725 41 737C44 749 50 764 65 776C79 787 94 789 103 790C113 791 124 791 134 791H906C928 791 955 786 972 759C985 739 985 715 985 703V307H893V466H131zM131 558H893V699H131V558zM1021 198L937 114L1021 29L956 -36L872 48L788 -36L723 29L807 114L723 198L788 263L872 179L956 263L1021 198z" />
    <glyph glyph-name="brush"
      unicode="&#xE028;"
      horiz-adv-x="1024" d="M155 165H905V73H155V165zM535 788C503 789 478 764 478 733V415A46 46 0 0 0 453 375L194 237A5 5 0 0 1 192 233V120C192 65 184 15 175 -26L844 -26C852 7 863 66 863 120V232A5 5 0 0 1 860 237L614 367A46 46 0 0 0 589 408V725C589 761 562 786 537 788L535 788zM846 -118L122 -118C99 -118 85 -105 78 -96A46 46 0 0 0 71 -56C84 -13 99 50 99 120V233C99 269 119 302 151 318L386 443V733C386 815 454 882 537 880L540 880A48 48 0 0 0 541 880C622 876 681 804 681 725V436L903 318A97 97 0 0 0 955 232V120C955 54 941 -15 934 -49C924 -90 888 -118 846 -118C846 -118 846 -118 846 -118z" />
    <glyph glyph-name="bts-skytrain"
      unicode="&#xE029;"
      horiz-adv-x="1024" d="M694 803A4 4 0 0 1 690 800A4 4 0 0 1 690 799C690 797 692 795 694 795H870C893 795 912 776 912 753A42 42 0 0 0 886 714A42 42 0 0 0 870 710H652V749H870A4 4 0 0 1 874 753A4 4 0 0 1 873 755A4 4 0 0 1 870 756H694A42 42 0 0 0 652 799C652 822 670 841 694 841H912V803H694zM112 840H326A42 42 0 0 0 361 775A42 42 0 0 0 326 710H112V840zM328 756A43 43 0 0 0 326 756V756H160V795H326A44 44 0 0 0 328 795A4 4 0 0 1 329 798A4 4 0 0 1 326 802H150V749H326A4 4 0 0 1 329 753A4 4 0 0 1 328 756V756zM641 840H381V802H492V710H530V802H641V840zM572 463C587 444 600 423 613 401C692 487 797 526 910 526V434C811 434 726 397 664 319C661 315 659 312 657 309C699 202 723 72 723 -84H631C631 23 619 115 598 194C573 121 558 30 558 -84H466C466 30 451 121 426 194C405 115 393 23 393 -84H301C301 72 325 202 367 309A335 335 0 0 1 360 319C298 397 213 434 114 434V526C227 526 332 487 411 401C424 423 437 444 452 463C356 561 233 603 114 603V695C253 695 398 646 512 533C626 646 771 695 910 695V603C791 603 668 561 572 463zM472 317H472C488 289 501 259 512 228C523 259 536 289 552 317A596 596 0 0 1 512 389C497 367 484 343 472 317z" />
    <glyph glyph-name="building"
      unicode="&#xE218;"
      horiz-adv-x="1024" d="M256 742V26H768V742H256zM215 835H809C837 835 860 812 860 783V-15C860 -44 837 -67 809 -67H215C187 -67 164 -44 164 -15V783C164 812 187 835 215 835zM430 655V589H364V655H430zM655 655V589H589V655H655zM430 507V507V440H364V507H430zM655 507V507V440H589V507H655zM430 353V287H364V353H430zM655 353V287H589V353H655zM461 -67V174H553V-67H461z" />
    <glyph glyph-name="bulb"
      unicode="&#xE21B;"
      horiz-adv-x="1024" d="M666 -118H358V-26H666V-118zM515 773C358 773 230 646 230 489C230 377 295 280 389 234L415 221V102H614V221L640 234C734 280 799 377 799 489C799 646 671 773 515 773zM138 489C138 697 307 865 515 865C722 865 891 697 891 489C891 351 817 231 707 165V61C707 33 684 10 655 10H374C346 10 323 33 323 61V165C212 231 138 351 138 489z" />
    <glyph glyph-name="calendar"
      unicode="&#xE02B;"
      horiz-adv-x="1024" d="M146 717V41H878V717H146zM54 735C54 776 87 809 128 809H896C937 809 970 776 970 735V24C970 -18 937 -51 896 -51H128C87 -51 54 -18 54 24V735zM100 632H924V540H100V632zM329 886V774H236V886H329zM788 886V774H695V886H788zM807 189H720V102H807V189z" />
    <glyph glyph-name="calendar-check"
      unicode="&#xE02A;"
      horiz-adv-x="1024" d="M148 697V26H876V697H148zM56 718C56 757 88 789 128 789H896C936 789 968 757 968 718V5C968 -34 936 -66 896 -66H128C88 -66 56 -34 56 5V718zM329 896V748H237V896H329zM781 896V748H689V896H781zM470 310L669 510L735 445L470 180L289 360L355 426L470 310z" />
    <glyph glyph-name="camera"
      unicode="&#xE02C;"
      horiz-adv-x="1024" d="M512 580A216 216 0 0 1 296 364A216 216 0 0 1 512 148A216 216 0 0 1 728 364A216 216 0 0 1 512 580zM388 364A124 124 0 0 0 512 488A124 124 0 0 0 636 364A124 124 0 0 0 512 240A124 124 0 0 0 388 364zM389 853C365 853 342 841 329 822L287 762H159A113 113 0 0 1 46 649V79A113 113 0 0 1 159 -34H865A113 113 0 0 1 978 79V650A113 113 0 0 1 865 763L737 762L692 823A73 73 0 0 1 633 853H389zM335 670L399 761H623L690 670L865 670A20 20 0 0 0 886 650V79A20 20 0 0 0 865 59H159A20 20 0 0 0 138 79V649C138 660 147 670 159 670H335z" />
    <glyph glyph-name="camera-rotate"
      unicode="&#xE26F;"
      horiz-adv-x="1024" d="M667 545A233 233 0 0 1 279 379H264A18 18 0 0 1 249 350L306 275A18 18 0 0 1 334 275L391 350A18 18 0 0 1 376 379H359L361 381A151 151 0 0 0 609 487L667 545zM663 362L665 364H648A18 18 0 0 0 633 392L690 467A18 18 0 0 0 718 467L775 392A18 18 0 0 0 760 364H745A233 233 0 0 0 357 197L415 255A151 151 0 0 1 663 362zM389 853C365 853 342 841 329 822L287 762H159A113 113 0 0 1 46 649V79A113 113 0 0 1 159 -34H865A113 113 0 0 1 978 79V650A113 113 0 0 1 865 763L737 762L692 823A73 73 0 0 1 633 853H389zM335 670L399 761H623L690 670L865 670A20 20 0 0 0 886 650V79A20 20 0 0 0 865 59H159A20 20 0 0 0 138 79V649C138 660 147 670 159 670H335z" />
    <glyph glyph-name="caret-down"
      unicode="&#xE02D;"
      horiz-adv-x="1024" d="M799 474L512 187L225 474H799z" />
    <glyph glyph-name="caret-left"
      unicode="&#xE02E;"
      horiz-adv-x="1024" d="M602 97V671L315 384L602 97z" />
    <glyph glyph-name="caret-right"
      unicode="&#xE02F;"
      horiz-adv-x="1024" d="M709 384L422 671V97L709 384z" />
    <glyph glyph-name="caret-up"
      unicode="&#xE030;"
      horiz-adv-x="1024" d="M799 294L512 581L225 294H799z" />
    <glyph glyph-name="cart"
      unicode="&#xE171;"
      horiz-adv-x="1024" d="M333 -92C282 -92 241 -51 241 0S282 92 333 92C379 92 420 51 420 0S384 -92 333 -92zM794 -92C742 -92 707 -51 701 0C701 51 742 92 794 92S886 51 886 0S845 -92 794 -92zM215 189L133 640C133 676 159 701 200 701H952C968 701 988 701 1004 681C1019 660 1014 640 1014 630L932 189C922 138 881 138 860 138H287C261 138 220 138 215 189zM845 230L916 609H230L302 230H845zM179 389L102 768H5V860H143C164 860 184 845 189 824L271 404L179 389z" />
    <glyph glyph-name="cat-face"
      unicode="&#xE031;"
      horiz-adv-x="1024" d="M67 849A46 46 0 0 0 113 849L334 721H691L912 849A46 46 0 0 0 981 809V382C981 123 771 -87 512 -87C254 -87 44 123 44 382V809A46 46 0 0 0 67 849zM136 729V382C136 174 304 5 512 5C721 5 889 174 889 382V729L726 635A46 46 0 0 0 703 629H322A46 46 0 0 0 299 635L136 729zM559 328V218H466V328H559zM395 203L489 258L536 178L441 124L395 203zM584 124L489 178L536 258L630 203L584 124zM362 485C328 485 300 457 300 423C300 388 328 360 362 360S424 388 424 423C424 457 397 485 362 485zM663 485C628 485 600 457 600 423C600 388 628 360 663 360C697 360 725 388 725 423C725 457 697 485 663 485z" />
    <glyph glyph-name="cc-square"
      unicode="&#xE212;"
      horiz-adv-x="1024" d="M154 742V26H870V742H154zM61 763C61 804 92 835 133 835H891C932 835 963 804 963 763V5C963 -36 932 -67 891 -67H133C92 -67 61 -36 61 5V763zM266 276C292 246 328 230 374 230C445 230 492 271 512 328V338C512 343 507 343 502 343L445 358H435C430 358 430 353 430 348C425 338 420 328 410 323C399 317 389 317 379 317C364 317 348 323 338 333C328 343 323 358 323 379S328 415 338 425C348 435 364 440 379 440C399 440 415 430 420 415C420 410 425 410 430 410H440L497 425C502 425 507 430 507 435V451C497 476 481 497 461 512C440 527 410 532 379 532C338 532 302 517 271 492C246 466 230 425 230 384C225 338 241 302 266 276zM660 230C732 230 778 271 799 328V338C799 343 794 343 788 343L732 358H722C717 358 717 353 717 348C712 338 707 328 696 323C686 317 676 317 666 317C650 317 635 323 625 333C614 343 609 358 609 379S614 415 625 425C635 435 650 440 666 440C686 440 701 430 707 415C707 410 712 410 717 410H727L783 425C788 425 794 430 794 435V451C783 476 768 497 748 512C727 527 696 532 666 532C625 532 589 517 558 492C532 466 512 430 512 384C512 338 527 302 553 276C579 246 620 230 660 230z" />
    <glyph glyph-name="chain-circle"
      unicode="&#xE182;"
      horiz-adv-x="1024" d="M425 543C357 475 357 365 425 297C436 286 447 278 460 270L507 317A43 43 0 0 1 519 344A82 82 0 0 0 490 362C458 394 458 446 490 478L563 551C595 583 647 583 679 551C711 519 711 467 679 435L672 429A213 213 0 0 0 685 311L744 370C812 438 812 548 744 616C676 684 565 684 498 616L425 543zM505 424A82 82 0 0 0 534 406C566 374 566 322 534 290L461 217C429 185 377 185 345 217C313 249 313 301 345 333L352 339A213 213 0 0 0 339 457L280 398C212 331 212 220 280 152C348 84 458 84 526 152L599 225C667 293 667 403 599 471A175 175 0 0 1 564 498L517 451A43 43 0 0 1 505 424zM512 778C294 778 118 602 118 384S294 -10 512 -10S906 166 906 384S730 778 512 778zM26 384C26 653 243 870 512 870S998 653 998 384S781 -102 512 -102S26 115 26 384z" />
    <glyph glyph-name="chart-area"
      unicode="&#xE032;"
      horiz-adv-x="1024" d="M975 1H36V651H128V93H975V1zM980 531V135H178V420L347 588L464 480L738 773L980 531zM887 493L740 640L469 350L349 461L270 382V227H887V493z" />
    <glyph glyph-name="chart-bar"
      unicode="&#xE033;"
      horiz-adv-x="1024" d="M275 142V356H367V142H275zM973 -15H38V541H131V77H973V-15zM515 142V586H607V142H515zM755 142V770H847V142H755z" />
    <glyph glyph-name="chart-line"
      unicode="&#xE034;"
      horiz-adv-x="1024" d="M975 22H36V672H128V114H975V22zM221 264A46 46 0 0 1 286 264L488 466L621 333L896 608A46 46 0 0 1 831 673L621 464L488 597L220 329A46 46 0 0 1 221 264zM970 515V746H739L970 515z" />
    <glyph glyph-name="chart-pie"
      unicode="&#xE035;"
      horiz-adv-x="1024" d="M498 809V371H937L932 321C911 93 720 -89 486 -89C239 -89 38 112 38 359C38 596 229 793 449 806L498 809zM406 707C256 674 130 529 130 359C130 163 290 3 486 3C654 3 795 122 832 279H406V707zM536 859L584 856C792 842 966 661 985 455L989 406H536V859zM626 759V496H887C855 623 750 730 626 759z" />
    <glyph glyph-name="chart-scatter"
      unicode="&#xE036;"
      horiz-adv-x="1024" d="M975 45H36V695H128V137H975V45zM710 723C672 723 641 692 641 654C641 615 672 585 710 585S779 615 779 654C779 692 748 723 710 723zM361 693C323 693 292 662 292 624S323 555 361 555C399 555 430 586 430 624S399 693 361 693zM300 373C262 373 231 342 231 303C231 265 262 234 300 234S369 265 369 303C369 342 338 373 300 373zM495 410C495 448 526 479 564 479C602 479 633 448 633 410C633 372 602 341 564 341C526 341 495 372 495 410zM770 282C770 320 801 351 839 351S908 320 908 282S877 213 839 213S770 244 770 282z" />
    <glyph glyph-name="chat"
      unicode="&#xE043;"
      horiz-adv-x="1024" d="M247 661C185 599 148 507 148 387C148 254 223 134 283 59C317 101 371 141 449 141H449L566 141H566C737 141 875 280 875 451C875 546 841 622 781 675C721 727 631 760 517 760C399 760 308 723 247 661zM181 726C263 809 379 852 517 852C648 852 761 815 842 744C923 672 968 570 968 451C968 229 788 49 566 49H566L449 49H449C388 49 351 5 330 -38L300 -97L255 -49C192 19 56 185 56 387C56 526 99 643 181 726z" />
    <glyph glyph-name="chat-all"
      unicode="&#xE037;"
      horiz-adv-x="1024" d="M247 661C185 599 148 507 148 387C148 254 223 134 283 59C317 101 371 141 449 141H449L566 141H566C737 141 875 280 875 451C875 546 841 622 781 675C721 727 631 760 517 760C399 760 308 723 247 661zM181 726C263 809 379 852 517 852C648 852 761 815 842 744C923 672 968 570 968 451C968 229 788 49 566 49H566L449 49H449C388 49 351 5 330 -38L300 -97L255 -49C192 19 56 185 56 387C56 526 99 643 181 726zM716 489H307V581H716V489zM716 303H307V395H716V303z" />
    <glyph glyph-name="chat-all-square"
      unicode="&#xE1C8;"
      horiz-adv-x="1024" d="M723 296H313V388H723V296zM723 482H313V574H723V482zM165 735H858C861 735 864 732 864 730V137C864 135 861 132 858 132H378A46 46 0 0 1 339 112L296 68V86A46 46 0 0 1 249 132H165L164 132A5 5 0 0 0 160 137V730C160 732 162 735 165 735zM398 40H858C912 40 956 84 956 137V730C956 783 912 827 858 827H165C111 827 67 783 67 730V137C67 84 111 40 165 40A44 44 0 0 1 167 40H203V-43A46 46 0 0 1 282 -76L398 40z" />
    <glyph glyph-name="chat-check"
      unicode="&#xE038;"
      horiz-adv-x="1024" d="M447 390L629 572L694 507L447 260L279 429L344 494L447 390zM247 661C185 599 148 507 148 387C148 254 223 134 283 59C317 101 371 141 449 141H449L566 141H566C737 141 875 280 875 451C875 546 841 622 781 675C721 727 631 760 517 760C399 760 308 723 247 661zM181 726C263 809 379 852 517 852C648 852 761 815 842 744C923 672 968 570 968 451C968 229 788 49 566 49H566L449 49H449C388 49 351 5 330 -38L300 -97L255 -49C192 19 56 185 56 387C56 526 99 643 181 726z" />
    <glyph glyph-name="chat-check-square"
      unicode="&#xE1C5;"
      horiz-adv-x="1024" d="M478 394L659 574L724 509L478 263L310 432L375 497L478 394zM165 735H858C861 735 864 732 864 730V137C864 135 861 132 858 132H378A46 46 0 0 1 339 112L296 68V86A46 46 0 0 1 249 132H165L164 132A5 5 0 0 0 160 137V730C160 732 162 735 165 735zM398 40H858C912 40 956 84 956 137V730C956 783 912 827 858 827H165C111 827 67 783 67 730V137C67 84 111 40 165 40C165 40 166 40 167 40H203V-43A46 46 0 0 1 282 -76L398 40z" />
    <glyph glyph-name="chat-dot"
      unicode="&#xE039;"
      horiz-adv-x="1024" d="M898 844C860 844 830 813 830 775C830 737 860 707 898 707C936 707 967 737 967 775C967 813 936 844 898 844zM240 621C184 564 150 479 150 368C150 246 217 137 272 67C305 106 354 141 427 141H427L536 142H536C693 142 821 270 821 427C821 515 789 585 734 633C679 682 596 712 490 712C381 712 297 678 240 621zM175 685C252 763 361 804 490 804C613 804 719 769 795 702C871 635 913 539 913 427C913 219 744 50 536 50H536L427 49H427C372 49 338 10 318 -30L289 -88L244 -40C185 22 58 178 58 368C58 498 98 608 175 685z" />
    <glyph glyph-name="chat-edit"
      unicode="&#xE03A;"
      horiz-adv-x="1024" d="M247 661C185 599 148 507 148 387C148 254 223 134 283 59C317 101 371 141 449 141H449L566 141H566C737 141 875 280 875 451C875 546 841 622 781 675C721 727 631 760 517 760C399 760 308 723 247 661zM181 726C263 809 379 852 517 852C648 852 761 815 842 744C923 672 968 570 968 451C968 229 788 49 566 49H566L449 49H449C388 49 351 5 330 -38L300 -97L255 -49C192 19 56 185 56 387C56 526 99 643 181 726zM604 707L762 547L442 229H284V388L604 707zM371 352V317H406L639 548L604 584L371 352z" />
    <glyph glyph-name="chat-edit-square"
      unicode="&#xE1C1;"
      horiz-adv-x="1024" d="M165 735H858C861 735 864 732 864 730V137C864 135 861 132 858 132H378A46 46 0 0 1 339 112L296 68V86A46 46 0 0 1 249 132H165L164 132A5 5 0 0 0 160 137V730C160 732 162 735 165 735zM398 40H858C912 40 956 84 956 137V730C956 783 912 827 858 827H165C111 827 67 783 67 730V137C67 84 111 40 165 40C165 40 166 40 167 40H203V-43A46 46 0 0 1 282 -76L398 40zM615 690L774 531L446 202L288 204L286 362L615 690zM615 560L379 324L379 295L408 295L644 531L615 560z" />
    <glyph glyph-name="chat-ellipsis"
      unicode="&#xE03D;"
      horiz-adv-x="1024" d="M324 488C292 488 265 461 265 429C265 396 292 370 324 370C357 370 383 396 383 429C383 461 357 488 324 488zM505 488C473 488 447 461 447 429C447 396 473 370 505 370C538 370 564 396 564 429C564 461 538 488 505 488zM687 488C654 488 628 461 628 429C628 396 654 370 687 370C719 370 745 396 745 429C745 461 719 488 687 488zM244 663C183 601 146 509 146 389C146 256 221 136 281 61C315 103 368 143 447 143H447L564 143H564C735 143 873 282 873 453C873 548 838 624 779 677C719 729 629 762 515 762C397 762 306 725 244 663zM179 728C261 811 377 854 515 854C646 854 759 817 840 746C921 674 965 573 965 453C965 231 785 51 564 51H564L447 51H447C386 51 349 7 327 -36L298 -94L253 -47C190 21 54 187 54 389C54 528 97 645 179 728z" />
    <glyph glyph-name="chat-ellipsis-alt"
      unicode="&#xE03B;"
      horiz-adv-x="1024" d="M20 411C20 656 247 844 512 844C777 844 1004 656 1004 411C1004 166 777 -22 512 -22C445 -22 381 -10 322 12L182 -70A46 46 0 0 0 113 -22L140 128C66 203 20 302 20 411zM512 752C285 752 113 594 113 411C113 322 153 240 221 178A46 46 0 0 0 235 136L221 60L295 102A46 46 0 0 0 336 105C389 83 449 70 512 70C739 70 911 228 911 411C911 594 739 752 512 752zM318 472C285 472 257 445 257 411C257 377 285 350 318 350C352 350 379 377 379 411C379 445 352 472 318 472zM512 472C478 472 451 445 451 411C451 377 478 350 512 350C546 350 573 377 573 411C573 445 546 472 512 472zM706 472C672 472 645 445 645 411C645 377 672 350 706 350C739 350 767 377 767 411C767 445 739 472 706 472z" />
    <glyph glyph-name="chat-ellipsis-circle"
      unicode="&#xE1F4;"
      horiz-adv-x="1024" d="M166 730C256 821 376 870 504 870C631 870 752 821 842 730C992 580 1025 354 927 169L991 -37A46 46 0 0 0 934 -95L726 -32A479 479 0 0 0 503 -87C376 -87 256 -37 166 53C75 143 26 264 26 392C26 520 75 639 166 730L166 730zM231 665C158 592 118 495 118 392C118 288 158 191 231 118C304 45 400 5 503 5C572 5 639 24 698 58A46 46 0 0 0 735 62L877 18L833 161A46 46 0 0 0 837 198C926 349 902 540 777 665C704 738 607 778 504 778C401 778 304 738 231 665zM328 443C295 443 269 416 269 384C269 352 295 325 328 325C360 325 387 352 387 384C387 416 360 443 328 443zM512 443C480 443 453 416 453 384C453 352 480 325 512 325C544 325 571 352 571 384C571 416 545 443 512 443zM694 443C661 443 635 416 635 384C635 352 661 325 694 325C726 325 753 352 753 384C753 416 726 443 694 443z" />
    <glyph glyph-name="chat-ellipsis-mobile"
      unicode="&#xE1CC;"
      horiz-adv-x="1024" d="M696 148L650 56V26C650 10 635 -5 620 -5H236C220 -5 205 10 205 26V742C205 758 220 773 236 773H614C630 773 645 758 645 742V681C671 686 691 691 717 691H742V742C742 809 686 865 620 865H236C169 865 113 809 113 742V26C113 -41 169 -97 236 -97H614C681 -97 737 -41 737 26V148H696zM492 732H364V660H492V732zM799 435C783 435 773 425 773 410S783 384 799 384S824 394 824 410S814 435 799 435zM712 435C696 435 686 425 686 410S696 384 712 384S737 394 737 410S727 435 712 435zM630 379A26 26 0 1 1 630 430A26 26 0 0 1 630 379zM614 128L579 169C543 210 476 292 476 389C476 532 568 630 712 630C850 630 947 548 947 420C947 307 855 210 737 210H681C676 210 655 210 640 179L614 128zM717 553C614 553 558 492 558 389C558 338 584 292 609 256C630 276 655 287 686 287H742C814 287 876 348 876 420C870 502 814 553 717 553z" />
    <glyph glyph-name="chat-ellipsis-plus"
      unicode="&#xE03C;"
      horiz-adv-x="1024" d="M271 471C240 471 215 446 215 415C215 384 240 359 271 359C302 359 328 384 328 415C328 446 302 471 271 471zM445 471C414 471 389 446 389 415C389 384 414 359 445 359C476 359 502 384 502 415C502 446 476 471 445 471zM619 471C588 471 563 446 563 415C563 384 588 359 619 359C650 359 676 384 676 415C676 446 650 471 619 471zM197 638C138 579 104 491 104 377C104 252 172 139 230 67C263 107 314 144 389 144H389L548 144L549 52L389 51H389C332 51 297 11 275 -30L245 -88L201 -40C140 25 11 184 11 377C11 510 53 623 131 703C210 782 322 824 454 824C580 824 689 788 767 720C845 651 888 553 888 438V401H795V438C795 529 762 601 706 651C649 701 563 732 454 732C342 732 255 697 197 638zM1024 84H635V176H1024V84zM783 -64V325H876V-64H783z" />
    <glyph glyph-name="chat-ellipsis-square"
      unicode="&#xE1C7;"
      horiz-adv-x="1024" d="M330 484A51 51 0 0 1 294 397A51 51 0 0 1 382 433A51 51 0 0 1 330 484zM512 484A51 51 0 0 1 460 433A51 51 0 1 1 512 484zM642 433A51 51 0 1 0 744 433A51 51 0 0 0 642 433zM858 40H398L282 -76A46 46 0 0 0 232 -86A46 46 0 0 0 203 -43V40H165A97 97 0 0 0 67 137V730A97 97 0 0 0 165 827H858A97 97 0 0 0 956 730V137A97 97 0 0 0 858 40H858zM160 730V137A5 5 0 0 1 164 132H249A46 46 0 0 0 296 86V68L339 112A46 46 0 0 0 378 132H858A5 5 0 0 1 864 137V730A5 5 0 0 1 858 735H165A5 5 0 0 1 160 730z" />
    <glyph glyph-name="chat-ellipsis-square-plus"
      unicode="&#xE1C3;"
      horiz-adv-x="1024" d="M903 331V730A97 97 0 0 1 805 827H112A97 97 0 0 1 14 730V137A97 97 0 0 1 114 40H150V-44A46 46 0 0 1 229 -76L345 40H611V132H325A46 46 0 0 1 286 112L242 68V86A46 46 0 0 1 196 132H111A5 5 0 0 0 106 137V730A5 5 0 0 0 112 735H805A5 5 0 0 0 810 732A5 5 0 0 0 810 730V331H903H903zM811 39V-84H903V39H1026V131H903V254H811V131H688V39H811zM281 484A51 51 0 0 1 245 397A51 51 0 0 1 332 433A51 51 0 0 1 281 484zM462 484A51 51 0 1 1 462 382A51 51 0 0 1 462 484zM592 433A51 51 0 1 0 695 433A51 51 0 0 0 592 433z" />
    <glyph glyph-name="chat-ellipsis-times"
      unicode="&#xE224;"
      horiz-adv-x="1024" d="M105 378C105 251 177 136 232 68V67C273 117 328 144 390 144H548V51H390C343 51 306 24 278 -30L248 -89L203 -40C132 35 13 190 13 378C13 649 198 824 456 824C715 824 889 669 889 438C889 434 889 430 888 426A171 171 0 0 1 888 415H796C796 423 796 432 796 438C796 620 675 732 456 732C236 732 105 600 105 378zM215 415C215 383 240 358 271 358C303 358 328 383 328 415C328 446 303 471 271 471C240 471 215 446 215 415zM985 190L920 255L836 171L752 255L686 190L771 106L686 22L752 -44L836 41L920 -44L985 22L901 106L985 190zM445 358C414 358 389 383 389 415C389 446 414 471 445 471C477 471 502 446 502 415C502 383 477 358 445 358zM620 471C588 471 563 446 563 415C563 383 588 358 620 358C651 358 676 383 676 415C676 446 651 471 620 471z" />
    <glyph glyph-name="chat-hi"
      unicode="&#xE03E;"
      horiz-adv-x="1024" d="M247 661C185 599 149 507 149 387C149 254 223 134 283 59C318 101 371 141 449 141H449L566 141H566C737 141 876 280 876 451C876 546 841 622 781 675C721 727 632 760 517 760C399 760 308 723 247 661zM181 726C263 809 380 852 517 852C649 852 761 815 842 744C923 672 968 570 968 451C968 229 788 49 566 49H566L449 49H449C388 49 351 5 330 -38L300 -97L255 -49C192 19 56 185 56 387C56 526 99 643 181 726zM269 291V563H346V291H269zM454 389H307V466H454V389zM416 291V563H492V291H416zM537 291V476H614V291H537zM576 570A40 40 0 0 1 536 530A40 40 0 1 1 616 530A40 40 0 0 1 576 570zM704 367A41 41 0 1 1 704 285A41 41 0 0 1 704 367zM666 381V563H743V381H666z" />
    <glyph glyph-name="chat-lines"
      unicode="&#xE03F;"
      horiz-adv-x="1024" d="M247 661C185 599 148 507 148 387C148 254 223 134 283 59C317 101 371 141 449 141H449L566 141H566C737 141 875 280 875 451C875 546 841 622 781 675C721 727 631 760 517 760C399 760 308 723 247 661zM181 726C263 809 379 852 517 852C648 852 761 815 842 744C923 672 968 570 968 451C968 229 788 49 566 49H566L449 49H449C388 49 351 5 330 -38L300 -97L255 -49C192 19 56 185 56 387C56 526 99 643 181 726zM716 491H307V578H716V491zM512 306H307V393H512V306z" />
    <glyph glyph-name="chat-phone"
      unicode="&#xE170;"
      horiz-adv-x="1024" d="M440 496L440 497L475 531C481 536 484 544 485 551C485 557 484 565 479 571L432 626L432 626C414 646 381 646 362 626L331 596C324 589 319 578 317 563C315 549 316 531 321 510C330 468 358 415 417 355L417 355C477 297 529 268 570 257C611 246 643 252 661 265A8 8 0 0 1 662 266L696 300L696 301C705 312 708 325 707 337C705 349 700 360 693 367L636 414C634 416 631 418 628 418A32 32 0 0 1 619 419C613 419 605 417 600 412L562 374A41 41 0 0 0 560 375C556 376 550 379 543 384C528 393 509 407 489 428C466 452 454 470 447 483C443 489 441 493 440 496zM247 661C185 599 148 507 148 387C148 254 223 134 283 59C317 101 371 141 449 141H449L566 141H566C737 141 875 280 875 451C875 546 841 622 781 675C721 727 631 760 517 760C399 760 308 723 247 661zM181 726C263 809 379 852 517 852C648 852 761 815 842 744C923 672 968 570 968 451C968 229 788 49 566 49H566L449 49H449C388 49 351 5 330 -38L300 -97L255 -49C192 19 56 185 56 387C56 526 99 643 181 726z" />
    <glyph glyph-name="chat-play"
      unicode="&#xE040;"
      horiz-adv-x="1024" d="M404 573A44 44 0 0 0 448 572L631 465A44 44 0 0 0 631 390L447 284A44 44 0 0 0 382 321V535A44 44 0 0 0 404 573zM469 459V397L523 428L469 459zM247 661C185 599 148 507 148 387C148 254 223 134 283 59C317 101 371 141 449 141H449L566 141H566C737 141 875 280 875 451C875 546 841 622 781 675C721 727 631 760 517 760C399 760 308 723 247 661zM181 726C263 809 379 852 517 852C648 852 761 815 842 744C923 672 968 570 968 451C968 229 788 49 566 49H566L449 49H449C388 49 351 5 330 -38L300 -97L255 -49C192 19 56 185 56 387C56 526 99 643 181 726z" />
    <glyph glyph-name="chat-play-square"
      unicode="&#xE1C2;"
      horiz-adv-x="1024" d="M448 586L655 466C666 460 673 449 673 435S666 411 655 404L448 285A37 37 0 0 0 430 280C410 280 394 296 394 316V554A36 36 0 0 0 448 586zM481 404L535 435L481 466V404zM854 40H393V40L277 -76A46 46 0 0 0 253 -88A46 46 0 0 0 206 -69A46 46 0 0 0 198 -44V40H160A97 97 0 0 0 62 137V730C62 783 106 827 160 827H854C907 827 951 783 951 730V137A97 97 0 0 0 854 40zM854 735H159C157 735 154 732 154 730V137C154 135 156 132 159 132H244C270 132 290 112 290 86V68L334 112C343 124 357 132 373 132H854C856 132 859 135 859 137V730C859 732 856 735 854 735z" />
    <glyph glyph-name="chat-plus"
      unicode="&#xE041;"
      horiz-adv-x="1024" d="M247 661C185 599 148 507 148 387C148 254 223 134 283 59C317 101 371 141 449 141H449L566 141H566C737 141 875 280 875 451C875 546 841 622 781 675C721 727 631 760 517 760C399 760 308 723 247 661zM181 726C263 809 379 852 517 852C648 852 761 815 842 744C923 672 968 570 968 451C968 229 788 49 566 49H566L449 49H449C388 49 351 5 330 -38L300 -97L255 -49C192 19 56 185 56 387C56 526 99 643 181 726zM686 390H338V482H686V390zM466 262V610H558V262H466z" />
    <glyph glyph-name="chat-plus-square"
      unicode="&#xE1CD;"
      horiz-adv-x="1024" d="M160 735H853C856 735 858 732 858 730V137C858 135 856 132 853 132H373A46 46 0 0 1 334 112L290 68V86A46 46 0 0 1 244 132H160L159 132A5 5 0 0 0 154 137V730C154 732 157 735 160 735zM393 40H853C907 40 951 84 951 137V730C951 783 907 827 853 827H160C106 827 62 783 62 730V137C62 84 106 40 160 40C160 40 161 40 162 40H198V-43A46 46 0 0 1 277 -76L393 40zM677 387H336V479H677V387zM460 263V604H552V263H460z" />
    <glyph glyph-name="chat-square"
      unicode="&#xE1C9;"
      horiz-adv-x="1024" d="M160 735H853C856 735 858 732 858 730V137C858 135 856 132 853 132H373A46 46 0 0 1 334 112L290 68V86A46 46 0 0 1 244 132H160L159 132A5 5 0 0 0 154 137V730C154 732 157 735 160 735zM393 40H853C907 40 951 84 951 137V730C951 783 907 827 853 827H160C106 827 62 783 62 730V137C62 84 106 40 160 40C160 40 161 40 162 40H198V-43A46 46 0 0 1 277 -76L393 40z" />
    <glyph glyph-name="chat-square-dot"
      unicode="&#xE1C6;"
      horiz-adv-x="1024" d="M954 778A56 56 0 1 1 843 778A56 56 0 0 1 954 778zM766 778C766 763 769 748 774 735H160A5 5 0 0 1 154 729V137A5 5 0 0 1 159 132H244A46 46 0 0 0 277 119A46 46 0 0 0 290 86V68L334 112A46 46 0 0 0 373 132H853A5 5 0 0 1 858 137V652A132 132 0 0 1 951 656V137A97 97 0 0 0 853 40H393L277 -76A46 46 0 0 0 227 -86A46 46 0 0 0 198 -43V40H160A97 97 0 0 0 62 137V730A97 97 0 0 0 160 827H776A132 132 0 0 1 766 778H766z" />
    <glyph glyph-name="chat-window"
      unicode="&#xE042;"
      horiz-adv-x="1024" d="M243 665C180 601 143 508 143 387C143 249 222 126 283 51C317 94 370 136 449 136H449L566 136H566C739 136 881 277 881 451C881 548 845 625 784 678C723 732 632 765 517 765C398 765 305 728 243 665zM185 722C266 804 381 847 517 847C647 847 759 810 838 740C919 670 962 569 962 451C962 232 785 54 566 54H566L449 54H449C385 54 347 8 325 -36L299 -88L259 -45C196 22 61 187 61 387C61 525 104 641 185 722zM466 74V790H548V74H466zM901 381H102V463H901V381z" />
    <glyph glyph-name="chats"
      unicode="&#xE044;"
      horiz-adv-x="1024" d="M389 531C340 482 311 409 311 312C311 209 366 116 414 54C443 87 487 117 550 117H550L646 117H646C782 117 893 228 893 364C893 441 865 501 818 542C770 584 699 610 606 610C510 610 438 581 389 531zM323 596C393 666 491 703 606 703C716 703 811 671 879 611C948 551 985 465 985 364C985 177 833 25 647 25H646L550 25H550C504 25 476 -8 459 -42L429 -101L384 -53C332 3 218 142 218 312C218 428 254 526 323 596zM380 764H380C299 764 237 741 196 705C155 669 131 617 131 550C131 456 192 376 277 348L248 260C127 301 39 415 39 550C39 641 73 719 135 774C197 828 282 856 380 856C522 856 634 795 691 682L608 641C570 717 494 764 380 764z" />
    <glyph glyph-name="chats-alt"
      unicode="&#xE28D;"
      horiz-adv-x="1024" d="M410 840C284 840 182 796 111 721C41 646 5 545 5 435C5 249 111 94 217 28C258 3 299 36 303 72C305 103 319 121 334 133L335 134C379 2 473 -71 511 -96C552 -123 594 -89 597 -53C599 -29 606 -15 613 -7C619 0 627 4 640 4H699A319 319 0 0 1 1019 325C1019 407 993 479 943 534C900 582 842 615 774 632A327 327 0 0 1 691 743C620 806 521 840 410 840zM97 435C97 525 126 602 178 657C230 712 307 748 410 748C503 748 578 719 630 674C681 629 712 565 712 486C712 407 683 347 640 307C597 266 537 243 471 243H394C358 243 315 233 280 207A163 163 0 0 1 225 138C158 199 97 307 97 435zM802 525A219 219 0 0 0 874 473C907 436 927 387 927 325A227 227 0 0 0 699 97H640C601 97 568 82 543 54A144 144 0 0 1 519 14A356 356 0 0 0 427 151H471C558 151 642 181 704 240C766 298 804 383 804 486C804 499 803 512 802 525z" />
    <glyph glyph-name="chats-ellipsis-circle"
      unicode="&#xE24F;"
      horiz-adv-x="1024" d="M425 394C453 394 476 417 476 445C476 474 453 497 425 497S374 474 374 445C374 417 397 394 425 394zM635 445C635 417 612 394 584 394C555 394 532 417 532 445C532 474 555 497 584 497C612 497 635 474 635 445zM742 394C771 394 794 417 794 445C794 474 771 497 742 497C714 497 691 474 691 445C691 417 714 394 742 394zM1017 65L961 244C1047 407 1016 609 884 740C804 821 697 865 584 865S364 821 283 740C203 659 159 553 159 440S203 219 283 138C363 58 470 14 583 14C652 14 719 31 779 62L959 7C964 6 968 5 972 5C985 5 996 10 1005 18C1017 31 1021 48 1016 65L1017 65zM867 235L903 121L788 156C776 160 763 158 752 152C701 122 643 106 584 106C495 106 411 141 349 204C286 267 251 351 251 440C251 529 286 612 349 675C412 738 495 773 584 773C673 773 757 738 820 675C927 568 948 402 872 272C865 261 864 247 868 235H867zM200 18C231 0 267 -10 303 -10C323 -10 343 -7 361 -1C399 -20 439 -34 480 -43C429 -81 368 -102 303 -102C258 -102 212 -91 172 -71L59 -105C43 -111 25 -106 13 -94C2 -82 -3 -64 2 -48L37 64C-2 142 -4 232 29 310C44 344 65 375 91 402C95 360 103 318 117 280C116 279 116 279 116 278C115 277 115 275 114 274C90 216 93 149 126 92C133 81 135 68 131 55L116 8L163 23C176 26 189 25 200 18z" />
    <glyph glyph-name="chats-square"
      unicode="&#xE1C4;"
      horiz-adv-x="1024" d="M815 591V738C815 787 775 827 726 827H151A89 89 0 0 1 62 738V247C62 198 102 159 151 159H175V97A46 46 0 0 1 254 65L309 120V81A81 81 0 0 1 390 0H702L778 -76A46 46 0 0 1 828 -86A46 46 0 0 1 857 -44V0H869A81 81 0 0 1 951 81V510A81 81 0 0 1 869 591H815zM154 251V735H722V251H328A46 46 0 0 1 290 231L267 208A46 46 0 0 1 221 251H154zM401 159H726C775 159 815 198 815 247V499H858V92H810A46 46 0 0 1 768 64L759 73A46 46 0 0 1 722 92H401V159z" />
    <glyph glyph-name="check"
      unicode="&#xE047;"
      horiz-adv-x="1024" d="M410 168L940 698L1005 633L410 37L19 428L84 493L410 168z" />
    <glyph glyph-name="check-circle"
      unicode="&#xE15F;"
      horiz-adv-x="1024" d="M512 779C294 779 117 602 117 384S294 -11 512 -11S907 166 907 384C907 602 730 779 512 779zM25 384C25 653 243 871 512 871S999 653 999 384C999 115 781 -103 512 -103C243 -103 25 115 25 384zM469 332L671 533L736 468L469 202L288 383L353 448L469 332z" />
    <glyph glyph-name="check-list"
      unicode="&#xE21A;"
      horiz-adv-x="1024" d="M323 735L159 577L44 685L107 752L158 704L259 802L323 735zM947 635H435V727H947V635zM323 429L159 270L44 379L107 446L158 397L259 495L323 429zM947 333H435V425H947V333zM323 120L159 -39L44 70L107 137L158 89L259 186L323 120zM947 30H435V123H947V30z" />
    <glyph glyph-name="check-square"
      unicode="&#xE046;"
      horiz-adv-x="1024" d="M455 295L725 565L790 499L455 164L233 386L298 451L455 295zM154 742V26H870V742H154zM61 763C61 802 94 835 133 835H891C930 835 963 802 963 763V5C963 -34 930 -67 891 -67H133C94 -67 61 -34 61 5V763z" />
    <glyph glyph-name="check-square-rounded"
      unicode="&#xE045;"
      horiz-adv-x="1024" d="M469 202L288 383L353 448L470 332L671 533L736 468L470 202zM512 -82C426 -82 340 -77 258 -67C155 -54 74 27 61 130C51 213 46 298 46 384C46 470 51 555 61 638C74 741 155 822 258 835C422 855 602 855 766 835C869 822 950 741 963 638C973 555 978 470 978 384C978 298 973 213 963 130A226 226 0 0 0 766 -67C684 -77 598 -82 512 -82zM512 758C429 758 348 753 269 743C208 736 160 688 153 627C143 548 138 466 138 384C138 302 143 220 153 141C160 80 208 32 269 25C427 5 597 5 755 25A134 134 0 0 1 871 141C881 220 886 302 886 384C886 466 881 548 871 627A134 134 0 0 1 755 743C676 753 595 758 512 758z" />
    <glyph glyph-name="chevron-circle-down"
      unicode="&#xE165;"
      horiz-adv-x="1024" d="M512 778C294 778 118 602 118 384S294 -10 512 -10S906 166 906 384S730 778 512 778zM26 384C26 653 243 870 512 870S998 653 998 384S781 -102 512 -102S26 115 26 384zM512 375L395 491L330 425L512 245L694 425L629 491L512 375z" />
    <glyph glyph-name="chevron-circle-left"
      unicode="&#xE162;"
      horiz-adv-x="1024" d="M512 778C294 778 118 602 118 384S294 -10 512 -10S906 166 906 384S730 778 512 778zM26 384C26 653 243 870 512 870S998 653 998 384S781 -102 512 -102S26 115 26 384zM503 384L619 501L553 566L373 384L553 202L619 267L503 384z" />
    <glyph glyph-name="chevron-circle-right"
      unicode="&#xE163;"
      horiz-adv-x="1024" d="M26 384C26 653 243 870 512 870S998 653 998 384S781 -102 512 -102S26 115 26 384zM512 778C294 778 118 602 118 384S294 -10 512 -10S906 166 906 384S730 778 512 778zM471 566L651 384L471 202L405 267L521 384L405 501L471 566z" />
    <glyph glyph-name="chevron-circle-top"
      unicode="&#xE164;"
      horiz-adv-x="1024" d="M512 -10C294 -10 118 166 118 384S294 778 512 778S906 602 906 384S730 -10 512 -10zM26 384C26 115 243 -102 512 -102S998 115 998 384S781 870 512 870S26 653 26 384zM512 393L395 277L330 343L512 523L694 343L629 277L512 393z" />
    <glyph glyph-name="chevron-double-down"
      unicode="&#xE048;"
      horiz-adv-x="1024" d="M719 662L512 456L305 662L240 596L512 326L784 596L719 662zM719 400L512 194L305 400L240 334L512 64L784 334L719 400z" />
    <glyph glyph-name="chevron-double-left"
      unicode="&#xE160;"
      horiz-adv-x="1024" d="M322 384L528 591L462 656L192 384L462 112L528 177L322 384zM584 384L790 591L724 656L454 384L724 112L790 177L584 384z" />
    <glyph glyph-name="chevron-double-right"
      unicode="&#xE161;"
      horiz-adv-x="1024" d="M562 656L832 384L562 112L496 177L702 384L496 591L562 656H562zM300 656L570 384L300 112L234 177L440 384L234 591L300 656z" />
    <glyph glyph-name="chevron-double-up"
      unicode="&#xE049;"
      horiz-adv-x="1024" d="M512 574L719 368L784 434L512 704L240 434L305 368L512 574zM512 312L719 106L784 172L512 442L240 172L305 106L512 312z" />
    <glyph glyph-name="chevron-down"
      unicode="&#xE04A;"
      horiz-adv-x="1024" d="M512 253L152 613L87 548L512 123L937 548L872 613L512 253z" />
    <glyph glyph-name="chevron-left"
      unicode="&#xE04B;"
      horiz-adv-x="1024" d="M372 384L749 761L684 826L242 384L684 -58L749 7L372 384z" />
    <glyph glyph-name="chevron-right"
      unicode="&#xE04C;"
      horiz-adv-x="1024" d="M652 384L275 7L340 -58L782 384L340 826L275 761L652 384z" />
    <glyph glyph-name="chevron-square-down"
      unicode="&#xE169;"
      horiz-adv-x="1024" d="M154 742V26H870V742H154zM61 763C61 802 94 835 133 835H891C930 835 963 802 963 763V5C963 -34 930 -67 891 -67H133C94 -67 61 -34 61 5V763zM512 374L392 492L328 426L512 244L696 426L631 492L512 374z" />
    <glyph glyph-name="chevron-square-left"
      unicode="&#xE166;"
      horiz-adv-x="1024" d="M154 742V26H870V742H154zM61 763C61 802 94 835 133 835H891C930 835 963 802 963 763V5C963 -34 930 -67 891 -67H133C94 -67 61 -34 61 5V763zM502 384L620 504L554 568L372 384L554 200L620 265L502 384z" />
    <glyph glyph-name="chevron-square-right"
      unicode="&#xE167;"
      horiz-adv-x="1024" d="M154 742V26H870V742H154zM61 763C61 802 94 835 133 835H891C930 835 963 802 963 763V5C963 -34 930 -67 891 -67H133C94 -67 61 -34 61 5V763zM522 384L404 503L470 568L652 384L470 200L404 264L522 384z" />
    <glyph glyph-name="chevron-square-top"
      unicode="&#xE168;"
      horiz-adv-x="1024" d="M154 742V26H870V742H154zM61 763C61 802 94 835 133 835H891C930 835 963 802 963 763V5C963 -34 930 -67 891 -67H133C94 -67 61 -34 61 5V763zM512 524L696 342L632 276L512 394L393 276L328 342L512 524z" />
    <glyph glyph-name="chevron-to-left"
      unicode="&#xE16C;"
      horiz-adv-x="1024" d="M370 383L795 808L860 743L500 383L860 23L795 -42L370 383zM154 -51V819H246V-51H154z" />
    <glyph glyph-name="chevron-to-right"
      unicode="&#xE16D;"
      horiz-adv-x="1024" d="M633 383L208 808L143 743L503 383L143 23L208 -42L633 383zM850 -51V819H758V-51H850z" />
    <glyph glyph-name="chevron-up"
      unicode="&#xE04D;"
      horiz-adv-x="1024" d="M512 645L937 220L872 155L512 515L152 155L87 220L512 645z" />
    <glyph glyph-name="circle"
      unicode="&#xE04E;"
      horiz-adv-x="1024" d="M512 778C294 778 118 602 118 384S294 -10 512 -10S906 166 906 384S730 778 512 778zM26 384C26 653 243 870 512 870S998 653 998 384S781 -102 512 -102S26 115 26 384z" />
    <glyph glyph-name="circle-1x"
      unicode="&#xE26E;"
      horiz-adv-x="1024" d="M512 760C304 760 136 592 136 384C136 176 304 8 512 8C720 8 888 176 888 384C888 592 720 760 512 760zM44 384C44 643 253 852 512 852C771 852 980 643 980 384C980 125 771 -84 512 -84C253 -84 44 125 44 384zM391 553C395 557 400 558 404 558H438C441 558 444 556 447 554C450 551 451 548 451 544V236C451 233 450 229 447 226C444 224 441 223 438 223H390C387 223 383 224 381 226C378 229 377 233 377 236V460L329 441C326 440 323 440 319 441C316 442 313 445 312 448L303 464C302 467 302 470 302 473C303 476 305 479 307 481L391 553zM492 457C494 462 499 464 503 464H555C561 464 565 461 568 457L568 457L607 399L647 457C650 461 654 464 660 464H708C712 464 717 462 719 457C722 453 720 448 718 445L718 444L649 346L722 242C724 238 726 234 724 229C721 224 716 223 712 223H661C655 223 651 225 648 229L647 230L604 294L560 229C557 225 553 223 547 223H499C495 223 490 224 488 229C485 234 487 238 489 242L489 242L562 346L493 445C491 448 489 453 492 457z" />
    <glyph glyph-name="circle-2x"
      unicode="&#xE26D;"
      horiz-adv-x="1024" d="M512 760C304 760 136 592 136 384C136 176 304 8 512 8C720 8 888 176 888 384C888 592 720 760 512 760zM44 384C44 643 253 852 512 852C771 852 980 643 980 384C980 125 771 -84 512 -84C253 -84 44 125 44 384zM397 293H496L497 294C504 294 510 288 510 281V237C510 229 504 223 497 223H287C279 223 273 229 273 237V251C273 255 274 259 277 263L356 352C410 413 423 434 423 459C423 479 409 491 385 491C363 491 347 478 338 454C335 447 329 444 322 445L277 458C272 459 270 462 269 464C268 466 267 469 268 475C286 530 330 564 388 564C455 564 500 524 500 465C500 416 480 381 410 307L397 293zM690 346L763 242H762C765 238 765 233 763 229C761 225 757 223 752 223H700C695 223 691 225 688 229L644 293L601 229C597 225 592 223 587 223H539C534 223 530 225 528 229C526 232 526 238 529 242L602 346L534 444C530 449 530 453 532 457C534 461 538 463 543 463H595C599 463 604 462 608 457L647 399L687 457C690 461 695 463 700 463H748C753 463 757 461 759 457C761 454 761 449 758 444L690 346z" />
    <glyph glyph-name="circle-dot-5x"
      unicode="&#xE26C;"
      horiz-adv-x="1024" d="M512 760C304 760 136 592 136 384C136 176 304 8 512 8C720 8 888 176 888 384C888 592 720 760 512 760zM44 384C44 643 253 852 512 852C771 852 980 643 980 384C980 125 771 -84 512 -84C253 -84 44 125 44 384zM469 440C450 440 431 436 416 427L420 478H542C549 478 555 484 555 491V532C555 540 549 545 542 545H377C370 545 365 541 364 533L350 380C349 374 352 369 358 366L382 355C387 352 392 353 397 356C417 371 433 377 453 377C482 377 499 361 499 334S482 293 454 293C430 293 413 305 404 328C402 335 396 338 389 336L349 326C345 325 342 323 340 320C338 317 338 313 339 310C356 257 399 224 457 224C524 224 571 269 571 334S530 441 470 441L469 440zM271 305C247 305 230 288 230 265S247 225 271 225S312 243 312 265S294 305 271 305zM735 346L804 248L803 247C806 243 806 238 804 234C802 230 799 228 794 228H745C742 228 737 229 733 234L692 295L651 235C647 230 643 228 638 228H592C588 228 584 231 582 234C580 239 580 243 583 247L651 346L587 438C584 442 584 447 586 451C588 455 592 457 596 457H645C649 457 654 456 658 451L695 396L732 450C736 456 741 457 744 457H790C795 457 799 454 801 451C803 446 802 442 800 438L735 346z" />
    <glyph glyph-name="circle-half-tone"
      unicode="&#xE23D;"
      horiz-adv-x="1024" d="M466 -44V812H558V-44H466zM512 765C301 765 131 595 131 384S301 3 512 3S893 173 893 384S723 765 512 765zM38 384C38 646 250 858 512 858S986 646 986 384C986 122 774 -90 512 -90S38 122 38 384z" />
    <glyph glyph-name="circles-4"
      unicode="&#xE04F;"
      horiz-adv-x="1024" d="M286 722C224 722 174 672 174 610C174 548 224 497 286 497C348 497 399 548 399 610C399 672 348 722 286 722zM82 610C82 723 173 814 286 814S491 723 491 610S399 405 286 405S82 497 82 610zM738 722C676 722 625 672 625 610C625 548 676 497 738 497C800 497 850 548 850 610C850 672 800 722 738 722zM533 610C533 723 625 814 738 814S942 723 942 610S851 405 738 405S533 497 533 610zM286 271C224 271 174 220 174 158C174 96 224 46 286 46C348 46 399 96 399 158C399 220 348 271 286 271zM82 158C82 271 173 363 286 363S491 271 491 158S399 -46 286 -46S82 45 82 158zM738 271C676 271 625 220 625 158C625 96 676 46 738 46C800 46 850 96 850 158C850 220 800 271 738 271zM533 158C533 271 625 363 738 363S942 271 942 158S851 -46 738 -46S533 45 533 158z" />
    <glyph glyph-name="circles-overlay-3"
      unicode="&#xE26B;"
      horiz-adv-x="1024" d="M333 389C245 389 174 318 174 230C174 143 245 72 333 72C393 72 445 105 472 154L552 109C510 32 427 -20 333 -20C194 -20 82 92 82 230C82 369 194 481 333 481C427 481 510 429 552 352L472 307C445 356 393 389 333 389zM691 389C604 389 532 318 532 230C532 143 604 72 691 72C779 72 850 143 850 230C850 318 779 389 691 389zM440 230C440 369 553 481 691 481C830 481 942 369 942 230C942 92 830 -20 691 -20C553 -20 440 92 440 230zM512 696C424 696 353 625 353 538C353 509 361 482 374 458L295 412A250 250 0 0 0 261 538C261 676 373 788 512 788C651 788 763 676 763 538C763 492 751 449 729 412L650 458A158 158 0 0 1 671 538C671 625 600 696 512 696z" />
    <glyph glyph-name="clipboard-list"
      unicode="&#xE050;"
      horiz-adv-x="1024" d="M349 560C376 560 397 538 397 511A49 49 0 1 0 349 560zM348 195A49 49 0 1 0 314 112A49 49 0 0 0 348 195zM348 375A49 49 0 1 0 314 292A49 49 0 0 0 348 375zM713 101H458V183H713V101zM713 470H458V552H713V470zM713 286H458V367H713V286zM191 717V1H833V717H664V809H854C893 809 925 777 925 737V-19C925 -59 893 -91 854 -91H170C131 -91 99 -59 99 -19V737C99 777 131 809 170 809H372V717H191zM320 823A46 46 0 0 0 366 869H658A46 46 0 0 0 704 823V692A46 46 0 0 0 675 650A46 46 0 0 0 658 646H366A46 46 0 0 0 320 692V823zM412 777V738H612V777H412z" />
    <glyph glyph-name="cloche"
      unicode="&#xE051;"
      horiz-adv-x="1024" d="M968 179A456 456 0 0 1 558 633V717H466V633A456 456 0 0 1 56 179V123H0V31H1024V123H968V179zM876 123H148V179A364 364 0 0 0 512 543C608 543 701 504 769 436A364 364 0 0 0 876 179V123z" />
    <glyph glyph-name="clock"
      unicode="&#xE052;"
      horiz-adv-x="1024" d="M512 778C294 778 118 602 118 384S294 -10 512 -10C730 -10 906 166 906 384S730 778 512 778zM26 384C26 653 243 870 512 870C781 870 998 653 998 384C998 115 781 -102 512 -102C243 -102 26 115 26 384zM558 411V644H466V357L653 249L699 329L558 411z" />
    <glyph glyph-name="close-arrows-horizontal"
      unicode="&#xE053;"
      horiz-adv-x="1024" d="M364 338H51V430H364V338zM269 569L445 384L269 199L202 262L318 384L202 506L269 569zM755 569L822 506L706 384L822 262L755 199L579 384L755 569zM973 338H660V430H973V338zM466 -26V794H558V-26H466z" />
    <glyph glyph-name="close-arrows-vertical"
      unicode="&#xE054;"
      horiz-adv-x="1024" d="M466 -77V236H558V-77H466zM466 532V845H558V532H466zM697 142L634 75L512 191L390 75L327 142L512 318L697 142zM697 627L512 451L327 627L390 694L512 578L634 694L697 627zM922 338H102V430H922V338z" />
    <glyph glyph-name="cloud"
      unicode="&#xE226;"
      horiz-adv-x="1024" d="M255 584C294 685 399 755 523 755C632 755 757 698 797 582C813 542 815 511 815 476C939 455 1027 352 1014 223L1014 223C1001 97 884 13 754 13H334C178 13 37 112 12 261L12 262C-13 421 106 556 255 584zM343 555C340 534 327 520 317 512C307 505 294 500 293 499L293 499L286 496L279 495C167 477 87 380 103 276C119 180 213 105 334 105H754C848 105 915 164 923 232C930 312 875 379 785 387L777 388L769 391C749 401 723 425 723 463C723 504 722 521 711 548L710 549L710 551C687 618 608 663 523 663C435 663 368 615 343 555z" />
    <glyph glyph-name="cloud-arrow-down"
      unicode="&#xE227;"
      horiz-adv-x="1024" d="M1014 223C998 100 891 18 768 13V105C855 110 916 166 922 233C927 315 876 381 783 387H773L768 392C748 402 722 422 722 463C722 504 722 520 712 545C691 612 609 658 527 658C440 658 374 612 348 550C343 530 333 515 323 509C312 504 302 499 297 494L292 489H287C174 474 92 376 113 269C123 197 184 136 266 110V18C143 44 41 131 20 259C-15 422 108 556 256 586C297 689 399 755 522 755C630 755 758 699 794 581C809 540 814 509 814 474C937 453 1029 351 1014 223zM466 44L369 141L307 74L512 -131L717 74L650 141L553 44V320H461V44H466z" />
    <glyph glyph-name="cloud-arrow-up"
      unicode="&#xE228;"
      horiz-adv-x="1024" d="M1014 223C998 95 881 13 753 13H717V105H753C850 105 916 166 922 233C927 315 876 381 783 387H773L768 392C748 402 722 422 722 463C722 504 722 520 712 545C691 612 609 658 527 658C440 658 374 612 348 550C343 530 333 515 323 509C312 504 302 499 297 494L292 489H287C174 474 92 376 113 269C128 182 210 110 317 100V13C174 23 46 120 20 259C-15 422 108 556 256 586C297 689 399 755 522 755C630 755 758 699 794 581C809 540 814 509 814 474C937 453 1029 351 1014 223zM466 218L369 120L307 187L512 392L717 187L650 120L558 218V-59H466V218z" />
    <glyph glyph-name="code"
      unicode="&#xE23C;"
      horiz-adv-x="1024" d="M473 38L646 730H551L378 38H473zM142 384L340 582L275 647L12 384L275 121L340 186L142 384zM882 384L684 582L749 647L1012 384L749 121L684 186L882 384z" />
    <glyph glyph-name="code-in-square"
      unicode="&#xE2AE;"
      horiz-adv-x="1024" d="M519 600L416 190L505 168L608 578L519 600zM396 498L321 552L199 384L321 216L396 270L313 384L396 498zM703 552L628 498L711 384L628 270L703 216L825 384L703 552zM205 840A148 148 0 0 1 56 691V77A148 148 0 0 1 205 -72H819A148 148 0 0 1 968 77V691A148 148 0 0 1 819 840H205zM148 691A56 56 0 0 0 205 748H819A56 56 0 0 0 876 691V77A56 56 0 0 0 819 20H205A56 56 0 0 0 148 77V691z" />
    <glyph glyph-name="code-reader"
      unicode="&#xE055;"
      horiz-adv-x="1024" d="M119 430H905V338H119V430zM119 801H303V709H211V618H119V801zM119 149H211V58H303V-34H119V149zM722 801H905V618H813V709H722V801zM813 58V149H905V-34H722V58H813z" />
    <glyph glyph-name="code-slash"
      unicode="&#xE276;"
      horiz-adv-x="1024" d="M493 497L195 795L129 730L467 392L378 38H473L543 316L886 -27L951 38L809 180L1012 384L749 647L684 582L882 384L744 246L569 421L646 730H551L493 497zM187 559L252 494L142 384L340 186L275 121L12 384L187 559z" />
    <glyph glyph-name="code-square"
      unicode="&#xE2AA;"
      horiz-adv-x="1024" d="M253 751L168 666L253 580L188 515L37 666L188 816L253 751zM421 666L336 751L401 816L552 666L401 515L336 580L421 666zM824 696H614V788H870A46 46 0 0 0 916 742V26A46 46 0 0 0 870 -20H154A46 46 0 0 0 108 26V435H200V72H824V696z" />
    <glyph glyph-name="coins"
      unicode="&#xE056;"
      horiz-adv-x="1024" d="M201 711C188 699 187 692 187 689S188 679 201 667C214 655 236 642 266 630C327 607 414 591 512 591C610 591 697 607 758 630C788 642 810 655 823 667C836 679 837 686 837 689C837 692 836 699 823 711C810 723 788 736 758 748C697 771 610 787 512 787C414 787 327 771 266 748C236 736 214 723 201 711zM233 834C307 862 405 879 512 879C619 879 717 862 791 834C828 820 861 801 885 779C910 756 929 726 929 689C929 652 910 621 885 599C861 576 828 558 791 544C717 516 619 499 512 499C405 499 307 516 233 544C196 558 163 576 139 599C114 621 95 652 95 689S114 756 139 779C163 801 196 820 233 834zM187 689V79C187 77 188 69 201 57C214 45 236 32 266 20C327 -3 414 -19 512 -19C610 -19 697 -3 758 20C788 32 810 45 823 57C836 69 837 77 837 79V689H929V79C929 42 910 12 885 -11C861 -33 828 -51 791 -66C717 -94 619 -111 512 -111C405 -111 307 -94 233 -66C196 -51 163 -33 139 -11C114 12 95 42 95 79V689H187zM139 400C114 423 95 453 95 491H187C187 488 188 480 201 468C214 456 236 443 266 431C327 407 414 392 512 392C610 392 697 407 758 431C788 443 809 456 823 468C836 480 837 488 837 491H929C929 453 910 423 885 400C861 378 828 360 791 345C717 316 619 300 512 300C405 300 307 316 233 345C196 360 163 378 139 400zM139 194C115 217 95 247 95 284H187C187 282 188 275 201 263C214 251 236 238 266 226C327 203 414 188 512 188C610 188 697 203 758 226C788 238 810 251 823 263C836 275 837 282 837 284H929C929 247 909 217 885 194C860 172 828 154 791 140C717 112 619 96 512 96C405 96 307 112 233 140C196 154 164 172 139 194z" />
    <glyph glyph-name="columns"
      unicode="&#xE1EF;"
      horiz-adv-x="1024" d="M314 26V742H406V26H314zM617 26V742H710V26H617zM123 696V72H901V696H123zM31 717C31 755 61 788 101 788H923C963 788 993 755 993 717V51C993 13 963 -20 923 -20H101C61 -20 31 13 31 51V717z" />
    <glyph glyph-name="command"
      unicode="&#xE2A9;"
      horiz-adv-x="1024" d="M108 640A148 148 0 1 0 404 640V584H620V640A148 148 0 1 0 768 492H712V276H768A148 148 0 1 0 620 128V184H404V128A148 148 0 1 0 256 276H312V492H256A148 148 0 0 0 108 640zM312 584V640A56 56 0 1 1 256 584H312zM404 276H620V492H404V276zM312 184H256A56 56 0 1 1 312 128V184zM712 184V128A56 56 0 1 1 768 184H712zM712 584H768A56 56 0 1 1 712 640V584z" />
    <glyph glyph-name="conical-flask"
      unicode="&#xE184;"
      horiz-adv-x="1024" d="M299 795A46 46 0 0 0 345 841H679A46 46 0 0 0 725 795A46 46 0 0 0 679 749H345A46 46 0 0 0 299 795zM732 311H293V403H732V311zM363 795A46 46 0 0 0 409 841H615A46 46 0 0 0 661 795V561L970 35C998 -13 964 -73 908 -73H116C60 -73 26 -13 54 35L363 561V795zM455 749V548A46 46 0 0 0 449 525L151 19H873L575 525A46 46 0 0 0 569 548V749H455z" />
    <glyph glyph-name="content"
      unicode="&#xE22D;"
      horiz-adv-x="1024" d="M528 471H299V563H528V471zM528 601H299V693H528V601zM199 773V-5H825V773H199zM106 794C106 834 140 865 178 865H845C886 865 917 832 917 794V-24C918 -65 884 -97 845 -97H178C138 -97 107 -64 107 -26V794z" />
    <glyph glyph-name="copy"
      unicode="&#xE057;"
      horiz-adv-x="1024" d="M49 842A46 46 0 0 0 95 888H760A46 46 0 0 0 806 842V666H714V796H141V142H256V50H95A46 46 0 0 0 49 96V842zM219 673A46 46 0 0 0 265 719H929A46 46 0 0 0 975 673V97L758 -120H265A46 46 0 0 0 219 -74V673zM311 627V-28H720L883 135V627H311zM621 477H389V559H621V477zM621 354H389V436H621V354zM673 182H963V90H765V-108H673V182z" />
    <glyph glyph-name="copy-content"
      unicode="&#xE22C;"
      horiz-adv-x="1024" d="M49 842A46 46 0 0 0 95 888H760A46 46 0 0 0 806 842V666H714V796H141V142H256V50H95A46 46 0 0 0 49 96V842zM219 673A46 46 0 0 0 265 719H929A46 46 0 0 0 975 673L975 -74A46 46 0 0 0 929 -120H265A46 46 0 0 0 219 -74V673zM311 627V-28H883L883 627H311zM621 477H389V559H621V477zM621 354H389V436H621V354z" />
    <glyph glyph-name="corners"
      unicode="&#xE058;"
      horiz-adv-x="1024" d="M340 845H128C86 845 51 810 51 768V556H143V753H340V845zM881 556V753H684V845H896C938 845 973 810 973 768V556H881zM684 15H881V212H973V0C973 -42 938 -77 896 -77H684V15zM143 212V15H340V-77H128C86 -77 51 -42 51 0V212H143z" />
    <glyph glyph-name="corners-inverse"
      unicode="&#xE211;"
      horiz-adv-x="1024" d="M620 819H712V584H947V492H620V819zM312 584V819H404V492H77V584H312zM620 -51H712V184H947V276H620V-51zM312 184H77V276H404V-51H312V184z" />
    <glyph glyph-name="coupon"
      unicode="&#xE05E;"
      horiz-adv-x="1024" d="M51 773C23 773 0 750 0 722V46C0 18 23 -5 51 -5H195L256 56L317 -5H973C1001 -5 1024 18 1024 46V722C1024 750 1001 773 973 773H317L256 712L195 773H51zM156 681L256 581L356 681H932V87H356L256 187L156 87H92V681H156zM210 490V556H302V490H210zM210 351V417H302V351H210zM210 212V278H302V212H210z" />
    <glyph glyph-name="coupon-alt"
      unicode="&#xE059;"
      horiz-adv-x="1024" d="M92 681H932V527C875 504 835 449 835 384C835 319 875 264 932 241V87H92V241C149 264 189 319 189 384S149 504 92 527V681zM1024 722C1024 750 1001 773 973 773H51C23 773 0 750 0 722V445H36C70 445 97 418 97 384S70 323 36 323H0V46C0 18 23 -5 51 -5H973C1001 -5 1024 18 1024 46V323H988C954 323 927 350 927 384S954 445 988 445H1024V722zM258 584V651H334V584H258zM258 468V534H334V468H258zM258 351V417H334V351H258zM258 234V301H334V234H258zM258 117V184H334V117H258z" />
    <glyph glyph-name="coupon-bth"
      unicode="&#xE05A;"
      horiz-adv-x="1024" d="M571 193V575H633V193H571zM485 543H628C681 543 724 500 724 447C724 427 718 409 708 393C728 375 740 350 740 321C740 268 697 225 644 225H485V543zM552 351V291H644A30 30 0 0 1 644 351H552zM552 417H628A30 30 0 0 1 628 477H552V417zM191 638V755H283V638H191zM191 430V547H283V430H191zM191 221V338H283V221H191zM191 13V130H283V13H191zM108 709V59H916V709H108zM15 729C15 769 47 801 87 801H937C977 801 1009 769 1009 729V39C1009 -1 977 -33 937 -33H87C47 -33 15 -1 15 39V729z" />
    <glyph glyph-name="coupon-pay"
      unicode="&#xE05B;"
      horiz-adv-x="1024" d="M97 690V78H927V690H97zM5 711C5 750 37 782 77 782H947C987 782 1019 750 1019 711V57C1019 18 987 -14 947 -14H77C37 -14 5 18 5 57V711zM193 621V736H285V621H193zM193 424V540H285V424H193zM193 228V344H285V228H193zM193 32V147H285V32H193zM453 501H386A12 12 0 0 1 374 489V308C374 302 380 296 386 296H417A12 12 0 0 1 429 308V357H453C494 357 526 389 526 429C526 469 494 501 453 501zM429 409V449H453C463 449 471 441 471 429C471 418 463 409 453 409H429zM595 449C556 449 524 415 524 371C524 327 556 293 595 293C610 293 622 296 632 303A9 9 0 0 1 640 296H675A9 9 0 0 1 683 305V437A9 9 0 0 1 675 445H640A9 9 0 0 1 632 439C622 445 610 449 595 449zM604 342C595 342 588 345 584 350C579 355 576 362 576 371C576 380 579 387 584 392C588 397 595 400 604 400C612 400 619 397 624 392C629 387 632 380 632 371C632 362 629 355 624 350C619 345 612 342 604 342zM774 241A11 11 0 0 1 784 248L858 434A9 9 0 0 1 850 445H815A11 11 0 0 1 805 439L777 370L749 439A11 11 0 0 1 739 445H704A9 9 0 0 1 696 434L750 301L731 253A9 9 0 0 1 739 241H774z" />
    <glyph glyph-name="coupon-percentage"
      unicode="&#xE05C;"
      horiz-adv-x="1024" d="M749 472L521 244L470 295L698 523L749 472zM517 489A13 13 0 1 1 517 463A13 13 0 0 1 517 489zM438 476C438 520 473 556 517 556C561 556 596 520 596 476C596 432 561 397 517 397C473 397 438 432 438 476zM702 304A13 13 0 1 1 702 279A13 13 0 0 1 702 304zM623 291C623 335 658 371 702 371C746 371 781 335 781 291C781 248 746 212 702 212C658 212 623 248 623 291zM191 638V755H283V638H191zM191 430V547H283V430H191zM191 221V338H283V221H191zM191 13V130H283V13H191zM108 709V59H916V709H108zM15 729C15 769 47 801 87 801H937C977 801 1009 769 1009 729V39C1009 -1 977 -33 937 -33H87C47 -33 15 -1 15 39V729z" />
    <glyph glyph-name="coupon-star"
      unicode="&#xE05D;"
      horiz-adv-x="1024" d="M524 354L503 235L609 291L697 245L716 235L695 354L766 423L781 438L663 455L610 563L557 455L458 441L438 438L524 354zM191 546H283V430H191V546zM191 338H283V222H191V338zM87 801H937C976 801 1009 769 1009 730V38C1009 -1 976 -33 937 -33H87C48 -33 15 -1 15 38V730C15 769 48 801 87 801zM283 59H916V709H283V638H191V709H108V59H191V130H283V59z" />
    <glyph glyph-name="credit-card"
      unicode="&#xE05F;"
      horiz-adv-x="1024" d="M102 696V72H922V695H102zM10 716C10 756 42 788 82 788H942C982 788 1014 756 1014 716V52C1014 12 982 -20 942 -20H82C42 -20 10 12 10 52V716zM671 234H824V142H671V234zM968 501H56V593H968V501z" />
    <glyph glyph-name="cube"
      unicode="&#xE060;"
      horiz-adv-x="1024" d="M425 863A174 174 0 0 0 599 863L883 699A174 174 0 0 0 970 549V221A174 174 0 0 0 883 71L883 71L599 -93A174 174 0 0 0 425 -93L141 71A174 174 0 0 0 54 221V549A174 174 0 0 0 141 699L425 863zM553 783A82 82 0 0 1 471 783L187 620A82 82 0 0 1 147 549V221C147 192 162 165 187 150L471 -13A82 82 0 0 1 553 -13L837 150L837 150A82 82 0 0 1 877 221V549C877 578 862 605 837 620L553 783zM512 431A46 46 0 0 0 558 385V-70A46 46 0 0 0 466 -70V385A46 46 0 0 0 512 431zM946 636A46 46 0 0 0 929 573L535 345A46 46 0 0 0 472 362A46 46 0 0 0 489 425L883 653A46 46 0 0 0 946 636zM78 636A46 46 0 0 0 141 653L535 425A46 46 0 0 0 552 362A46 46 0 0 0 489 345L95 573A46 46 0 0 0 78 636z" />
    <glyph glyph-name="data-branch"
      unicode="&#xE277;"
      horiz-adv-x="1024" d="M159 742A148 148 0 1 0 353 601V358A173 173 0 0 0 435 379H614A56 56 0 0 1 671 435V601A149 149 0 1 0 763 601V435A148 148 0 0 0 614 287H435A82 82 0 0 1 353 205V167A149 149 0 0 0 307 -123A148 148 0 0 0 261 167V601A149 149 0 0 0 159 742zM307 799A56 56 0 1 1 307 686A56 56 0 0 1 307 799zM717 799A56 56 0 1 1 717 686A56 56 0 0 1 717 799zM251 26A56 56 0 1 1 364 26A56 56 0 0 1 251 26z" />
    <glyph glyph-name="data-layer"
      unicode="&#xE1E4;"
      horiz-adv-x="1024" d="M754 163L303 668L372 730L823 225L754 163zM822 527L374 56L307 120L756 590L822 527zM795 216V536H887V216H795zM754 581L359 703L386 791L781 669L754 581zM210 141V648H302V141H210zM789 59L382 -56L357 32L764 148L789 59zM268 806C236 806 210 780 210 747C210 715 236 689 268 689C301 689 327 715 327 747C327 780 301 806 268 806zM117 747C117 830 185 898 268 898C351 898 419 830 419 747C419 664 351 596 268 596C185 596 117 664 117 747zM268 74C236 74 210 48 210 16C210 -17 236 -43 268 -43C301 -43 327 -17 327 16C327 48 301 74 268 74zM117 16C117 99 185 166 268 166C351 166 419 99 419 16C419 -68 351 -135 268 -135C185 -135 117 -68 117 16zM841 640A29 29 0 1 1 841 582A29 29 0 0 1 841 640zM720 611C720 678 774 732 841 732C908 732 962 678 962 611C962 544 908 489 841 489C774 489 720 544 720 611zM841 170A29 29 0 1 1 841 112A29 29 0 0 1 841 170zM720 141C720 208 774 262 841 262C908 262 962 208 962 141C962 74 908 20 841 20C774 20 720 74 720 141z" />
    <glyph glyph-name="data-neuron"
      unicode="&#xE1E7;"
      horiz-adv-x="1024" d="M786 558C818 558 844 584 844 616C844 648 818 674 786 674C754 674 728 648 728 616C728 584 754 558 786 558zM545 -66C578 -66 603 -40 603 -8C603 24 578 50 545 50C513 50 487 24 487 -8C487 -40 513 -66 545 -66zM115 373C147 373 173 399 173 431C173 463 147 489 115 489C83 489 57 463 57 431C57 399 83 373 115 373zM172 97A39 39 0 1 1 172 19A39 39 0 0 1 172 97zM41 58C41 131 100 189 172 189C245 189 303 131 303 58C303 -14 245 -73 172 -73C100 -73 41 -14 41 58zM377 794A39 39 0 1 1 377 715A39 39 0 0 1 377 794zM246 755C246 827 305 886 377 886C449 886 508 827 508 755C508 682 449 623 377 623C305 623 246 682 246 755zM853 276A39 39 0 1 1 853 198A39 39 0 0 1 853 276zM722 237C722 310 781 369 853 369C926 369 984 310 984 237C984 165 926 106 853 106C781 106 722 165 722 237zM495 389A39 39 0 1 1 495 311A39 39 0 0 1 495 389zM364 350C364 423 422 481 495 481C567 481 626 423 626 350C626 278 567 219 495 219C422 219 364 278 364 350zM447 678L501 450L411 429L357 657L447 678zM783 205L560 272L586 360L809 293L783 205zM452 256L268 83L205 151L389 324L452 256z" />
    <glyph glyph-name="data-pipeline"
      unicode="&#xE1E2;"
      horiz-adv-x="1024" d="M286 92C255 92 230 67 230 36C230 5 255 -20 286 -20C317 -20 342 5 342 36C342 67 317 92 286 92zM138 36C138 118 204 184 286 184C368 184 434 118 434 36C434 -46 368 -112 286 -112C204 -112 138 -46 138 36zM276 789C245 789 220 764 220 733C220 703 245 678 276 678C307 678 332 703 332 733C332 764 307 789 276 789zM128 733C128 815 194 881 276 881C358 881 424 815 424 733C424 652 358 586 276 586C194 586 128 652 128 733zM670 687H404V780H670C796 780 925 696 931 567C938 433 818 334 684 334H365C340 334 329 317 329 308V138H237V308C237 379 301 426 365 426H684C778 426 843 493 839 562V562C836 626 766 687 670 687z" />
    <glyph glyph-name="database"
      unicode="&#xE16A;"
      horiz-adv-x="1024" d="M201 711C188 699 187 692 187 689S188 679 201 667C214 655 236 642 266 630C327 607 414 591 512 591C610 591 697 607 758 630C788 642 810 655 823 667C836 679 837 686 837 689S836 699 823 711C810 723 788 736 758 748C697 771 610 787 512 787C414 787 327 771 266 748C236 736 214 723 201 711zM233 834C307 862 405 879 512 879C619 879 717 862 791 834C828 820 861 801 885 779C910 756 929 726 929 689C929 652 910 621 885 599C861 576 828 558 791 544C717 516 619 499 512 499C405 499 307 516 233 544C196 558 163 576 139 599C114 621 95 652 95 689S114 756 139 779C163 801 196 820 233 834zM187 689V79C187 77 188 69 201 57C214 45 236 32 266 20C327 -3 414 -19 512 -19C610 -19 697 -3 758 20C788 32 810 45 823 57C836 69 837 77 837 79V689H929V79C929 42 910 12 885 -11C861 -33 828 -51 791 -66C717 -94 619 -111 512 -111C405 -111 307 -94 233 -66C196 -51 163 -33 139 -11C114 12 95 42 95 79V689H187zM139 400C114 423 95 453 95 491H187C187 488 188 480 201 468C215 456 236 443 266 431C327 407 414 392 512 392C610 392 697 407 758 431C788 443 810 456 823 468C836 480 837 488 837 491H929C929 453 910 423 885 400C861 378 828 360 791 345C717 316 619 300 512 300C405 300 307 316 233 345C196 360 163 378 139 400zM139 194C115 217 95 247 95 284H187C187 282 188 275 201 263C214 251 236 238 266 226C327 203 414 188 512 188S697 203 758 226C788 238 810 251 823 263C836 275 837 282 837 284H929C929 247 909 217 885 194C860 172 828 154 791 140C717 112 619 96 512 96C405 96 307 112 233 140C196 154 164 172 139 194zM241 525A31 31 0 1 1 241 462A31 31 0 0 1 241 525zM241 328A31 31 0 1 1 241 265A31 31 0 0 1 241 328zM241 121A31 31 0 1 1 241 58A31 31 0 0 1 241 121z" />
    <glyph glyph-name="desktop"
      unicode="&#xE061;"
      horiz-adv-x="1024" d="M115 698V180A14 14 0 0 1 118 177A12 12 0 0 1 118 177H908A16 16 0 0 1 909 179V698A22 22 0 0 1 908 700L907 700H117A12 12 0 0 1 115 698zM51 764C65 778 88 792 115 792H916C931 792 943 786 951 782C960 777 968 770 975 763C986 751 1001 729 1001 703V177C1001 153 990 131 978 117C967 104 945 85 916 85H115C90 85 68 97 54 111C39 124 23 147 23 177V703C23 729 37 751 51 764zM466 -55V131H558V-55H466zM718 -68H308V24H718V-68z" />
    <glyph glyph-name="document"
      unicode="&#xE063;"
      horiz-adv-x="1024" d="M199 763V5H643L825 188V763H199zM107 782C107 823 139 855 179 855H845C885 855 917 823 917 782V149L681 -87H179C139 -87 107 -55 107 -14V782zM616 215H871V122H708V-41H616V215z" />
    <glyph glyph-name="document-check"
      unicode="&#xE1F1;"
      horiz-adv-x="1024" d="M199 763V5H643L825 188V763H199zM107 782C107 823 139 855 179 855H845C885 855 917 823 917 782V149L681 -87H179C139 -87 107 -55 107 -14V782zM616 215H871V122H708V-41H616V215zM477 404L639 556L702 489L477 278L322 423L385 490L477 404z" />
    <glyph glyph-name="document-eye"
      unicode="&#xE1E9;"
      horiz-adv-x="1024" d="M118 20V568H328V778H742V312C773 312 804 307 835 297V799C835 840 804 870 763 870H261L26 635V0C26 -41 56 -72 97 -72H507C481 -46 456 -15 435 20H118zM236 712V660H184L236 712zM998 87C947 184 850 251 742 251S538 184 486 87L476 67L486 46C538 -51 635 -118 742 -118S947 -51 998 46L1009 67L998 87zM742 -36C676 -36 614 0 568 67C609 133 676 169 742 169C809 169 870 133 916 67C876 5 809 -36 742 -36zM819 67C819 26 783 -10 742 -10S666 26 666 67S701 143 742 143S819 108 819 67z" />
    <glyph glyph-name="dots-2x3"
      unicode="&#xE29B;"
      horiz-adv-x="1024" d="M274 256A69 69 0 1 1 136 256A69 69 0 0 1 274 256zM274 512A69 69 0 1 1 136 512A69 69 0 0 1 274 512zM512 325A69 69 0 1 0 512 187A69 69 0 0 0 512 325zM581 512A69 69 0 1 1 443 512A69 69 0 0 1 581 512zM819 325A69 69 0 1 0 819 187A69 69 0 0 0 819 325zM888 512A69 69 0 1 1 750 512A69 69 0 0 1 888 512z" />
    <glyph glyph-name="dots-3x2"
      unicode="&#xE29C;"
      horiz-adv-x="1024" d="M384 622A69 69 0 1 1 384 760A69 69 0 0 1 384 622zM640 622A69 69 0 1 1 640 760A69 69 0 0 1 640 622zM453 384A69 69 0 1 0 315 384A69 69 0 0 0 453 384zM640 315A69 69 0 1 1 640 453A69 69 0 0 1 640 315zM453 77A69 69 0 1 0 315 77A69 69 0 0 0 453 77zM640 8A69 69 0 1 1 640 146A69 69 0 0 1 640 8z" />
    <glyph glyph-name="dots-3x3"
      unicode="&#xE2A8;"
      horiz-adv-x="1024" d="M206 759A69 69 0 1 1 206 621A69 69 0 0 1 206 759zM512 759A69 69 0 1 1 512 621A69 69 0 0 1 512 759zM443 384A69 69 0 1 0 581 384A69 69 0 0 0 443 384zM512 147A69 69 0 1 1 512 9A69 69 0 0 1 512 147zM749 690A69 69 0 1 0 887 690A69 69 0 0 0 749 690zM818 453A69 69 0 1 1 818 315A69 69 0 0 1 818 453zM137 384A69 69 0 1 0 275 384A69 69 0 0 0 137 384zM137 78A69 69 0 1 1 275 78A69 69 0 0 1 137 78zM749 78A69 69 0 1 1 887 78A69 69 0 0 1 749 78z" />
    <glyph glyph-name="download"
      unicode="&#xE064;"
      horiz-adv-x="1024" d="M512 251L779 518L844 453L512 120L180 453L245 518L512 251zM466 186V799H558V186H466zM120 48H904V-44H120V48z" />
    <glyph glyph-name="earth"
      unicode="&#xE065;"
      horiz-adv-x="1024" d="M517 778C299 778 123 602 123 384C123 166 299 -10 517 -10C735 -10 911 166 911 384S735 778 517 778zM31 384C31 653 248 870 517 870C786 870 1004 653 1004 384S786 -102 517 -102C248 -102 31 115 31 384zM445 679C418 606 400 502 400 384C400 266 418 162 445 89C458 52 474 25 488 9C503 -8 513 -10 517 -10C522 -10 531 -8 546 9C561 25 576 52 589 89C617 162 634 266 634 384C634 502 617 606 589 679C576 716 561 743 546 759C531 776 522 778 517 778C513 778 503 776 488 759C474 743 458 716 445 679zM419 820C443 848 476 870 517 870S591 848 615 820C640 792 660 754 676 711C708 625 727 510 727 384C727 258 708 143 676 57C660 14 640 -24 615 -52C591 -80 558 -102 517 -102S443 -80 419 -52C394 -24 374 14 358 57C326 143 308 258 308 384C308 510 326 625 358 711C374 754 394 792 419 820zM59 525A46 46 0 0 0 105 571H929A46 46 0 0 0 929 479H105A46 46 0 0 0 59 525zM59 243A46 46 0 0 0 105 289H929A46 46 0 0 0 929 197H105A46 46 0 0 0 59 243z" />
    <glyph glyph-name="easy-pass"
      unicode="&#xE066;"
      horiz-adv-x="1024" d="M235 845C213 845 193 832 185 812L5 386L3 381A55 55 0 0 1 34 315L192 248L198 238C247 154 342 71 457 10C565 -47 676 -79 770 -79C864 -79 930 -47 961 10C984 52 983 103 960 157L983 148L992 144L996 153L1020 209L1024 218L1015 222L872 283L863 287L859 278L798 135L794 126L803 122L859 98L868 94L872 103L884 131C899 97 901 68 890 47C874 18 832 1 771 1C690 1 590 30 495 80C384 139 295 220 257 296L252 307L251 310L247 312L90 378L249 756L811 517L651 140L648 141C467 227 354 340 372 385C378 399 407 414 470 414C477 414 485 414 493 414H503V423L506 485V495H471C379 495 319 468 297 417C254 315 390 169 627 61L655 49L683 37L692 33L696 42L894 510L896 515A55 55 0 0 1 865 581L257 840L251 842A59 59 0 0 1 235 845zM273 683L269 674L245 618L241 609L250 605L371 554L380 550L384 559L408 615L412 624L403 628L282 679L273 683H273z" />
    <glyph glyph-name="edit"
      unicode="&#xE068;"
      horiz-adv-x="1024" d="M926 -70H98V22H926V-70zM655 864L878 642L320 84H98V306L655 864zM190 268V176H282L747 642L655 734L190 268z" />
    <glyph glyph-name="edit-alt"
      unicode="&#xE067;"
      horiz-adv-x="1024" d="M665 784H189C135 784 91 740 91 687V36C91 -17 135 -61 189 -61H839C893 -61 936 -17 936 36V507L844 415V36C844 33 842 31 839 31H189C186 31 183 33 183 36V687C183 689 186 692 189 692H573L665 784zM851 859L1014 696L557 238H393V401L851 859zM851 729L485 363V330H519L884 696L851 729z" />
    <glyph glyph-name="editor-indent"
      unicode="&#xE069;"
      horiz-adv-x="1024" d="M205 208L393 379L205 551V208zM871 648H153V740H871V648zM871 28H153V120H871V28zM871 442H513V534H871V442zM871 235H513V327H871V235z" />
    <glyph glyph-name="editor-outdent"
      unicode="&#xE06A;"
      horiz-adv-x="1024" d="M346 208L159 379L346 551V208zM871 648H153V740H871V648zM871 28H153V120H871V28zM871 442H513V534H871V442zM871 235H513V327H871V235z" />
    <glyph glyph-name="ellipsis-horizontal"
      unicode="&#xE06B;"
      horiz-adv-x="1024" d="M206 453C168 453 137 422 137 384S168 315 206 315S275 346 275 384S244 453 206 453zM512 453C474 453 443 422 443 384S474 315 512 315S581 346 581 384S550 453 512 453zM818 453C780 453 749 422 749 384S780 315 818 315S887 346 887 384S856 453 818 453z" />
    </font>
</defs>
</svg>
