<?xml version="1.0" standalone="no"?>
<!DOCTYPE svg PUBLIC "-//W3C//DTD SVG 1.1//EN" "http://www.w3.org/Graphics/SVG/1.1/DTD/svg11.dtd" >
<svg xmlns="http://www.w3.org/2000/svg">
<metadata>
LAICON Private Solid Version 18.11
Copyright (c) LINE Corporation
</metadata>
<defs>
  <font id="laicon-private-solid" horiz-adv-x="1024">
    <font-face font-family="laicon-private-solid"
      units-per-em="1024" ascent="896"
      descent="128"
      font-weight="400"
      font-style="Regular" />
    <missing-glyph horiz-adv-x="1024" /><glyph unicode="&#x20;" horiz-adv-x="512" d="" />
    <glyph glyph-name="adobe-illustrator"
      unicode="&#xE141;"
      horiz-adv-x="1024" d="M896 827C928 827 955 800 955 768V0C955 -32 928 -59 896 -59H128C96 -59 69 -32 69 0V768C69 800 96 827 128 827zM474 550H396L278 212H342L369 296H498L525 212H591L474 550zM695 460H635V212H695V460zM438 493L486 341H381L428 490L431 493H438zM665 568C647 568 633 554 633 537C633 519 647 505 665 505C682 505 696 519 696 537C696 554 682 568 665 568z" />
    <glyph glyph-name="adobe-illustrator-1"
      unicode="&#x61;&#x64;&#x6F;&#x62;&#x65;&#x5F;&#x69;&#x6C;&#x6C;&#x75;&#x73;&#x74;&#x72;&#x61;&#x74;&#x6F;&#x72;"
      horiz-adv-x="1024" d="M896 827C928 827 955 800 955 768V0C955 -32 928 -59 896 -59H128C96 -59 69 -32 69 0V768C69 800 96 827 128 827zM474 550H396L278 212H342L369 296H498L525 212H591L474 550zM695 460H635V212H695V460zM438 493L486 341H381L428 490L431 493H438zM665 568C647 568 633 554 633 537C633 519 647 505 665 505C682 505 696 519 696 537C696 554 682 568 665 568z" />
    <glyph glyph-name="adobe-pdf"
      unicode="&#xE142;"
      horiz-adv-x="1024" d="M933 15C927 16 888 18 811 105C881 85 920 59 935 35C937 32 941 24 938 18C937 16 937 16 933 15M510 220C469 220 432 219 398 217C411 237 425 259 438 282C466 328 491 372 512 412C533 372 558 328 586 282C600 259 613 237 627 217C591 219 552 220 510 220M498 746C499 749 502 753 512 753C523 753 525 749 526 746C529 741 543 709 512 615C481 709 495 741 498 746M91 15C87 16 87 16 86 18C83 24 87 32 89 36C104 60 144 86 214 106C136 18 99 15 91 15M1004 78C980 118 914 178 733 205C709 239 684 278 656 324C613 396 581 455 557 505C615 637 629 731 598 786C580 817 550 835 512 835S444 817 426 786C395 731 409 637 467 505C443 455 411 396 368 324C340 278 315 239 292 206C110 179 44 119 20 79C0 47 -3 11 13 -19C28 -48 55 -65 89 -67C90 -67 91 -67 92 -67C160 -67 242 -1 337 129C387 135 444 138 510 138C578 138 637 135 687 129C784 -3 866 -70 936 -67C969 -65 996 -48 1011 -19C1027 11 1024 46 1004 78" />
    <glyph glyph-name="adobe-pdf-1"
      unicode="&#x61;&#x64;&#x6F;&#x62;&#x65;&#x5F;&#x70;&#x64;&#x66;"
      horiz-adv-x="1024" d="M933 15C927 16 888 18 811 105C881 85 920 59 935 35C937 32 941 24 938 18C937 16 937 16 933 15M510 220C469 220 432 219 398 217C411 237 425 259 438 282C466 328 491 372 512 412C533 372 558 328 586 282C600 259 613 237 627 217C591 219 552 220 510 220M498 746C499 749 502 753 512 753C523 753 525 749 526 746C529 741 543 709 512 615C481 709 495 741 498 746M91 15C87 16 87 16 86 18C83 24 87 32 89 36C104 60 144 86 214 106C136 18 99 15 91 15M1004 78C980 118 914 178 733 205C709 239 684 278 656 324C613 396 581 455 557 505C615 637 629 731 598 786C580 817 550 835 512 835S444 817 426 786C395 731 409 637 467 505C443 455 411 396 368 324C340 278 315 239 292 206C110 179 44 119 20 79C0 47 -3 11 13 -19C28 -48 55 -65 89 -67C90 -67 91 -67 92 -67C160 -67 242 -1 337 129C387 135 444 138 510 138C578 138 637 135 687 129C784 -3 866 -70 936 -67C969 -65 996 -48 1011 -19C1027 11 1024 46 1004 78" />
    <glyph glyph-name="adobe-photoshop"
      unicode="&#xE143;"
      horiz-adv-x="1024" d="M896 827C928 827 955 800 955 768V0C955 -32 928 -59 896 -59H128C96 -59 69 -32 69 0V768C69 800 96 827 128 827zM652 462C593 462 555 434 555 390C555 356 577 334 622 324L664 316C683 311 700 305 700 285C700 266 682 253 655 253C621 253 609 270 605 286H549C556 243 595 217 655 217C716 217 757 247 757 292C757 325 737 343 688 353L647 362C629 366 609 373 609 394C609 413 626 425 652 425C677 425 694 413 698 392H750C746 435 709 462 652 462zM411 542H282V222H341V326H408C475 326 521 369 521 434C521 498 477 542 411 542zM393 497C435 497 461 473 461 434C461 394 435 370 393 370H341V497z" />
    <glyph glyph-name="adobe-photoshop-1"
      unicode="&#x61;&#x64;&#x6F;&#x62;&#x65;&#x5F;&#x70;&#x68;&#x6F;&#x74;&#x6F;&#x73;&#x68;&#x6F;&#x70;"
      horiz-adv-x="1024" d="M896 827C928 827 955 800 955 768V0C955 -32 928 -59 896 -59H128C96 -59 69 -32 69 0V768C69 800 96 827 128 827zM652 462C593 462 555 434 555 390C555 356 577 334 622 324L664 316C683 311 700 305 700 285C700 266 682 253 655 253C621 253 609 270 605 286H549C556 243 595 217 655 217C716 217 757 247 757 292C757 325 737 343 688 353L647 362C629 366 609 373 609 394C609 413 626 425 652 425C677 425 694 413 698 392H750C746 435 709 462 652 462zM411 542H282V222H341V326H408C475 326 521 369 521 434C521 498 477 542 411 542zM393 497C435 497 461 473 461 434C461 394 435 370 393 370H341V497z" />
    <glyph glyph-name="adobe-xd"
      unicode="&#xE1B0;"
      horiz-adv-x="1024" d="M686 411A60 60 0 0 0 694 410V279A47 47 0 0 0 683 277C679 276 675 276 671 276A80 80 0 0 0 646 280A52 52 0 0 0 626 292A59 59 0 0 0 613 313A84 84 0 0 0 607 344A62 62 0 0 0 643 404A74 74 0 0 0 676 412C680 411 683 411 686 411zM955 768V0A59 59 0 0 0 896 -59H128A59 59 0 0 0 69 0V768A59 59 0 0 0 128 827H896A59 59 0 0 0 955 768zM540 226A5 5 0 0 1 540 230L444 386L534 533A3 3 0 0 1 535 536A3 3 0 0 1 531 538H468A7 7 0 0 1 465 538A7 7 0 0 1 463 534C456 522 450 509 443 497S429 472 423 459S409 434 403 421H403Q393 440 383 459T361 497C354 509 348 522 342 535A8 8 0 0 1 339 538A11 11 0 0 1 335 538H267A3 3 0 0 1 264 537C264 536 264 535 265 534L355 381L263 229A5 5 0 0 1 262 226C262 224 263 225 264 225H330C333 225 335 225 336 228Q347 247 357 266C364 278 370 291 377 304S391 330 397 342H398Q408 323 419 303T440 266Q449 247 459 229C461 225 464 225 469 225H537C539 226 540 225 540 226zM762 242C762 248 761 253 761 260S760 272 760 278V561A2 2 0 0 1 760 562A3 3 0 0 1 757 564H697Q694 564 694 561V466A210 210 0 0 1 685 467A153 153 0 0 1 603 450A120 120 0 0 1 556 404A125 125 0 0 1 539 341A130 130 0 0 1 556 273A102 102 0 0 1 601 232A149 149 0 0 1 665 219A258 258 0 0 1 711 223A239 239 0 0 1 759 237A5 5 0 0 1 762 242z" />
    <glyph glyph-name="adobe-xd-1"
      unicode="&#x61;&#x64;&#x6F;&#x62;&#x65;&#x5F;&#x78;&#x64;"
      horiz-adv-x="1024" d="M686 411A60 60 0 0 0 694 410V279A47 47 0 0 0 683 277C679 276 675 276 671 276A80 80 0 0 0 646 280A52 52 0 0 0 626 292A59 59 0 0 0 613 313A84 84 0 0 0 607 344A62 62 0 0 0 643 404A74 74 0 0 0 676 412C680 411 683 411 686 411zM955 768V0A59 59 0 0 0 896 -59H128A59 59 0 0 0 69 0V768A59 59 0 0 0 128 827H896A59 59 0 0 0 955 768zM540 226A5 5 0 0 1 540 230L444 386L534 533A3 3 0 0 1 535 536A3 3 0 0 1 531 538H468A7 7 0 0 1 465 538A7 7 0 0 1 463 534C456 522 450 509 443 497S429 472 423 459S409 434 403 421H403Q393 440 383 459T361 497C354 509 348 522 342 535A8 8 0 0 1 339 538A11 11 0 0 1 335 538H267A3 3 0 0 1 264 537C264 536 264 535 265 534L355 381L263 229A5 5 0 0 1 262 226C262 224 263 225 264 225H330C333 225 335 225 336 228Q347 247 357 266C364 278 370 291 377 304S391 330 397 342H398Q408 323 419 303T440 266Q449 247 459 229C461 225 464 225 469 225H537C539 226 540 225 540 226zM762 242C762 248 761 253 761 260S760 272 760 278V561A2 2 0 0 1 760 562A3 3 0 0 1 757 564H697Q694 564 694 561V466A210 210 0 0 1 685 467A153 153 0 0 1 603 450A120 120 0 0 1 556 404A125 125 0 0 1 539 341A130 130 0 0 1 556 273A102 102 0 0 1 601 232A149 149 0 0 1 665 219A258 258 0 0 1 711 223A239 239 0 0 1 759 237A5 5 0 0 1 762 242z" />
    <glyph glyph-name="android"
      unicode="&#xE28B;"
      horiz-adv-x="1024" d="M748 281A43 43 0 0 0 748 366A43 43 0 0 0 748 281zM276 281A43 43 0 0 0 276 366A43 43 0 0 0 276 281zM763 537L848 685A18 18 0 0 1 817 703L731 553A526 526 0 0 1 512 600C433 600 359 584 293 553L206 703A18 18 0 0 1 176 685L261 537C115 458 15 310 0 135H1024C1009 310 909 458 763 537z" />
    <glyph glyph-name="android-1"
      unicode="&#x61;&#x6E;&#x64;&#x72;&#x6F;&#x69;&#x64;"
      horiz-adv-x="1024" d="M748 281A43 43 0 0 0 748 366A43 43 0 0 0 748 281zM276 281A43 43 0 0 0 276 366A43 43 0 0 0 276 281zM763 537L848 685A18 18 0 0 1 817 703L731 553A526 526 0 0 1 512 600C433 600 359 584 293 553L206 703A18 18 0 0 1 176 685L261 537C115 458 15 310 0 135H1024C1009 310 909 458 763 537z" />
    <glyph glyph-name="apache-airflow"
      unicode="&#xE246;"
      horiz-adv-x="1024" d="M712 631C706 592 688 556 666 523C630 470 580 423 547 393C662 364 797 372 921 416A420 420 0 0 1 969 594L979 804C981 839 939 858 914 833L712 631zM543 438C566 549 565 659 535 758C551 746 566 733 580 719L674 625C668 598 655 570 637 543C609 503 573 467 543 438zM275 574C308 568 339 553 368 534C423 500 471 451 502 419C534 552 531 681 485 790A420 420 0 0 1 302 841L92 851A38 38 0 0 1 63 786L275 574zM656 234C685 215 716 200 749 194L961 -18A38 38 0 0 0 932 -83L722 -73A420 420 0 0 0 544 -25C500 100 492 235 521 349A36 36 0 1 0 521 349C552 318 601 268 656 234zM479 329C459 227 465 113 497 4A420 420 0 0 0 444 49L350 143C356 170 369 198 387 225C414 265 450 300 479 329zM312 137C318 176 336 212 358 245C394 298 444 345 477 375C362 404 227 396 103 352A420 420 0 0 1 55 174L45 -36C43 -71 85 -90 110 -65L312 137zM454 417C352 436 240 430 132 399C146 418 161 436 177 452L265 540C293 535 321 522 349 504C389 479 425 446 454 417zM570 351C672 332 784 338 892 369C878 350 863 332 847 316L759 228C731 233 703 246 675 264C635 289 599 322 570 351z" />
    <glyph glyph-name="apache-airflow-1"
      unicode="&#x61;&#x70;&#x61;&#x63;&#x68;&#x65;&#x5F;&#x61;&#x69;&#x72;&#x66;&#x6C;&#x6F;&#x77;"
      horiz-adv-x="1024" d="M712 631C706 592 688 556 666 523C630 470 580 423 547 393C662 364 797 372 921 416A420 420 0 0 1 969 594L979 804C981 839 939 858 914 833L712 631zM543 438C566 549 565 659 535 758C551 746 566 733 580 719L674 625C668 598 655 570 637 543C609 503 573 467 543 438zM275 574C308 568 339 553 368 534C423 500 471 451 502 419C534 552 531 681 485 790A420 420 0 0 1 302 841L92 851A38 38 0 0 1 63 786L275 574zM656 234C685 215 716 200 749 194L961 -18A38 38 0 0 0 932 -83L722 -73A420 420 0 0 0 544 -25C500 100 492 235 521 349A36 36 0 1 0 521 349C552 318 601 268 656 234zM479 329C459 227 465 113 497 4A420 420 0 0 0 444 49L350 143C356 170 369 198 387 225C414 265 450 300 479 329zM312 137C318 176 336 212 358 245C394 298 444 345 477 375C362 404 227 396 103 352A420 420 0 0 1 55 174L45 -36C43 -71 85 -90 110 -65L312 137zM454 417C352 436 240 430 132 399C146 418 161 436 177 452L265 540C293 535 321 522 349 504C389 479 425 446 454 417zM570 351C672 332 784 338 892 369C878 350 863 332 847 316L759 228C731 233 703 246 675 264C635 289 599 322 570 351z" />
    <glyph glyph-name="astro"
      unicode="&#xE17D;"
      horiz-adv-x="1024" d="M1023 364C1023 373 1023 382 1023 391A511 511 0 1 1 767 -59C768 -109 780 -120 829 -120C870 -121 912 -120 953 -120C1014 -120 1023 -111 1024 -52Q1024 156 1023 364zM1023 353V352zM1023 349zM1022 340zM513 127A256 256 0 1 0 769 383A256 256 0 0 0 513 127zM1023 361zM1023 365zM1023 374zM1023 378z" />
    <glyph glyph-name="astro-1"
      unicode="&#x61;&#x73;&#x74;&#x72;&#x6F;"
      horiz-adv-x="1024" d="M1023 364C1023 373 1023 382 1023 391A511 511 0 1 1 767 -59C768 -109 780 -120 829 -120C870 -121 912 -120 953 -120C1014 -120 1023 -111 1024 -52Q1024 156 1023 364zM1023 353V352zM1023 349zM1022 340zM513 127A256 256 0 1 0 769 383A256 256 0 0 0 513 127zM1023 361zM1023 365zM1023 374zM1023 378z" />
    <glyph glyph-name="astro-chart"
      unicode="&#xE17B;"
      horiz-adv-x="1024" d="M577 824A477 477 0 0 0 1020 355C1020 347 1020 338 1020 330Q1021 136 1020 -57C1020 -112 1011 -121 955 -121C916 -121 878 -121 839 -121C793 -121 783 -110 781 -64A477 477 0 0 0 67 323H307A238 238 0 1 1 577 584zM517 896V584A238 238 0 0 1 308 382H3A514 514 0 0 0 517 896z" />
    <glyph glyph-name="astro-chart-1"
      unicode="&#x61;&#x73;&#x74;&#x72;&#x6F;&#x5F;&#x63;&#x68;&#x61;&#x72;&#x74;"
      horiz-adv-x="1024" d="M577 824A477 477 0 0 0 1020 355C1020 347 1020 338 1020 330Q1021 136 1020 -57C1020 -112 1011 -121 955 -121C916 -121 878 -121 839 -121C793 -121 783 -110 781 -64A477 477 0 0 0 67 323H307A238 238 0 1 1 577 584zM517 896V584A238 238 0 0 1 308 382H3A514 514 0 0 0 517 896z" />
    <glyph glyph-name="astro-vue"
      unicode="&#xE17C;"
      horiz-adv-x="1024" d="M67 637A511 511 0 0 0 1023 391C1023 382 1023 373 1023 363Q1024 156 1023 -52C1023 -111 1013 -120 953 -120C912 -120 870 -121 829 -120C780 -120 768 -109 767 -59A511 511 0 0 0 67 637zM386 581H184L511 62L837 581H639L513 386z" />
    <glyph glyph-name="astro-vue-1"
      unicode="&#x61;&#x73;&#x74;&#x72;&#x6F;&#x5F;&#x76;&#x75;&#x65;"
      horiz-adv-x="1024" d="M67 637A511 511 0 0 0 1023 391C1023 382 1023 373 1023 363Q1024 156 1023 -52C1023 -111 1013 -120 953 -120C912 -120 870 -121 829 -120C780 -120 768 -109 767 -59A511 511 0 0 0 67 637zM386 581H184L511 62L837 581H639L513 386z" />
    <glyph glyph-name="astro-xd"
      unicode="&#xE17A;"
      horiz-adv-x="1024" d="M633 856A487 487 0 0 0 999 391C999 382 999 373 999 364Q1000 166 999 -31C999 -88 990 -96 932 -96C893 -96 854 -97 814 -96C767 -96 756 -85 755 -38A487 487 0 1 0 633 856zM791 584H730A4 4 0 0 1 726 580V477A187 187 0 0 1 706 478A151 151 0 0 1 551 318C551 213 611 161 695 161A230 230 0 0 1 794 184C796 185 797 186 797 188A284 284 0 0 0 795 226V581C795 583 794 584 791 584zM524 584H462C458 584 456 582 455 579C431 528 406 475 383 424H383C359 476 335 528 310 579A6 6 0 0 1 306 584H237A3 3 0 0 1 235 578L337 374L231 172C229 170 230 167 233 167H297A7 7 0 0 1 304 171C329 222 354 277 378 329H378C404 274 430 223 454 172A8 8 0 0 1 462 167H530C533 167 534 170 532 173L424 381L526 579C528 582 527 584 524 584zM703 421A58 58 0 0 0 726 417V225A72 72 0 0 0 699 221C656 221 621 250 621 321C621 383 655 421 703 421z" />
    <glyph glyph-name="astro-xd-1"
      unicode="&#x61;&#x73;&#x74;&#x72;&#x6F;&#x5F;&#x78;&#x64;"
      horiz-adv-x="1024" d="M633 856A487 487 0 0 0 999 391C999 382 999 373 999 364Q1000 166 999 -31C999 -88 990 -96 932 -96C893 -96 854 -97 814 -96C767 -96 756 -85 755 -38A487 487 0 1 0 633 856zM791 584H730A4 4 0 0 1 726 580V477A187 187 0 0 1 706 478A151 151 0 0 1 551 318C551 213 611 161 695 161A230 230 0 0 1 794 184C796 185 797 186 797 188A284 284 0 0 0 795 226V581C795 583 794 584 791 584zM524 584H462C458 584 456 582 455 579C431 528 406 475 383 424H383C359 476 335 528 310 579A6 6 0 0 1 306 584H237A3 3 0 0 1 235 578L337 374L231 172C229 170 230 167 233 167H297A7 7 0 0 1 304 171C329 222 354 277 378 329H378C404 274 430 223 454 172A8 8 0 0 1 462 167H530C533 167 534 170 532 173L424 381L526 579C528 582 527 584 524 584zM703 421A58 58 0 0 0 726 417V225A72 72 0 0 0 699 221C656 221 621 250 621 321C621 383 655 421 703 421z" />
    <glyph glyph-name="bentoml"
      unicode="&#xE1DE;"
      horiz-adv-x="1024" d="M330 530L529 414A33 33 0 0 0 546 385V158L330 283zM330 223V-7L496 -103A33 33 0 0 1 546 -74V99zM279 558H281L131 644A33 33 0 0 1 81 615V156A33 33 0 0 1 98 127L279 23zM878 596V97L944 135V635L513 883L446 845zM382 808L316 770L748 520V22L815 61V559zM680 482L248 731L181 692L613 443V-55L680 -17z" />
    <glyph glyph-name="bentoml-1"
      unicode="&#x62;&#x65;&#x6E;&#x74;&#x6F;&#x6D;&#x6C;"
      horiz-adv-x="1024" d="M330 530L529 414A33 33 0 0 0 546 385V158L330 283zM330 223V-7L496 -103A33 33 0 0 1 546 -74V99zM279 558H281L131 644A33 33 0 0 1 81 615V156A33 33 0 0 1 98 127L279 23zM878 596V97L944 135V635L513 883L446 845zM382 808L316 770L748 520V22L815 61V559zM680 482L248 731L181 692L613 443V-55L680 -17z" />
    <glyph glyph-name="confluence"
      unicode="&#xE176;"
      horiz-adv-x="1024" d="M5 72A33 33 0 0 1 16 27L227 -103A33 33 0 0 1 272 -93V-92C406 132 433 100 834 -91A33 33 0 0 1 877 -75L878 -74L979 154A33 33 0 0 1 963 196A25815 25815 0 0 0 751 297C255 538 89 205 5 72zM1019 696A33 33 0 0 1 1008 740L797 870A32 32 0 0 1 752 862A17 17 0 0 1 750 860C616 634 588 668 189 858A33 33 0 0 1 146 842L145 842L44 613A33 33 0 0 1 61 571C105 550 193 508 273 470C769 230 934 561 1019 696z" />
    <glyph glyph-name="confluence-1"
      unicode="&#x63;&#x6F;&#x6E;&#x66;&#x6C;&#x75;&#x65;&#x6E;&#x63;&#x65;"
      horiz-adv-x="1024" d="M5 72A33 33 0 0 1 16 27L227 -103A33 33 0 0 1 272 -93V-92C406 132 433 100 834 -91A33 33 0 0 1 877 -75L878 -74L979 154A33 33 0 0 1 963 196A25815 25815 0 0 0 751 297C255 538 89 205 5 72zM1019 696A33 33 0 0 1 1008 740L797 870A32 32 0 0 1 752 862A17 17 0 0 1 750 860C616 634 588 668 189 858A33 33 0 0 1 146 842L145 842L44 613A33 33 0 0 1 61 571C105 550 193 508 273 470C769 230 934 561 1019 696z" />
    <glyph glyph-name="datalabs"
      unicode="&#xE14D;"
      horiz-adv-x="1024" d="M105 58C156 58 198 17 198 -35C198 -86 156 -128 105 -128C54 -128 12 -86 12 -35S54 58 105 58zM314 58C366 58 407 17 407 -35C407 -86 366 -128 314 -128S221 -86 221 -35S263 58 314 58zM523 58C575 58 617 17 617 -35C617 -86 575 -128 523 -128S430 -86 430 -35S472 58 523 58zM733 35C772 35 803 4 803 -35C803 -74 772 -105 733 -105S663 -74 663 -35C663 4 694 35 733 35zM105 268C156 268 198 226 198 175C198 123 156 82 105 82C54 82 12 123 12 175S54 268 105 268zM733 268C784 268 826 226 826 175C826 123 784 82 733 82C681 82 640 123 640 175S681 268 733 268zM942 245C981 245 1012 213 1012 175C1012 136 981 105 942 105S872 136 872 175C872 213 903 245 942 245zM105 477C156 477 198 436 198 384C198 333 156 291 105 291C54 291 12 333 12 384S54 477 105 477zM733 477C784 477 826 436 826 384C826 333 784 291 733 291C681 291 640 333 640 384S681 477 733 477zM942 454C981 454 1012 423 1012 384C1012 346 981 314 942 314S872 346 872 384C872 423 903 454 942 454zM105 686C156 686 198 645 198 593S156 500 105 500C54 500 12 542 12 593C12 645 54 686 105 686zM733 687C784 687 826 645 826 594S784 501 733 501C681 501 640 542 640 594C640 645 681 687 733 687zM942 664C981 664 1012 632 1012 594C1012 555 981 524 942 524S872 555 872 594C872 632 903 664 942 664zM105 896C156 896 198 854 198 803S156 710 105 710C54 710 12 751 12 803C12 854 54 896 105 896zM314 896C366 896 407 854 407 803S366 710 314 710S221 751 221 803C221 854 263 896 314 896zM523 896C575 896 617 854 617 803S575 710 523 710S430 751 430 803C430 854 472 896 523 896zM733 873C772 873 803 842 803 803C803 764 772 733 733 733S663 764 663 803C663 842 694 873 733 873z" />
    <glyph glyph-name="datalabs-1"
      unicode="&#x64;&#x61;&#x74;&#x61;&#x6C;&#x61;&#x62;&#x73;"
      horiz-adv-x="1024" d="M105 58C156 58 198 17 198 -35C198 -86 156 -128 105 -128C54 -128 12 -86 12 -35S54 58 105 58zM314 58C366 58 407 17 407 -35C407 -86 366 -128 314 -128S221 -86 221 -35S263 58 314 58zM523 58C575 58 617 17 617 -35C617 -86 575 -128 523 -128S430 -86 430 -35S472 58 523 58zM733 35C772 35 803 4 803 -35C803 -74 772 -105 733 -105S663 -74 663 -35C663 4 694 35 733 35zM105 268C156 268 198 226 198 175C198 123 156 82 105 82C54 82 12 123 12 175S54 268 105 268zM733 268C784 268 826 226 826 175C826 123 784 82 733 82C681 82 640 123 640 175S681 268 733 268zM942 245C981 245 1012 213 1012 175C1012 136 981 105 942 105S872 136 872 175C872 213 903 245 942 245zM105 477C156 477 198 436 198 384C198 333 156 291 105 291C54 291 12 333 12 384S54 477 105 477zM733 477C784 477 826 436 826 384C826 333 784 291 733 291C681 291 640 333 640 384S681 477 733 477zM942 454C981 454 1012 423 1012 384C1012 346 981 314 942 314S872 346 872 384C872 423 903 454 942 454zM105 686C156 686 198 645 198 593S156 500 105 500C54 500 12 542 12 593C12 645 54 686 105 686zM733 687C784 687 826 645 826 594S784 501 733 501C681 501 640 542 640 594C640 645 681 687 733 687zM942 664C981 664 1012 632 1012 594C1012 555 981 524 942 524S872 555 872 594C872 632 903 664 942 664zM105 896C156 896 198 854 198 803S156 710 105 710C54 710 12 751 12 803C12 854 54 896 105 896zM314 896C366 896 407 854 407 803S366 710 314 710S221 751 221 803C221 854 263 896 314 896zM523 896C575 896 617 854 617 803S575 710 523 710S430 751 430 803C430 854 472 896 523 896zM733 873C772 873 803 842 803 803C803 764 772 733 733 733S663 764 663 803C663 842 694 873 733 873z" />
    <glyph glyph-name="dse"
      unicode="&#xE14E;"
      horiz-adv-x="1024" d="M58 596A15 15 0 0 0 79 602L472 375A41 41 0 0 0 493 340V290A15 15 0 0 0 470 276L254 399A15 15 0 0 1 231 386V343A51 51 0 0 1 257 298L467 177A51 51 0 0 0 493 133V-113A15 15 0 0 0 470 -126L90 92A67 67 0 0 0 56 150V187A15 15 0 0 0 79 200L296 77A15 15 0 0 1 319 91V124A67 67 0 0 1 286 182L82 298A51 51 0 0 0 56 343V588A15 15 0 0 0 58 596zM952 610A15 15 0 0 0 968 594V550A51 51 0 0 0 942 506L732 383A51 51 0 0 1 706 339V297A15 15 0 0 1 729 283L945 406A15 15 0 0 0 968 392V348A51 51 0 0 0 942 304L732 183A51 51 0 0 1 706 139L705 97A15 15 0 0 1 728 83L945 205A15 15 0 0 0 968 191V148A51 51 0 0 0 942 104L556 -119A15 15 0 0 0 533 -106V340A51 51 0 0 0 558 385L945 607A15 15 0 0 0 952 610zM634 801A51 51 0 0 0 686 801L911 666A15 15 0 0 0 911 640L545 426A67 67 0 0 0 478 426L247 560A15 15 0 0 0 248 587L285 605A51 51 0 0 0 334 603L425 551A67 67 0 0 1 491 550L705 670A15 15 0 0 1 705 697L603 756A15 15 0 0 0 603 782zM553 887L634 838A15 15 0 0 0 634 811L240 594A67 67 0 0 0 174 594L103 636A17 17 0 0 0 103 665L485 887A67 67 0 0 0 553 887z" />
    <glyph glyph-name="dse-1"
      unicode="&#x64;&#x73;&#x65;"
      horiz-adv-x="1024" d="M58 596A15 15 0 0 0 79 602L472 375A41 41 0 0 0 493 340V290A15 15 0 0 0 470 276L254 399A15 15 0 0 1 231 386V343A51 51 0 0 1 257 298L467 177A51 51 0 0 0 493 133V-113A15 15 0 0 0 470 -126L90 92A67 67 0 0 0 56 150V187A15 15 0 0 0 79 200L296 77A15 15 0 0 1 319 91V124A67 67 0 0 1 286 182L82 298A51 51 0 0 0 56 343V588A15 15 0 0 0 58 596zM952 610A15 15 0 0 0 968 594V550A51 51 0 0 0 942 506L732 383A51 51 0 0 1 706 339V297A15 15 0 0 1 729 283L945 406A15 15 0 0 0 968 392V348A51 51 0 0 0 942 304L732 183A51 51 0 0 1 706 139L705 97A15 15 0 0 1 728 83L945 205A15 15 0 0 0 968 191V148A51 51 0 0 0 942 104L556 -119A15 15 0 0 0 533 -106V340A51 51 0 0 0 558 385L945 607A15 15 0 0 0 952 610zM634 801A51 51 0 0 0 686 801L911 666A15 15 0 0 0 911 640L545 426A67 67 0 0 0 478 426L247 560A15 15 0 0 0 248 587L285 605A51 51 0 0 0 334 603L425 551A67 67 0 0 1 491 550L705 670A15 15 0 0 1 705 697L603 756A15 15 0 0 0 603 782zM553 887L634 838A15 15 0 0 0 634 811L240 594A67 67 0 0 0 174 594L103 636A17 17 0 0 0 103 665L485 887A67 67 0 0 0 553 887z" />
    <glyph glyph-name="dv"
      unicode="&#xE14F;"
      horiz-adv-x="1024" d="M1024 827L512 -59L359 205L359 205L0 827H302L511 466L720 827H1024zM264 760H116L398 272L472 400L264 760z" />
    <glyph glyph-name="dv-1"
      unicode="&#x64;&#x76;"
      horiz-adv-x="1024" d="M1024 827L512 -59L359 205L359 205L0 827H302L511 466L720 827H1024zM264 760H116L398 272L472 400L264 760z" />
    <glyph glyph-name="eit"
      unicode="&#xE14C;"
      horiz-adv-x="1024" d="M1024 896V-128H0V896H1024zM932 521H590V461H721V247H800V461H932V521zM427 517H92V249H427V308H168V458H427V517zM544 515H469V249H544V515zM297 427C271 395 226 388 197 383C247 374 271 368 297 339C324 371 364 376 395 383C376 387 324 394 297 427z" />
    <glyph glyph-name="eit-1"
      unicode="&#x65;&#x69;&#x74;"
      horiz-adv-x="1024" d="M1024 896V-128H0V896H1024zM932 521H590V461H721V247H800V461H932V521zM427 517H92V249H427V308H168V458H427V517zM544 515H469V249H544V515zM297 427C271 395 226 388 197 383C247 374 271 368 297 339C324 371 364 376 395 383C376 387 324 394 297 427z" />
    <glyph glyph-name="frontline"
      unicode="&#xE207;"
      horiz-adv-x="1024" d="M61 896L142 -26L511 -128L881 -26L963 896zM777 595H360L370 479H669L658 366H381L404 99L288 132L236 708H788z" />
    <glyph glyph-name="frontline-1"
      unicode="&#x66;&#x72;&#x6F;&#x6E;&#x74;&#x6C;&#x69;&#x6E;&#x65;"
      horiz-adv-x="1024" d="M61 896L142 -26L511 -128L881 -26L963 896zM777 595H360L370 479H669L658 366H381L404 99L288 132L236 708H788z" />
    <glyph glyph-name="github"
      unicode="&#xE178;"
      horiz-adv-x="1024" d="M0 391A506 506 0 0 1 346 -89C371 -94 380 -78 380 -65C380 -53 380 -21 380 21C239 -9 209 89 209 89A134 134 0 0 1 153 163C107 194 156 194 156 194A106 106 0 0 0 234 142A108 108 0 0 1 381 100A108 108 0 0 0 413 167C301 180 183 223 183 417A196 196 0 0 0 235 553A182 182 0 0 0 240 686S282 700 379 635A478 478 0 0 0 632 635C729 700 771 686 771 686A181 181 0 0 0 776 552A195 195 0 0 0 828 417C828 223 710 180 597 167A121 121 0 0 0 632 74C632 6 631 -48 631 -65C631 -78 640 -94 666 -89A505 505 0 1 1 0 391z" />
    <glyph glyph-name="github-1"
      unicode="&#x67;&#x69;&#x74;&#x68;&#x75;&#x62;"
      horiz-adv-x="1024" d="M0 391A506 506 0 0 1 346 -89C371 -94 380 -78 380 -65C380 -53 380 -21 380 21C239 -9 209 89 209 89A134 134 0 0 1 153 163C107 194 156 194 156 194A106 106 0 0 0 234 142A108 108 0 0 1 381 100A108 108 0 0 0 413 167C301 180 183 223 183 417A196 196 0 0 0 235 553A182 182 0 0 0 240 686S282 700 379 635A478 478 0 0 0 632 635C729 700 771 686 771 686A181 181 0 0 0 776 552A195 195 0 0 0 828 417C828 223 710 180 597 167A121 121 0 0 0 632 74C632 6 631 -48 631 -65C631 -78 640 -94 666 -89A505 505 0 1 1 0 391z" />
    <glyph glyph-name="jira"
      unicode="&#xE177;"
      horiz-adv-x="1024" d="M996 413L513 896L28 413A41 41 0 0 1 28 355L513 -128L996 355A40 40 0 0 1 996 412zM513 233L361 384L513 535L665 384z" />
    <glyph glyph-name="jira-1"
      unicode="&#x6A;&#x69;&#x72;&#x61;"
      horiz-adv-x="1024" d="M996 413L513 896L28 413A41 41 0 0 1 28 355L513 -128L996 355A40 40 0 0 1 996 412zM513 233L361 384L513 535L665 384z" />
    <glyph glyph-name="jupyter"
      unicode="&#xE245;"
      horiz-adv-x="1024" d="M902 827A69 69 0 1 0 764 827A69 69 0 0 0 902 827zM510 112C687 112 840 178 909 274A415 415 0 0 0 111 274C180 178 332 112 510 112zM510 665C687 665 840 599 909 503A415 415 0 0 1 111 503C180 599 332 665 510 665zM118 688A46 46 0 1 1 118 781A46 46 0 0 1 118 688zM192 -128A74 74 0 1 1 192 20A74 74 0 0 1 192 -128z" />
    <glyph glyph-name="jupyter-1"
      unicode="&#x6A;&#x75;&#x70;&#x79;&#x74;&#x65;&#x72;"
      horiz-adv-x="1024" d="M902 827A69 69 0 1 0 764 827A69 69 0 0 0 902 827zM510 112C687 112 840 178 909 274A415 415 0 0 0 111 274C180 178 332 112 510 112zM510 665C687 665 840 599 909 503A415 415 0 0 1 111 503C180 599 332 665 510 665zM118 688A46 46 0 1 1 118 781A46 46 0 0 1 118 688zM192 -128A74 74 0 1 1 192 20A74 74 0 0 1 192 -128z" />
    <glyph glyph-name="kafka"
      unicode="&#xE1DC;"
      horiz-adv-x="1024" d="M809 208A126 126 0 0 0 557 208A123 123 0 0 0 560 235L498 272A163 163 0 0 0 413 225V151A126 126 0 1 0 347 151V226A163 163 0 0 0 347 544V619A126 126 0 1 0 413 619V545A162 162 0 0 0 504 491L562 526A124 124 0 0 0 557 561A127 127 0 1 0 596 469L536 433A151 151 0 0 0 534 329L591 294A126 126 0 0 0 809 208z" />
    <glyph glyph-name="kafka-1"
      unicode="&#x6B;&#x61;&#x66;&#x6B;&#x61;"
      horiz-adv-x="1024" d="M809 208A126 126 0 0 0 557 208A123 123 0 0 0 560 235L498 272A163 163 0 0 0 413 225V151A126 126 0 1 0 347 151V226A163 163 0 0 0 347 544V619A126 126 0 1 0 413 619V545A162 162 0 0 0 504 491L562 526A124 124 0 0 0 557 561A127 127 0 1 0 596 469L536 433A151 151 0 0 0 534 329L591 294A126 126 0 0 0 809 208z" />
    <glyph glyph-name="laicon"
      unicode="&#xE145;"
      horiz-adv-x="1024" d="M743 375C754 363 760 347 760 327S754 291 743 278C731 266 716 259 697 259S663 266 651 278C639 291 634 307 634 327S639 363 651 375C663 388 678 394 697 394S731 388 743 375zM1024 896V-128H0V896H1024zM489 269C489 275 487 278 481 278H290V595C290 601 287 604 280 604H189C182 604 179 601 179 595V184C179 178 182 175 189 175H481C487 175 489 178 489 184V269zM856 470C856 476 853 479 847 479H774C768 479 765 476 765 470L763 443A104 104 0 0 1 724 474C707 481 689 485 671 485C643 485 618 478 596 464C575 451 558 433 546 409C534 386 528 359 528 327C528 296 534 268 546 244C558 220 575 202 596 188C618 175 643 169 671 169C710 169 741 183 763 211L765 184C765 178 768 175 774 175H847C853 175 856 178 856 184V470z" />
    <glyph glyph-name="laicon-1"
      unicode="&#x6C;&#x61;&#x69;&#x63;&#x6F;&#x6E;"
      horiz-adv-x="1024" d="M743 375C754 363 760 347 760 327S754 291 743 278C731 266 716 259 697 259S663 266 651 278C639 291 634 307 634 327S639 363 651 375C663 388 678 394 697 394S731 388 743 375zM1024 896V-128H0V896H1024zM489 269C489 275 487 278 481 278H290V595C290 601 287 604 280 604H189C182 604 179 601 179 595V184C179 178 182 175 189 175H481C487 175 489 178 489 184V269zM856 470C856 476 853 479 847 479H774C768 479 765 476 765 470L763 443A104 104 0 0 1 724 474C707 481 689 485 671 485C643 485 618 478 596 464C575 451 558 433 546 409C534 386 528 359 528 327C528 296 534 268 546 244C558 220 575 202 596 188C618 175 643 169 671 169C710 169 741 183 763 211L765 184C765 178 768 175 774 175H847C853 175 856 178 856 184V470z" />
    <glyph glyph-name="laicon-alt"
      unicode="&#xE144;"
      horiz-adv-x="1024" d="M1024 896V-128H0V896H1024zM682 494H678C663 494 620 492 592 472C565 452 553 426 553 388H626L627 393C629 405 638 417 645 422C652 428 665 433 679 433C692 433 712 430 721 422C730 414 732 407 732 401C732 394 728 384 723 379C718 374 703 371 694 369C683 367 620 359 601 351C590 346 566 337 553 311C539 285 539 243 547 229L552 219C556 211 560 204 571 195C590 179 625 175 657 176C665 176 691 183 699 187C707 190 723 198 734 211C734 211 736 190 739 184C740 184 744 184 749 184L775 184C787 184 800 184 807 184L814 184V389L814 393C813 413 803 454 773 473C740 495 694 494 678 494zM295 592H211V184H498V259H295V592zM734 332L732 290L730 283C725 263 713 252 701 244C686 235 669 233 655 233C629 235 622 252 622 268C622 279 627 292 635 297C643 303 653 307 662 310C671 313 681 314 689 316C697 317 710 320 717 322C725 325 729 329 734 332z" />
    <glyph glyph-name="laicon-alt-1"
      unicode="&#x6C;&#x61;&#x69;&#x63;&#x6F;&#x6E;&#x5F;&#x61;&#x6C;&#x74;"
      horiz-adv-x="1024" d="M1024 896V-128H0V896H1024zM682 494H678C663 494 620 492 592 472C565 452 553 426 553 388H626L627 393C629 405 638 417 645 422C652 428 665 433 679 433C692 433 712 430 721 422C730 414 732 407 732 401C732 394 728 384 723 379C718 374 703 371 694 369C683 367 620 359 601 351C590 346 566 337 553 311C539 285 539 243 547 229L552 219C556 211 560 204 571 195C590 179 625 175 657 176C665 176 691 183 699 187C707 190 723 198 734 211C734 211 736 190 739 184C740 184 744 184 749 184L775 184C787 184 800 184 807 184L814 184V389L814 393C813 413 803 454 773 473C740 495 694 494 678 494zM295 592H211V184H498V259H295V592zM734 332L732 290L730 283C725 263 713 252 701 244C686 235 669 233 655 233C629 235 622 252 622 268C622 279 627 292 635 297C643 303 653 307 662 310C671 313 681 314 689 316C697 317 710 320 717 322C725 325 729 329 734 332z" />
    <glyph glyph-name="microsoft-excel"
      unicode="&#xE148;"
      horiz-adv-x="1024" d="M960 629V-2C960 -36 932 -64 898 -64H267V629H960zM216 629V-64H126C92 -64 64 -36 64 -2V629H216zM534 446H448L558 289V288L447 128H526L603 240H605L682 128H765L652 287V288L766 446H685L610 332H608L534 446zM215 832V680H64V770C64 804 92 832 126 832H215zM898 832C932 832 960 804 960 770V680H267V832z" />
    <glyph glyph-name="microsoft-excel-1"
      unicode="&#x6D;&#x69;&#x63;&#x72;&#x6F;&#x73;&#x6F;&#x66;&#x74;&#x5F;&#x65;&#x78;&#x63;&#x65;&#x6C;"
      horiz-adv-x="1024" d="M960 629V-2C960 -36 932 -64 898 -64H267V629H960zM216 629V-64H126C92 -64 64 -36 64 -2V629H216zM534 446H448L558 289V288L447 128H526L603 240H605L682 128H765L652 287V288L766 446H685L610 332H608L534 446zM215 832V680H64V770C64 804 92 832 126 832H215zM898 832C932 832 960 804 960 770V680H267V832z" />
    <glyph glyph-name="microsoft-powerpoint"
      unicode="&#xE149;"
      horiz-adv-x="1024" d="M512 819V384H947C947 144 752 -51 512 -51S77 144 77 384C77 399 78 414 79 428C82 458 88 486 96 513A430 430 0 0 0 151 627C159 639 167 650 176 661C194 682 214 702 235 720C310 782 407 819 512 819zM947 544V472H599V544H947zM947 679V607H599V679H947zM947 814V742H599V814H947z" />
    <glyph glyph-name="microsoft-powerpoint-1"
      unicode="&#x6D;&#x69;&#x63;&#x72;&#x6F;&#x73;&#x6F;&#x66;&#x74;&#x5F;&#x70;&#x6F;&#x77;&#x65;&#x72;&#x70;&#x6F;&#x69;&#x6E;&#x74;"
      horiz-adv-x="1024" d="M512 819V384H947C947 144 752 -51 512 -51S77 144 77 384C77 399 78 414 79 428C82 458 88 486 96 513A430 430 0 0 0 151 627C159 639 167 650 176 661C194 682 214 702 235 720C310 782 407 819 512 819zM947 544V472H599V544H947zM947 679V607H599V679H947zM947 814V742H599V814H947z" />
    <glyph glyph-name="microsoft-word"
      unicode="&#xE14A;"
      horiz-adv-x="1024" d="M929 74V3H100V74H929zM929 212V141H100V212H929zM929 351V279H100V351H929zM930 489V417H584V489H930zM185 765L228 567L279 765H351L402 567L446 765H536L446 429H368L315 620L262 429H184L94 765H185zM930 627V555H584V627H930zM930 765V694H584V765H930z" />
    <glyph glyph-name="microsoft-word-1"
      unicode="&#x6D;&#x69;&#x63;&#x72;&#x6F;&#x73;&#x6F;&#x66;&#x74;&#x5F;&#x77;&#x6F;&#x72;&#x64;"
      horiz-adv-x="1024" d="M929 74V3H100V74H929zM929 212V141H100V212H929zM929 351V279H100V351H929zM930 489V417H584V489H930zM185 765L228 567L279 765H351L402 567L446 765H536L446 429H368L315 620L262 429H184L94 765H185zM930 627V555H584V627H930zM930 765V694H584V765H930z" />
    <glyph glyph-name="mlflow"
      unicode="&#xE1DF;"
      horiz-adv-x="1024" d="M986 384A474 474 0 0 0 236 -1L258 15L392 114L519 208V89A295 295 0 0 1 727 587L873 690A472 472 0 0 0 986 384zM512 858A474 474 0 0 1 140 91L136 99C138 100 214 154 280 202A295 295 0 0 0 512 679V581L618 660L621 662L778 776A471 471 0 0 1 512 858z" />
    <glyph glyph-name="mlflow-1"
      unicode="&#x6D;&#x6C;&#x66;&#x6C;&#x6F;&#x77;"
      horiz-adv-x="1024" d="M986 384A474 474 0 0 0 236 -1L258 15L392 114L519 208V89A295 295 0 0 1 727 587L873 690A472 472 0 0 0 986 384zM512 858A474 474 0 0 1 140 91L136 99C138 100 214 154 280 202A295 295 0 0 0 512 679V581L618 660L621 662L778 776A471 471 0 0 1 512 858z" />
    <glyph glyph-name="opera-web"
      unicode="&#xE1EB;"
      horiz-adv-x="1024" d="M319 227L160 68A473 473 0 0 0 828 736L669 577A247 247 0 0 1 512 634A250 250 0 0 1 262 384A247 247 0 0 1 319 227zM864 700L705 541A248 248 0 0 0 355 191L196 32A473 473 0 0 1 864 700z" />
    <glyph glyph-name="opera-web-1"
      unicode="&#x6F;&#x70;&#x65;&#x72;&#x61;&#x5F;&#x77;&#x65;&#x62;"
      horiz-adv-x="1024" d="M319 227L160 68A473 473 0 0 0 828 736L669 577A247 247 0 0 1 512 634A250 250 0 0 1 262 384A247 247 0 0 1 319 227zM864 700L705 541A248 248 0 0 0 355 191L196 32A473 473 0 0 1 864 700z" />
    <glyph glyph-name="sketch"
      unicode="&#xE175;"
      horiz-adv-x="1024" d="M687 501L512 -57L342 501zM24 501H288L430 36zM1000 501L596 39L741 501zM1006 552H746V825H799zM282 825V552H18L223 825zM695 825V552H333V825z" />
    <glyph glyph-name="sketch-1"
      unicode="&#x73;&#x6B;&#x65;&#x74;&#x63;&#x68;"
      horiz-adv-x="1024" d="M687 501L512 -57L342 501zM24 501H288L430 36zM1000 501L596 39L741 501zM1006 552H746V825H799zM282 825V552H18L223 825zM695 825V552H333V825z" />
    <glyph glyph-name="slack"
      unicode="&#xE179;"
      horiz-adv-x="1024" d="M215 249A108 108 0 1 0 108 356H215zM269 249A108 108 0 0 0 484 249V-20A108 108 0 1 0 269 -20zM377 681A108 108 0 1 0 484 788V681zM377 627A108 108 0 0 0 377 412H108A108 108 0 1 0 108 627zM809 519A108 108 0 1 0 916 412H809V519zM755 519A108 108 0 0 0 540 519V788A108 108 0 1 0 755 788zM647 87A108 108 0 1 0 540 -20V87zM647 142A108 108 0 0 0 647 357H916A108 108 0 1 0 916 142z" />
    <glyph glyph-name="slack-1"
      unicode="&#x73;&#x6C;&#x61;&#x63;&#x6B;"
      horiz-adv-x="1024" d="M215 249A108 108 0 1 0 108 356H215zM269 249A108 108 0 0 0 484 249V-20A108 108 0 1 0 269 -20zM377 681A108 108 0 1 0 484 788V681zM377 627A108 108 0 0 0 377 412H108A108 108 0 1 0 108 627zM809 519A108 108 0 1 0 916 412H809V519zM755 519A108 108 0 0 0 540 519V788A108 108 0 1 0 755 788zM647 87A108 108 0 1 0 540 -20V87zM647 142A108 108 0 0 0 647 357H916A108 108 0 1 0 916 142z" />
    <glyph glyph-name="spotify"
      unicode="&#xE285;"
      horiz-adv-x="1024" d="M512 827A443 443 0 1 1 512 -59A443 443 0 0 1 512 827zM428 576C433 577 438 577 441 577C542 576 630 564 714 533A436 436 0 0 0 794 496A38 38 0 0 0 796 433C783 424 769 422 756 430C688 469 613 487 536 496A753 753 0 0 1 366 496C337 492 308 487 280 478C258 472 237 483 231 504C225 524 236 545 258 551A572 572 0 0 0 377 573C396 575 414 576 428 576zM433 435L443 435C531 435 615 419 695 382C710 375 724 367 738 359A31 31 0 0 0 750 315A32 32 0 0 0 706 304C650 338 590 356 527 366A546 546 0 0 1 345 363C329 360 314 356 299 352C281 347 263 356 258 373C253 390 263 407 281 413A536 536 0 0 0 412 435C419 435 426 435 433 435zM440 302H448C519 302 588 290 652 259C665 253 678 246 690 239C703 231 707 216 700 203C692 191 677 187 664 195C611 227 553 244 491 250C429 255 368 248 307 234C294 232 284 236 278 246A24 24 0 0 0 280 275A30 30 0 0 0 294 283C336 293 379 300 423 302C428 302 434 302 440 302z" />
    <glyph glyph-name="spotify-1"
      unicode="&#x73;&#x70;&#x6F;&#x74;&#x69;&#x66;&#x79;"
      horiz-adv-x="1024" d="M512 827A443 443 0 1 1 512 -59A443 443 0 0 1 512 827zM428 576C433 577 438 577 441 577C542 576 630 564 714 533A436 436 0 0 0 794 496A38 38 0 0 0 796 433C783 424 769 422 756 430C688 469 613 487 536 496A753 753 0 0 1 366 496C337 492 308 487 280 478C258 472 237 483 231 504C225 524 236 545 258 551A572 572 0 0 0 377 573C396 575 414 576 428 576zM433 435L443 435C531 435 615 419 695 382C710 375 724 367 738 359A31 31 0 0 0 750 315A32 32 0 0 0 706 304C650 338 590 356 527 366A546 546 0 0 1 345 363C329 360 314 356 299 352C281 347 263 356 258 373C253 390 263 407 281 413A536 536 0 0 0 412 435C419 435 426 435 433 435zM440 302H448C519 302 588 290 652 259C665 253 678 246 690 239C703 231 707 216 700 203C692 191 677 187 664 195C611 227 553 244 491 250C429 255 368 248 307 234C294 232 284 236 278 246A24 24 0 0 0 280 275A30 30 0 0 0 294 283C336 293 379 300 423 302C428 302 434 302 440 302z" />
    <glyph glyph-name="tiktok"
      unicode="&#xE286;"
      horiz-adv-x="1024" d="M412 -42C398 -42 326 -41 261 3A309 309 0 0 0 196 65C173 94 159 127 155 137C149 156 136 199 138 240C141 307 163 351 172 367C188 396 210 423 236 445A278 278 0 0 0 436 510L467 508V328L428 334C368 344 311 295 311 234C311 178 356 133 412 133C429 133 446 137 461 145C475 154 488 165 497 179C506 193 511 209 512 226V812H687L690 762C694 740 704 707 733 675A189 189 0 0 1 785 635C817 619 845 616 852 615L883 613V438L847 441C827 443 798 446 774 453C730 464 699 481 689 487V232C689 214 684 170 671 136C659 105 642 77 621 52C618 48 584 9 528 -17C478 -41 434 -42 417 -42H412z" />
    <glyph glyph-name="tiktok-1"
      unicode="&#x74;&#x69;&#x6B;&#x74;&#x6F;&#x6B;"
      horiz-adv-x="1024" d="M412 -42C398 -42 326 -41 261 3A309 309 0 0 0 196 65C173 94 159 127 155 137C149 156 136 199 138 240C141 307 163 351 172 367C188 396 210 423 236 445A278 278 0 0 0 436 510L467 508V328L428 334C368 344 311 295 311 234C311 178 356 133 412 133C429 133 446 137 461 145C475 154 488 165 497 179C506 193 511 209 512 226V812H687L690 762C694 740 704 707 733 675A189 189 0 0 1 785 635C817 619 845 616 852 615L883 613V438L847 441C827 443 798 446 774 453C730 464 699 481 689 487V232C689 214 684 170 671 136C659 105 642 77 621 52C618 48 584 9 528 -17C478 -41 434 -42 417 -42H412z" />
    <glyph glyph-name="tumblr"
      unicode="&#xE287;"
      horiz-adv-x="1024" d="M411 806H584V598H746V409H584V216C584 188 591 173 600 164C609 155 626 148 656 148H752V-49H552C514 -46 468 -34 428 -9C373 26 334 87 334 184V409H212V572L237 579C349 610 398 698 408 777L411 806z" />
    <glyph glyph-name="tumblr-1"
      unicode="&#x74;&#x75;&#x6D;&#x62;&#x6C;&#x72;"
      horiz-adv-x="1024" d="M411 806H584V598H746V409H584V216C584 188 591 173 600 164C609 155 626 148 656 148H752V-49H552C514 -46 468 -34 428 -9C373 26 334 87 334 184V409H212V572L237 579C349 610 398 698 408 777L411 806z" />
    <glyph glyph-name="twitter"
      unicode="&#xE1DA;"
      horiz-adv-x="1024" d="M340 -7C688 -7 879 281 879 531C879 540 879 548 878 556A388 388 0 0 1 973 654A384 384 0 0 0 864 624A189 189 0 0 1 947 729A383 383 0 0 0 827 683A188 188 0 0 1 689 742A189 189 0 0 1 500 553C500 538 502 524 505 510A537 537 0 0 0 115 708A190 190 0 0 1 90 613C90 547 123 489 174 456A186 186 0 0 0 88 479V477A189 189 0 0 1 240 291A189 189 0 0 0 155 288A189 189 0 0 1 331 157A380 380 0 0 0 51 79A527 527 0 0 1 340 -7z" />
    <glyph glyph-name="twitter-1"
      unicode="&#x74;&#x77;&#x69;&#x74;&#x74;&#x65;&#x72;"
      horiz-adv-x="1024" d="M340 -7C688 -7 879 281 879 531C879 540 879 548 878 556A388 388 0 0 1 973 654A384 384 0 0 0 864 624A189 189 0 0 1 947 729A383 383 0 0 0 827 683A188 188 0 0 1 689 742A189 189 0 0 1 500 553C500 538 502 524 505 510A537 537 0 0 0 115 708A190 190 0 0 1 90 613C90 547 123 489 174 456A186 186 0 0 0 88 479V477A189 189 0 0 1 240 291A189 189 0 0 0 155 288A189 189 0 0 1 331 157A380 380 0 0 0 51 79A527 527 0 0 1 340 -7z" />
    <glyph glyph-name="uit"
      unicode="&#xE14B;"
      horiz-adv-x="1024" d="M964 896L881 -26L512 -128L143 -26L60 896H964zM346 708H228L280 132L512 67L743 132L795 708H681L638 219L512 186L385 219L346 708z" />
    <glyph glyph-name="uit-1"
      unicode="&#x75;&#x69;&#x74;"
      horiz-adv-x="1024" d="M964 896L881 -26L512 -128L143 -26L60 896H964zM346 708H228L280 132L512 67L743 132L795 708H681L638 219L512 186L385 219L346 708z" />
    <glyph glyph-name="visual-studio-code"
      unicode="&#xE28C;"
      horiz-adv-x="1024" d="M964 766L764 862A58 58 0 0 1 749 867L747 867C746 867 744 867 742 868C741 868 739 868 738 868H735C732 868 730 868 728 867C728 867 727 867 727 867A60 60 0 0 1 694 850L311 501L144 627A40 40 0 0 1 118 635A40 40 0 0 1 92 625L39 576A40 40 0 0 1 26 550A40 40 0 0 1 39 516L183 384L39 252A40 40 0 0 1 26 230A42 42 0 0 1 26 218A41 41 0 0 1 39 192L92 144A41 41 0 0 1 144 141L311 268L694 -82C700 -88 707 -92 715 -95C721 -98 728 -99 735 -99H737C740 -99 742 -99 744 -99L749 -98C750 -98 751 -98 752 -97C754 -97 756 -97 757 -96C757 -96 757 -96 758 -96C760 -95 762 -94 764 -94L964 3C985 13 998 34 998 58V711C998 734 985 755 964 766H964zM755 605V164L464 384L755 605V605z" />
    <glyph glyph-name="visual-studio-code-1"
      unicode="&#x76;&#x69;&#x73;&#x75;&#x61;&#x6C;&#x5F;&#x73;&#x74;&#x75;&#x64;&#x69;&#x6F;&#x5F;&#x63;&#x6F;&#x64;&#x65;"
      horiz-adv-x="1024" d="M964 766L764 862A58 58 0 0 1 749 867L747 867C746 867 744 867 742 868C741 868 739 868 738 868H735C732 868 730 868 728 867C728 867 727 867 727 867A60 60 0 0 1 694 850L311 501L144 627A40 40 0 0 1 118 635A40 40 0 0 1 92 625L39 576A40 40 0 0 1 26 550A40 40 0 0 1 39 516L183 384L39 252A40 40 0 0 1 26 230A42 42 0 0 1 26 218A41 41 0 0 1 39 192L92 144A41 41 0 0 1 144 141L311 268L694 -82C700 -88 707 -92 715 -95C721 -98 728 -99 735 -99H737C740 -99 742 -99 744 -99L749 -98C750 -98 751 -98 752 -97C754 -97 756 -97 757 -96C757 -96 757 -96 758 -96C760 -95 762 -94 764 -94L964 3C985 13 998 34 998 58V711C998 734 985 755 964 766H964zM755 605V164L464 384L755 605V605z" />
    <glyph glyph-name="yanagishima"
      unicode="&#xE16B;"
      horiz-adv-x="1024" d="M1023 827L512 -59L427 89L853 827H1023zM171 827L427 384L342 237L1 827H171zM683 827L512 532L342 827H683z" />
    <glyph glyph-name="yanagishima-1"
      unicode="&#x79;&#x61;&#x6E;&#x61;&#x67;&#x69;&#x73;&#x68;&#x69;&#x6D;&#x61;"
      horiz-adv-x="1024" d="M1023 827L512 -59L427 89L853 827H1023zM171 827L427 384L342 237L1 827H171zM683 827L512 532L342 827H683z" />
    <glyph glyph-name="zeplin"
      unicode="&#xE24C;"
      horiz-adv-x="1024" d="M661 275C548 231 428 195 333 176C285 167 250 163 223 163C250 139 287 121 334 106C369 97 406 92 446 92C519 92 599 107 680 136C889 213 1025 362 1016 492C954 418 808 333 661 275zM572 481C348 394 184 251 182 216L182 215C208 199 404 230 642 323C876 414 996 528 996 556C989 562 970 566 941 566C868 566 731 543 571 481zM168 288C189 310 217 335 253 363C338 427 448 487 553 528C660 570 773 600 864 612C896 616 923 617 946 617C933 627 918 637 901 645C798 693 648 689 499 634C362 585 257 504 203 417C181 368 169 325 168 288zM137 191A40 40 0 0 0 136 193C135 194 135 195 135 195L134 196C134 197 134 197 133 198C133 198 133 199 133 199C110 253 112 318 139 395L37 358C29 355 12 349 9 331L7 315L100 209C106 201 110 191 110 181L107 53C107 43 112 33 120 28L136 19L279 71C210 100 162 139 137 191zM779 42C747 42 708 65 657 112C604 162 543 234 487 315C430 396 383 478 355 545C331 601 305 680 354 714C391 740 448 719 527 641L480 593C422 651 396 657 391 658C392 655 390 633 416 570C443 508 487 430 541 353C595 275 652 207 702 161C746 120 768 111 776 109C777 120 774 149 749 205L810 232C836 172 865 89 815 53C805 46 792 42 779 42zM614 -18C558 -18 529 57 512 113C491 182 474 275 466 374C457 472 457 566 466 639C473 699 490 780 549 786L555 786C613 786 643 706 661 645L597 627C578 690 562 711 555 717C550 711 539 690 532 630C524 563 524 474 532 379C540 285 556 197 575 132C593 75 607 56 613 51C619 59 633 86 640 168L706 163C700 88 685 -12 620 -18L614 -18z" />
    <glyph glyph-name="zeplin-1"
      unicode="&#x7A;&#x65;&#x70;&#x6C;&#x69;&#x6E;"
      horiz-adv-x="1024" d="M661 275C548 231 428 195 333 176C285 167 250 163 223 163C250 139 287 121 334 106C369 97 406 92 446 92C519 92 599 107 680 136C889 213 1025 362 1016 492C954 418 808 333 661 275zM572 481C348 394 184 251 182 216L182 215C208 199 404 230 642 323C876 414 996 528 996 556C989 562 970 566 941 566C868 566 731 543 571 481zM168 288C189 310 217 335 253 363C338 427 448 487 553 528C660 570 773 600 864 612C896 616 923 617 946 617C933 627 918 637 901 645C798 693 648 689 499 634C362 585 257 504 203 417C181 368 169 325 168 288zM137 191A40 40 0 0 0 136 193C135 194 135 195 135 195L134 196C134 197 134 197 133 198C133 198 133 199 133 199C110 253 112 318 139 395L37 358C29 355 12 349 9 331L7 315L100 209C106 201 110 191 110 181L107 53C107 43 112 33 120 28L136 19L279 71C210 100 162 139 137 191zM779 42C747 42 708 65 657 112C604 162 543 234 487 315C430 396 383 478 355 545C331 601 305 680 354 714C391 740 448 719 527 641L480 593C422 651 396 657 391 658C392 655 390 633 416 570C443 508 487 430 541 353C595 275 652 207 702 161C746 120 768 111 776 109C777 120 774 149 749 205L810 232C836 172 865 89 815 53C805 46 792 42 779 42zM614 -18C558 -18 529 57 512 113C491 182 474 275 466 374C457 472 457 566 466 639C473 699 490 780 549 786L555 786C613 786 643 706 661 645L597 627C578 690 562 711 555 717C550 711 539 690 532 630C524 563 524 474 532 379C540 285 556 197 575 132C593 75 607 56 613 51C619 59 633 86 640 168L706 163C700 88 685 -12 620 -18L614 -18z" />
  </font>
</defs>
</svg>
