<?xml version="1.0" standalone="no"?>
<!DOCTYPE svg PUBLIC "-//W3C//DTD SVG 1.1//EN" "http://www.w3.org/Graphics/SVG/1.1/DTD/svg11.dtd" >
<svg xmlns="http://www.w3.org/2000/svg">
<metadata>
LAICON Regular Version 16.17
Copyright (c) LINE Corporation
</metadata>
<defs>
  <font id="laicon-regular" horiz-adv-x="1024">
    <font-face font-family="laicon-regular"
      units-per-em="1024" ascent="896"
      descent="128"
      font-weight="400"
      font-style="Regular" />
    <missing-glyph horiz-adv-x="1024" /><glyph unicode="&#x20;" horiz-adv-x="512" d="" />
    <glyph glyph-name="address-book"
      unicode="&#xE15D;"
      horiz-adv-x="1024" d="M223 756V12H912V756H223zM157 763C157 796 183 822 216 822H920C952 822 979 796 979 763V5C979 -28 952 -54 920 -54H216C183 -54 157 -28 157 5V763zM485 532A35 35 0 0 0 485 530V519L480 512A68 68 0 0 1 478 506A61 61 0 0 1 477 499C477 497 477 496 477 496C478 488 480 486 481 486C481 485 481 485 481 485L481 485L481 485L482 485L490 480L495 472C506 450 514 437 521 426C528 419 532 410 534 404C537 395 539 386 540 378C540 369 540 360 538 351C537 344 533 329 519 320L519 320L397 235L397 235C390 231 382 224 375 216C372 212 370 209 369 206A15 15 0 0 1 368 204V190H768V205A15 15 0 0 1 767 207C766 209 763 212 760 216C754 224 746 231 739 235L739 235L617 320C604 329 599 343 597 351C595 360 595 369 596 377C597 386 598 395 601 403C603 409 607 418 613 425C620 437 628 450 640 472L644 480L652 485C654 485 654 485 654 486A3 3 0 0 1 655 486C655 486 657 489 658 496C658 496 658 497 658 498A58 58 0 0 1 657 505A66 66 0 0 1 655 512C655 512 655 512 655 512L650 519V530A35 35 0 0 0 650 532C649 579 608 617 568 617C527 617 485 579 485 532zM419 537C422 619 493 683 568 683C644 683 712 618 716 538A132 132 0 0 0 721 522C723 514 726 500 724 487C721 467 714 453 705 442A69 69 0 0 0 694 432A772 772 0 0 0 668 387L666 384L664 382A18 18 0 0 1 664 382A40 40 0 0 1 662 372A42 42 0 0 1 662 369L776 290C787 283 801 272 811 259C821 247 834 228 834 205V124H301V205C301 228 315 247 325 259C335 272 349 283 360 290L474 369A43 43 0 0 1 473 372C473 375 472 379 471 381A18 18 0 0 1 471 381L469 383L467 387C459 399 451 412 440 433A69 69 0 0 0 429 443C421 453 414 468 411 486C409 499 412 513 414 521A130 130 0 0 0 418 535C418 536 418 536 419 537zM419 528L419 528L419 528zM46 241H224V174H46V241zM46 588H224V522H46V588z" />
    <glyph glyph-name="album"
      unicode="&#xE000;"
      horiz-adv-x="1024" d="M524 498L347 222H701L524 498zM690 476A22 22 0 1 1 690 520A22 22 0 0 1 690 476zM690 553C660 553 635 529 635 498C635 468 660 443 690 443C721 443 745 468 745 498C745 529 721 553 690 553zM202 755V13H890V755H202zM136 763C136 795 162 822 195 822H897C930 822 956 795 956 763V5C956 -27 930 -54 897 -54H195C162 -54 136 -27 136 5V763zM23 240H169V174H23V240zM23 588H169V521H23V588z" />
    <glyph glyph-name="antenna"
      unicode="&#xE001;"
      horiz-adv-x="1024" d="M479 -119V427H545V-119H479zM434 427C434 470 469 505 512 505C555 505 590 470 590 427C590 384 555 349 512 349C469 349 434 384 434 427zM614 174C714 215 784 313 784 427C784 577 662 699 512 699C362 699 240 577 240 427C240 313 310 215 410 174V248C348 284 306 350 306 427C306 540 398 632 512 632C626 632 718 540 718 427C718 350 676 284 614 248V174zM614 -4C810 42 955 217 955 427C955 671 757 870 512 870S69 671 69 427C69 217 214 42 410 -4V64C252 109 136 254 136 427C136 634 304 803 512 803C720 803 888 634 888 427C888 254 772 109 614 64V-4z" />
    <glyph glyph-name="arrow-down"
      unicode="&#xE003;"
      horiz-adv-x="1024" d="M512 52L868 390L914 342L512 -39L110 342L156 390L512 52zM479 19V794H545V19H479z" />
    <glyph glyph-name="arrow-down-circle"
      unicode="&#xE002;"
      horiz-adv-x="1024" d="M512 791A407 407 0 1 1 512 -23A407 407 0 0 1 512 791zM38 384A474 474 0 1 0 986 384A474 474 0 0 0 38 384zM545 251V640H478V252L381 343L336 295L512 129L688 295L643 343L545 251z" />
    <glyph glyph-name="arrow-left"
      unicode="&#xE005;"
      horiz-adv-x="1024" d="M212 351L518 28L470 -18L89 384L470 786L518 740L212 417H922V351H212z" />
    <glyph glyph-name="arrow-left-circle"
      unicode="&#xE004;"
      horiz-adv-x="1024" d="M919 384A407 407 0 1 1 105 384A407 407 0 0 1 919 384zM512 858A474 474 0 0 0 986 384A474 474 0 0 0 177 49A474 474 0 0 0 512 858zM379 351H768V418H380L471 515L423 560L257 384L423 208L471 253L379 351z" />
    <glyph glyph-name="arrow-left-up"
      unicode="&#xE24E;"
      horiz-adv-x="1024" d="M197 699H742V632H264V154H197V699zM770 79L207 642L254 689L817 126L770 79z" />
    <glyph glyph-name="arrow-out-square"
      unicode="&#xE006;"
      horiz-adv-x="1024" d="M485 399L886 800L933 753L532 352L485 399zM894 762H661V828H960V530H894V762zM136 679A9 9 0 0 0 136 680C137 682 139 684 141 686A29 29 0 0 0 148 691C151 692 152 693 152 693H560V759H152C130 759 110 748 96 735C83 723 69 704 69 680V25C69 -31 115 -62 156 -62H799C848 -62 888 -27 888 19V427H822V19C822 16 818 5 799 5H156A22 22 0 0 0 142 10C138 13 136 18 136 25V679z" />
    <glyph glyph-name="arrow-right"
      unicode="&#xE008;"
      horiz-adv-x="1024" d="M844 384L506 740L554 786L935 384L554 -18L506 28L844 384zM877 417V351H102V417H877z" />
    <glyph glyph-name="arrow-right-circle"
      unicode="&#xE007;"
      horiz-adv-x="1024" d="M105 384A407 407 0 1 1 919 384A407 407 0 0 1 105 384zM512 -90A474 474 0 1 0 512 858A474 474 0 0 0 512 -90zM645 417H256V350H644L553 253L601 208L767 384L601 560L553 515L645 417z" />
    <glyph glyph-name="arrow-right-up"
      unicode="&#xE288;"
      horiz-adv-x="1024" d="M760 585L254 79L207 126L713 632H282V699H827V154H760V585z" />
    <glyph glyph-name="arrow-to-down"
      unicode="&#xE009;"
      horiz-adv-x="1024" d="M513 227L274 454L320 502L513 319L704 502L750 454L513 227zM545 735V282H479V735H545zM922 43H102V110H922V43z" />
    <glyph glyph-name="arrow-to-left"
      unicode="&#xE00A;"
      horiz-adv-x="1024" d="M478 351H863V417H479L630 576L582 622L355 383L582 146L630 192L478 351zM171 -26V794H238V-26H171z" />
    <glyph glyph-name="arrow-to-right"
      unicode="&#xE00B;"
      horiz-adv-x="1024" d="M546 417H161V351H545L394 192L442 146L669 385L442 622L394 576L546 417zM853 794V-26H786V794H853z" />
    <glyph glyph-name="arrow-to-top"
      unicode="&#xE00C;"
      horiz-adv-x="1024" d="M479 418V33H545V417L704 266L750 314L511 541L274 314L320 266L479 418zM102 725H922V658H102V725z" />
    <glyph glyph-name="arrow-turn-down-right"
      unicode="&#xE296;"
      horiz-adv-x="1024" d="M172 742V461A289 289 0 0 1 461 172H764L616 24L664 -24L892 205L664 433L616 386L764 238H461A223 223 0 0 0 238 461V742H172z" />
    <glyph glyph-name="arrow-u-turn-right"
      unicode="&#xE297;"
      horiz-adv-x="1024" d="M238 486A223 223 0 0 0 684 486V142L561 264L514 217L717 14L920 217L872 264L750 142V486A289 289 0 0 1 172 486V128H238V486z" />
    <glyph glyph-name="arrow-up"
      unicode="&#xE00E;"
      horiz-adv-x="1024" d="M512 716L156 378L110 426L512 807L914 426L868 378L512 716zM479 749H545V-26H479V749z" />
    <glyph glyph-name="arrow-up-circle"
      unicode="&#xE00D;"
      horiz-adv-x="1024" d="M512 -23A407 407 0 1 1 512 791A407 407 0 0 1 512 -23zM986 384A474 474 0 0 0 177 49A474 474 0 0 0 512 858A474 474 0 0 0 986 384zM479 517V128H546V516L643 425L688 473L512 639L336 473L381 425L479 517z" />
    <glyph glyph-name="arrows-diagonal-in"
      unicode="&#xE00F;"
      horiz-adv-x="1024" d="M376 520V701H443V453H195V520H376zM648 248V67H581V315H829V248H648zM929 -80L591 258L638 305L976 -33L929 -80zM386 463L48 801L95 848L433 510L386 463z" />
    <glyph glyph-name="arrows-diagonal-out"
      unicode="&#xE010;"
      horiz-adv-x="1024" d="M401 448L63 785L111 832L448 495L401 448zM913 -64L575 273L623 320L960 -17L913 -64zM904 -8V174H970V-74H722V-8H904zM120 776V594H54V842H302V776H120z" />
    <glyph glyph-name="arrows-up-down"
      unicode="&#xE20A;"
      horiz-adv-x="1024" d="M323 742V48H257V742H323zM290 95L422 227L469 180L290 1L111 180L158 227L290 95zM701 26V720H767V26H701zM734 673L602 541L555 588L734 767L913 588L866 541L734 673z" />
    <glyph glyph-name="asterisk"
      unicode="&#xE1E0;"
      horiz-adv-x="1024" d="M479 76V692H545V76H479zM762 201L229 509L262 567L795 259L762 201zM762 201L229 509L262 567L795 259L762 201zM795 509L262 201L229 259L762 567L795 509z" />
    <glyph glyph-name="astronaut"
      unicode="&#xE173;"
      horiz-adv-x="1024" d="M517 266C379 266 261 374 261 507S374 748 517 748S773 640 773 507S655 266 517 266zM517 681C415 681 328 604 328 507S410 333 517 333S707 410 707 507S620 681 517 681zM916 -82H118C97 -82 87 -67 87 -46C87 67 92 154 174 200C179 225 195 251 215 266C195 282 184 307 179 333C118 358 108 430 108 481C108 548 118 594 143 620C154 630 164 635 179 640C220 788 343 870 522 870S819 788 860 640C876 635 886 630 896 620C922 594 932 553 932 481C932 425 922 353 860 333C855 312 845 282 829 256C850 241 860 220 865 195C963 148 957 41 952 -51C952 -67 937 -82 916 -82zM148 -15H886C886 72 881 123 819 143C804 148 794 164 799 179C799 200 788 215 768 215C753 215 737 225 737 241C732 256 742 271 758 276C768 282 794 328 799 369C799 384 814 394 824 394S860 399 860 486C860 558 850 573 845 573H840C824 568 804 584 799 599V604C773 732 676 804 522 804C312 804 256 681 241 604C236 589 215 573 200 573H189S174 553 174 486C174 399 200 399 210 394C225 394 236 379 236 369C241 333 256 302 282 276C292 266 297 251 292 241C287 225 276 215 261 215S230 200 230 184S225 154 210 148C169 123 154 87 148 -15zM753 -46H686V20C686 31 676 36 671 36H358C348 36 338 26 338 20V-46H276V20C276 67 312 108 358 108H666C712 108 753 72 753 20V-46zM612 609L559 568L609 503L662 544L612 609z" />
    <glyph glyph-name="astronauts"
      unicode="&#xE1F2;"
      horiz-adv-x="1024" d="M189 266C189 287 189 307 195 333H77C77 369 82 404 82 415C108 466 154 486 154 486C169 492 179 502 179 517S169 543 159 548C143 553 133 573 128 589C123 604 113 609 97 609C97 609 92 614 92 625V630C92 640 92 666 97 676C108 676 123 686 123 696C133 732 169 799 261 799C353 799 389 737 399 696C404 686 415 676 425 676C430 666 430 640 430 630V625C430 614 425 609 430 609C415 609 404 599 399 589C399 584 394 573 389 563C420 579 456 584 492 589C497 599 502 614 502 625V630C502 660 502 701 476 727C471 732 466 737 461 737C430 819 358 865 266 865C174 865 102 819 67 737C61 737 56 732 51 727C26 701 26 666 26 630V625C26 584 46 558 72 548C77 543 82 532 87 522C67 507 41 481 26 440C15 410 15 323 15 297C15 276 31 266 46 266H189zM998 440C983 481 957 507 937 522C942 532 947 543 952 548C978 558 998 584 998 625V630C998 660 998 701 973 727C968 732 963 737 957 737C927 819 855 865 763 865C671 865 599 819 568 737C563 732 558 732 553 727C527 701 527 666 527 630V625C527 609 532 599 538 589C573 589 609 579 640 563C635 573 630 579 625 589C620 599 609 609 599 609C599 609 594 614 594 625V630C594 640 594 666 599 676C609 676 625 686 625 696C635 732 671 799 763 799C855 799 891 737 901 696C906 686 916 676 927 676C932 666 932 640 932 630V625C932 614 927 609 932 609C916 609 906 599 901 589C896 573 881 553 870 548C855 543 850 532 850 517S860 492 870 486C870 486 922 471 942 420C947 410 947 374 947 338H829C835 312 835 292 835 271H978C998 271 1009 287 1014 302C1014 328 1014 410 998 440zM763 67C748 108 717 133 696 154C707 164 712 174 717 184C742 195 763 220 763 266V271C763 307 763 348 737 374C732 379 727 384 722 384C686 471 609 522 517 522C420 522 343 471 312 384C307 379 302 379 297 374C271 348 271 307 271 271V266C271 225 292 195 317 184C323 174 328 164 338 154C312 138 287 108 271 67C256 36 256 -56 256 -82C256 -102 271 -113 287 -113H753C773 -113 783 -97 788 -82C778 -56 778 31 763 67zM558 -51H471V-26H558V-51zM625 -51V10C625 31 609 46 589 46H435C415 46 404 31 404 10V-51H312C312 -10 317 31 323 41C343 97 394 113 399 113C415 118 425 128 425 143S415 169 404 174C394 179 379 205 369 220C364 230 353 241 343 241C343 241 338 246 338 261V266C338 276 338 307 343 317C358 317 369 328 374 343C384 384 425 451 522 451C625 451 660 384 671 343C676 333 686 323 701 323C707 312 707 287 707 271V266C707 251 701 246 701 246C686 246 676 236 671 225C666 210 650 184 635 179C620 174 614 164 614 148S625 123 635 118C635 118 691 97 712 46C717 36 717 -5 722 -46H625V-51z" />
    <glyph glyph-name="at-mark"
      unicode="&#xE011;"
      horiz-adv-x="1024" d="M161 384A351 351 0 1 0 854 308C851 290 842 265 826 245C812 225 793 212 768 212A44 44 0 0 0 724 256V538A33 33 0 0 1 658 538A212 212 0 1 1 660 232A110 110 0 0 1 768 146C820 146 856 174 879 204C902 235 914 270 919 293A417 417 0 1 1 512 -33A33 33 0 1 1 512 33A351 351 0 0 0 161 384zM658 384A146 146 0 1 0 366 384A146 146 0 0 0 658 384z" />
    <glyph glyph-name="backward-layer"
      unicode="&#xE012;"
      horiz-adv-x="1024" d="M271 486C271 556 328 612 397 612H686V742C686 775 660 801 627 801H141C108 801 82 775 82 742V282C82 249 108 223 141 223H271V486zM338 486C338 519 364 545 397 545H883C916 545 942 519 942 486V26C942 -7 916 -33 883 -33H397C364 -33 338 -7 338 26V486zM404 479V33H876V479H404z" />
    <glyph glyph-name="balloons"
      unicode="&#xE225;"
      horiz-adv-x="1024" d="M714 317L562 -95A33 33 0 0 0 500 -95L353 309L415 332L531 13L652 340L714 317zM643 645A451 451 0 0 1 620 717C667 759 730 781 802 767C873 754 922 706 948 647C973 588 977 517 958 452C920 321 788 246 679 275C644 285 614 304 590 331A349 349 0 0 1 624 394C643 366 668 347 696 339C766 321 865 370 894 471C909 522 906 577 887 620C868 663 835 693 790 702C731 713 679 690 643 645zM147 704C122 647 118 574 138 507C176 374 306 307 399 332C489 357 556 473 528 609C501 745 399 836 276 813C216 802 172 761 147 704zM86 730C118 804 178 863 264 879C435 911 562 781 594 622C626 463 551 305 416 268C284 232 121 325 74 488C50 570 55 658 86 730zM189 694C224 760 276 773 302 777L313 711C297 709 269 703 248 663C235 639 234 605 240 574L174 562C167 601 167 652 189 694z" />
    <glyph glyph-name="barometer-speed"
      unicode="&#xE20D;"
      horiz-adv-x="1024" d="M314 111C382 47 473 8 573 8C781 8 950 176 950 384C950 592 781 760 573 760C473 760 382 721 314 657L267 704C347 780 455 827 573 827C818 827 1016 629 1016 384S818 -59 573 -59C455 -59 347 -12 267 64L314 111zM573 422A38 38 0 1 1 573 346A38 38 0 0 1 573 422zM468 384C468 442 515 489 573 489C631 489 678 442 678 384C678 326 631 279 573 279C515 279 468 326 468 384zM379 479H97V545H379V479zM282 351H0V417H282V351zM600 453L745 588L791 539L645 404L600 453zM379 223H97V289H379V223z" />
    <glyph glyph-name="bars"
      unicode="&#xE013;"
      horiz-adv-x="1024" d="M870 351H154V417H870V351zM870 53H154V120H870V53zM870 648H154V715H870V648z" />
    <glyph glyph-name="bars-check"
      unicode="&#xE213;"
      horiz-adv-x="1024" d="M861 668H77V735H861V668zM488 49H77V116H488V49zM861 359H77V425H861V359zM745 46L972 273L1020 226L745 -48L565 132L612 179L745 46z" />
    <glyph glyph-name="bars-music"
      unicode="&#xE22A;"
      horiz-adv-x="1024" d="M819 714H35V781H819V714zM409 95H35V162H409V95zM35 405H599V471H35V405zM539 123A136 136 0 0 0 675 259A136 136 0 0 0 743 240V530C743 579 804 603 837 566L977 409L928 365L810 497V131H810A136 136 0 0 0 774 31A136 136 0 0 0 678 -12A136 136 0 0 0 580 26A136 136 0 0 0 539 123V123zM674 192A69 69 0 1 1 674 54A69 69 0 0 1 674 192z" />
    <glyph glyph-name="bars-plus"
      unicode="&#xE22F;"
      horiz-adv-x="1024" d="M886 668H102V735H886V668zM514 49H102V116H514V49zM973 49H614V116H973V49zM760 -97V262H827V-97H760zM886 359H102V425H886V359z" />
    <glyph glyph-name="baseball-ball"
      unicode="&#xE014;"
      horiz-adv-x="1024" d="M512 786C290 786 110 606 110 384C110 162 290 -18 512 -18S914 162 914 384C914 606 734 786 512 786zM44 384C44 643 253 852 512 852C771 852 980 643 980 384C980 125 771 -84 512 -84C253 -84 44 125 44 384zM257 621A33 33 0 0 0 303 615C318 596 331 576 343 554A33 33 0 1 0 284 523A350 350 0 0 1 251 574A33 33 0 0 0 257 621zM350 445A33 33 0 0 0 388 416A422 422 0 0 0 391 344A33 33 0 0 0 325 346A356 356 0 0 1 322 407A33 33 0 0 0 350 445zM343 245A33 33 0 0 0 361 202A417 417 0 0 0 328 137A33 33 0 1 0 272 173A350 350 0 0 1 300 227A33 33 0 0 0 343 245zM764 618A33 33 0 0 0 770 571A350 350 0 0 1 742 527A33 33 0 0 0 684 559A417 417 0 0 0 718 611A33 33 0 0 0 764 618zM673 440A33 33 0 0 0 702 403A356 356 0 0 1 699 350A33 33 0 0 0 632 349A425 425 0 0 0 636 411A33 33 0 0 0 673 440zM682 241A33 33 0 0 0 726 223C733 207 741 191 750 176A33 33 0 0 0 739 131A33 33 0 0 0 693 142A417 417 0 0 0 665 197A33 33 0 0 0 682 241z" />
    <glyph glyph-name="beauty"
      unicode="&#xE270;"
      horiz-adv-x="1024" d="M512 709C318 709 161 552 161 358V153A284 284 0 0 0 114 -5L104 -18A33 33 0 0 0 49 18L58 32A218 218 0 0 1 95 153V358C95 589 282 776 512 776A33 33 0 1 0 512 709zM896 392A33 33 0 0 0 929 358V153A284 284 0 0 0 882 -5L872 -18A33 33 0 0 0 817 18L826 32A218 218 0 0 1 863 153V358A33 33 0 0 0 896 392zM248 358A33 33 0 0 0 282 392H742A33 33 0 0 0 776 358V230C776 85 658 -33 512 -33C366 -33 248 85 248 230V358zM315 325V230C315 122 403 33 512 33S709 122 709 230V325H315zM744 815A17 17 0 0 1 710 815L709 807A85 85 0 0 0 631 729L623 729A17 17 0 0 1 623 695L631 694A85 85 0 0 0 709 616L710 608A17 17 0 0 1 744 608L745 616A85 85 0 0 0 823 694L831 695A17 17 0 0 1 831 729L823 729A85 85 0 0 0 745 807L744 815zM893 615A13 13 0 0 1 868 615L867 609A64 64 0 0 0 809 551L803 550A13 13 0 0 1 803 525L809 524A64 64 0 0 0 867 466L868 460A13 13 0 0 1 893 460L894 466A64 64 0 0 0 952 524L959 525A13 13 0 0 1 959 550L952 551A64 64 0 0 0 894 609L893 615z" />
    <glyph glyph-name="beer"
      unicode="&#xE1B1;"
      horiz-adv-x="1024" d="M870 143H783V210H870C881 210 886 215 886 225V507C886 512 881 522 870 522H783V589H870C916 589 952 553 952 507V225C952 179 916 143 870 143zM737 -92H261C215 -92 179 -56 179 -10V323H246V-10C251 -15 256 -26 261 -26H732C742 -26 748 -20 748 -10V604H814V-10C814 -56 778 -92 737 -92zM276 297C138 297 77 399 77 507C77 568 113 625 169 655C189 758 271 835 374 855C471 876 568 840 635 763C655 768 681 773 707 768C788 753 819 676 819 604V573H614C512 573 486 517 456 445C425 379 389 297 276 297zM425 794C410 794 399 794 384 788C302 773 241 707 230 625L225 604L210 599C169 584 143 548 143 507C143 481 148 364 276 364C343 364 364 399 394 471C425 543 466 640 614 640H753C748 666 732 696 696 707C676 712 645 701 635 696L609 686L594 712C553 758 492 794 425 794zM456 205H389V92H456V205zM609 415H543V87H609V415z" />
    <glyph glyph-name="beginner-mark"
      unicode="&#xE2B2;"
      horiz-adv-x="1024" d="M914 707C914 826 782 898 682 834L512 726L342 834C242 898 110 826 110 707V224A136 136 0 0 1 171 111L443 -69C485 -96 539 -96 581 -69L853 111A136 136 0 0 1 914 224V707zM717 778C774 814 847 773 847 707V224C847 201 836 179 816 166L545 -12V668L717 778zM479 668V-12L208 166A69 69 0 0 0 177 224V707C177 773 250 814 307 778L479 668z" />
    <glyph glyph-name="bell"
      unicode="&#xE015;"
      horiz-adv-x="1024" d="M512 826A352 352 0 0 1 160 474V239C160 180 142 125 111 79A33 33 0 0 1 138 27H479V-76H545V27H886A33 33 0 0 1 913 79A284 284 0 0 0 864 239V474A352 352 0 0 1 512 826zM227 474A285 285 0 0 0 797 474V239C797 187 809 138 829 93H195A351 351 0 0 1 227 239V474z" />
    <glyph glyph-name="bell-slash"
      unicode="&#xE29F;"
      horiz-adv-x="1024" d="M823 639A352 352 0 0 1 160 474V239C160 180 142 125 111 79A33 33 0 0 1 138 27H210L130 -53L177 -100L971 693L924 740L823 639zM277 93H195A351 351 0 0 1 227 239V474A285 285 0 0 0 773 590L277 93zM864 474C864 481 864 488 863 494L797 428V239C797 187 809 138 829 93H462L396 27H479V-76H545V27H886A33 33 0 0 1 913 79A284 284 0 0 0 864 239V474z" />
    <glyph glyph-name="bicycle"
      unicode="&#xE016;"
      horiz-adv-x="1024" d="M231 407C142 407 69 335 69 246C69 156 142 84 231 84C320 84 393 156 393 246S320 407 231 407zM3 246C3 372 105 474 231 474C357 474 459 372 459 246C459 120 357 17 231 17C105 17 3 120 3 246zM793 407C704 407 631 335 631 246C631 156 704 84 793 84S955 156 955 246S882 407 793 407zM565 246C565 372 667 474 793 474C919 474 1021 372 1021 246C1021 120 919 17 793 17C667 17 565 120 565 246zM523 717A33 33 0 0 0 557 751H645L824 257A33 33 0 0 0 762 234L598 684H557A33 33 0 0 0 523 717zM322 593H671A33 33 0 1 0 671 526H368L262 234A33 33 0 0 0 200 257L322 593z" />
    <glyph glyph-name="billing-document"
      unicode="&#xE017;"
      horiz-adv-x="1024" d="M101 759C101 814 146 859 201 859H765C820 859 865 814 865 759V302H798V759A33 33 0 0 1 788 782A33 33 0 0 1 765 792H201A33 33 0 0 1 167 759V53C167 34 182 19 201 19H494V-47H201C146 -47 101 -2 101 53V759zM647 552H319V619H647V552zM647 372H319V439H647V372zM598 176A1 1 0 0 0 598 176C598 176 598 176 598 176zM602 179C607 176 615 171 628 167C653 159 690 154 732 154S811 159 837 167C849 171 857 176 862 179C857 183 849 187 837 191C811 199 774 205 732 205S653 199 628 191C615 187 607 183 602 179zM866 176A1 1 0 0 0 866 176C866 176 866 176 866 176zM866 182A1 1 0 0 0 866 183C866 183 866 183 866 182zM598 182A1 1 0 0 0 598 183C598 183 598 183 598 182zM612 240C644 250 686 256 732 256S820 250 852 240C868 235 883 228 894 219C905 211 916 198 916 179C916 161 905 147 894 139C883 130 868 124 852 119C820 108 778 102 732 102S644 108 612 119C596 124 582 130 570 139C560 147 548 161 548 179C548 198 560 211 570 219C582 228 596 235 612 240zM599 -3A22 22 0 0 1 601 -5C606 -8 615 -13 628 -17C653 -25 690 -31 732 -31S811 -25 837 -17C849 -13 858 -8 863 -5A22 22 0 0 1 865 -3V179H916V-5C916 -24 905 -37 894 -45C883 -54 868 -61 852 -66C820 -76 778 -82 732 -82S644 -76 612 -66C596 -61 582 -54 570 -45C560 -37 548 -24 548 -5V179H599V-3zM866 -2C866 -2 866 -2 866 -2A1 1 0 0 0 866 -2zM598 -2A1 1 0 0 0 598 -2C598 -2 598 -2 598 -2zM628 75C653 67 690 61 732 61S811 67 837 75C849 79 858 84 863 87C865 89 866 90 866 90C866 90 865 89 865 87H916C916 68 905 55 894 47C883 38 868 32 852 26C820 16 778 10 732 10S644 16 612 26C596 32 582 38 570 47C560 55 548 68 548 87H599C599 89 599 90 598 90C599 90 600 89 601 87C606 84 615 79 628 75zM598 90C598 90 598 90 598 90A1 1 0 0 0 598 90zM866 90C866 90 866 90 866 90A1 1 0 0 0 866 90z" />
    <glyph glyph-name="bitcoin"
      unicode="&#xE018;"
      horiz-adv-x="1024" d="M410 525V599H476V525H410zM515 525V599H581V525H515zM410 161V235H476V161H410zM515 161V235H581V161H515zM373 558H547C606 558 653 511 653 452C653 394 606 347 547 347H443V413H547A39 39 0 1 1 547 492H373V558zM443 413H572C631 413 678 366 678 308C678 249 631 202 572 202H373V268H572A39 39 0 1 1 572 347H443V413zM410 235V525H476V235H410zM512 791C287 791 105 609 105 384C105 159 287 -23 512 -23C737 -23 919 159 919 384C919 609 737 791 512 791zM38 384C38 646 250 858 512 858S986 646 986 384S774 -90 512 -90S38 122 38 384z" />
    <glyph glyph-name="block-quote-text"
      unicode="&#xE2A3;"
      horiz-adv-x="1024" d="M128 668H896V735H128V668zM358 351H896V417H358V351zM896 33H358V100H896V33zM138 435V15H205V435H138z" />
    <glyph glyph-name="book"
      unicode="&#xE1EA;"
      horiz-adv-x="1024" d="M388 517H163V584H388V517zM388 365H163V432H388V365zM388 213H163V280H388V213zM860 517H635V584H860V517zM860 365H635V432H860V365zM860 213H635V280H860V213zM479 648C479 719 535 780 607 780H918C965 780 1001 741 1001 695V105C1001 60 965 21 918 21H593C577 21 562 15 551 9A102 102 0 0 1 539 1A70 70 0 0 1 536 -2A33 33 0 0 0 512 -12H512A33 33 0 0 0 488 -1A33 33 0 0 0 479 23V648V648zM545 79C559 84 575 88 593 88H918C926 88 934 94 934 105V695C934 706 926 713 918 713H607C574 713 545 685 545 648V79zM106 713C98 713 90 706 90 695V105C90 94 98 88 106 88H432C449 88 465 84 479 79V644C479 684 448 713 414 713H106zM489 -2C489 -2 489 -2 489 -2L488 -2A70 70 0 0 1 485 1A102 102 0 0 1 473 9C462 15 448 21 432 21H106C59 21 23 60 23 105V695C23 741 59 780 106 780H414C488 780 545 718 545 644V21H512M512 21C489 -2 489 -2 489 -2L489 -2L489 -2" />
    <glyph glyph-name="book-push"
      unicode="&#xE240;"
      horiz-adv-x="1024" d="M870 768C870 810 836 845 794 845H218C154 845 102 793 102 730V38C102 -25 154 -77 218 -77H690A234 234 0 0 0 634 -10H218A49 49 0 0 0 169 38A49 49 0 0 0 218 87H604A236 236 0 0 0 604 104C604 121 605 138 609 154H218C200 154 184 150 169 143V730A49 49 0 0 0 218 778H794A10 10 0 0 0 804 768V335A234 234 0 0 0 837 337C848 337 859 337 870 335V768zM650 104C650 1 733 -82 837 -82C940 -82 1023 1 1023 104C1023 208 940 291 837 291C733 291 650 208 650 104zM818 144L759 85L730 114L838 222L946 114L917 85L858 144V-7H818V144z" />
    <glyph glyph-name="border-all"
      unicode="&#xE019;"
      horiz-adv-x="1024" d="M44 852H980V-84H44V852zM110 786V-18H914V786H110zM479 -51V819H545V-51H479zM77 417H947V351H77V417z" />
    <glyph glyph-name="border-bottom"
      unicode="&#xE01A;"
      horiz-adv-x="1024" d="M340 827V760H274V827H340zM545 622V556H479V622H545zM340 418V352H274V418H340zM545 417V351H479V417H545zM750 352V418H684V352H750zM545 146V212H479V146H545zM545 760V827H479V760H545zM750 827V760H684V827H750zM136 556V622H69V556H136zM136 417V351H69V417H136zM136 146V212H69V146H136zM136 827V760H69V827H136zM955 351V417H888V351H955zM955 622V556H888V622H955zM955 146V212H888V146H955zM955 827V760H888V827H955zM955 -59V8H69V-59H955z" />
    <glyph glyph-name="border-center-horizontal"
      unicode="&#xE01B;"
      horiz-adv-x="1024" d="M340 760V827H274V760H340zM545 622V556H479V622H545zM545 212V146H479V212H545zM545 827V760H479V827H545zM750 760V827H684V760H750zM136 622V556H69V622H136zM136 146V212H69V146H136zM136 827V760H69V827H136zM955 556V622H888V556H955zM955 212V146H888V212H955zM955 760V827H888V760H955zM955 418V352H69V418H955zM340 -58V8H274V-58H340zM545 8V-59H479V8H545zM750 -58V8H684V-58H750zM136 8V-59H69V8H136zM955 -59V8H888V-59H955z" />
    <glyph glyph-name="border-center-vertical"
      unicode="&#xE01C;"
      horiz-adv-x="1024" d="M750 760H684V827H750V760zM888 556H955V622H888V556zM340 351H274V417H340V351zM750 351H684V417H750V351zM955 351H888V417H955V351zM888 146H955V212H888V146zM274 760H340V827H274V760zM955 760H888V827H955V760zM684 -59H750V8H684V-59zM340 -59H274V8H340V-59zM888 -59H955V8H888V-59zM546 -59H480V827H546V-59zM70 556H136V622H70V556zM136 351H69V417H136V351zM70 146H136V212H70V146zM136 760H69V827H136V760zM69 -59H136V8H69V-59z" />
    <glyph glyph-name="border-inner"
      unicode="&#xE01D;"
      horiz-adv-x="1024" d="M135 760H69V827H135V760zM274 760H340V827H274V760zM750 760H683V827H750V760zM888 556H954V622H888V556zM888 146H954V212H888V146zM954 760H888V827H954V760zM683 -59H750V8H683V-59zM340 -59H274V8H340V-59zM888 -59H954V8H888V-59zM546 -59H479V351H70V417H479V827H546V417H955V351H546V-59zM136 556H70V622H136V556zM70 146H136V212H70V146zM69 -59H135V8H69V-59z" />
    <glyph glyph-name="border-left"
      unicode="&#xE01E;"
      horiz-adv-x="1024" d="M136 827V-59H69V827H136zM340 827V760H274V827H340zM545 622V556H479V622H545zM340 418V352H274V418H340zM545 418V352H479V418H545zM750 352V418H684V352H750zM545 146V212H479V146H545zM545 760V827H479V760H545zM750 827V760H684V827H750zM888 760H955V827H888V760zM340 8V-59H274V8H340zM545 -59V8H479V-59H545zM750 8V-59H684V8H750zM888 -59H955V8H888V-59zM888 352H955V418H888V352zM955 146H888V212H955V146zM888 556H955V622H888V556z" />
    <glyph glyph-name="border-none"
      unicode="&#xE01F;"
      horiz-adv-x="1024" d="M750 760H684V827H750V760zM888 556H955V622H888V556zM340 351H274V417H340V351zM750 351H684V417H750V351zM955 351H888V417H955V351zM888 146H955V212H888V146zM274 760H340V827H274V760zM955 760H888V827H955V760zM684 -59H750V8H684V-59zM340 -59H274V8H340V-59zM888 -59H955V8H888V-59zM136 556H70V622H136V556zM69 351H136V417H69V351zM136 146H70V212H136V146zM69 760H136V827H69V760zM136 -59H69V8H136V-59zM479 556H545V622H479V556zM544 351H478V417H544V351zM479 146H545V212H479V146zM544 760H478V827H544V760zM478 -59H544V8H478V-59z" />
    <glyph glyph-name="border-outer"
      unicode="&#xE020;"
      horiz-adv-x="1024" d="M684 351H750V417H684V351zM340 351H274V417H340V351zM479 556H545V622H479V556zM544 351H478V417H544V351zM479 146H545V212H479V146zM69 827H955V-59H69V827zM888 760H136V8H888V760z" />
    <glyph glyph-name="border-right"
      unicode="&#xE021;"
      horiz-adv-x="1024" d="M136 760H69V827H136V760zM684 827V760H750V827H684zM479 622V556H545V622H479zM274 352V418H340V352H274zM479 418V352H545V418H479zM684 418V352H750V418H684zM479 146V212H545V146H479zM479 760V827H545V760H479zM274 827V760H340V827H274zM684 8V-59H750V8H684zM479 -59V8H545V-59H479zM274 8V-59H340V8H274zM136 -59H69V8H136V-59zM888 827V-59H955V827H888zM136 352H69V418H136V352zM69 146H136V212H69V146zM136 556H69V622H136V556z" />
    <glyph glyph-name="border-style"
      unicode="&#xE023;"
      horiz-adv-x="1024" d="M136 -59V760H955V827H69V-59H136zM545 556V622H479V556H545zM340 352V418H274V352H340zM545 352V418H479V352H545zM750 418V352H684V418H750zM545 212V146H479V212H545zM340 -59V8H274V-59H340zM545 8V-59H479V8H545zM750 -59V8H684V-59H750zM955 -59H888V8H955V-59zM955 352H888V418H955V352zM888 146H955V212H888V146zM955 556H888V622H955V556z" />
    <glyph glyph-name="border-style-alt"
      unicode="&#xE022;"
      horiz-adv-x="1024" d="M69 827H136V760H69V827zM684 827V760H750V827H684zM479 556V622H545V556H479zM274 350V416H340V350H274zM479 416V350H545V416H479zM684 416V350H750V416H684zM479 212V146H545V212H479zM479 760V827H545V760H479zM274 827V760H340V827H274zM888 827V8H69V-59H955V827H888zM69 416H136V350H69V416zM136 622H69V556H136V622zM69 212H136V146H69V212z" />
    <glyph glyph-name="border-top"
      unicode="&#xE024;"
      horiz-adv-x="1024" d="M69 760H955V827H69V760zM69 556H136V622H69V556zM478 556H544V622H478V556zM478 351H544V417H478V351zM544 146H478V212H544V146zM274 351H340V417H274V351zM750 351H684V417H750V351zM136 351H69V417H136V351zM69 146H136V212H69V146zM136 8V-59H69V8H136zM888 556H955V622H888V556zM955 351H888V417H955V351zM888 146H955V212H888V146zM955 8V-59H888V8H955zM544 8V-59H478V8H544zM750 -59V8H684V-59H750zM340 8V-59H274V8H340z" />
    <glyph glyph-name="box"
      unicode="&#xE026;"
      horiz-adv-x="1024" d="M240 792A85 85 0 0 0 300 817H724A85 85 0 0 0 784 792L948 628C964 612 973 590 973 567L973 37C973 -11 935 -49 888 -49H136C89 -49 51 -11 51 37V567C51 590 60 612 76 628L240 792zM300 750A19 19 0 0 1 287 745L123 580A19 19 0 0 1 117 567V37C117 26 126 18 136 18H888A19 19 0 0 1 907 37L907 567A19 19 0 0 1 901 580L737 745A19 19 0 0 1 724 750H300zM940 556H84V622H940V556z" />
    <glyph glyph-name="box-check"
      unicode="&#xE025;"
      horiz-adv-x="1024" d="M477 253L644 419L691 372L477 159L333 303L380 350L477 253zM240 792A85 85 0 0 0 300 817H724A85 85 0 0 0 784 792L948 628C964 612 973 590 973 567L973 37C973 -11 935 -49 888 -49H136C89 -49 51 -11 51 37V567C51 590 60 612 76 628L240 792zM300 750A19 19 0 0 1 287 745L123 580A19 19 0 0 1 117 567V37C117 26 126 18 136 18H888A19 19 0 0 1 907 37L907 567A19 19 0 0 1 901 580L737 745A19 19 0 0 1 724 750H300zM940 556H84V622H940V556z" />
    <glyph glyph-name="boxes-3"
      unicode="&#xE1E5;"
      horiz-adv-x="1024" d="M471 824C497 840 527 840 558 824L717 727C742 712 758 686 758 655V471C758 440 742 415 717 399L558 307C532 292 502 292 476 307L307 399C282 415 266 440 266 471V655C266 686 282 712 307 727L471 824zM522 763C517 768 512 768 502 763L369 686L512 604L655 686L522 763zM691 630L548 548V379L686 456C691 461 696 466 696 471L691 630zM481 379V543L333 630V471C333 466 338 461 343 456L481 379zM681 456C707 471 737 471 763 456L922 364C947 348 963 323 963 292V108C963 77 947 51 922 36L768 -61C742 -77 712 -77 681 -61L522 31C497 46 481 72 481 102V287C481 317 497 343 522 358L681 456zM732 399C727 404 722 404 717 399L579 323L722 241C727 241 727 246 732 246L870 323L732 399zM901 261L768 184C763 179 758 174 758 169V10L896 87C901 92 906 97 906 102V261H901zM691 10V179L548 261V102C548 97 553 92 558 87L691 10zM256 456C282 471 312 471 338 456L497 364C522 348 538 323 538 292V108C538 77 522 51 497 36L338 -56C317 -77 287 -77 256 -61L97 31C72 46 56 72 56 102V287C56 317 72 343 97 358L256 456zM307 399C302 404 297 404 292 399L154 317L297 236C302 236 302 241 307 241L445 317L307 399zM481 261L343 184C338 179 333 174 333 169V10L471 87C476 92 481 97 481 102V261zM266 10V179L123 261V102C123 97 128 92 133 87L266 10z" />
    <glyph glyph-name="brackets-curly-i"
      unicode="&#xE2AD;"
      horiz-adv-x="1024" d="M256 776A136 136 0 0 1 120 640V461A44 44 0 0 0 77 417L51 417V351L77 351A44 44 0 0 0 120 307V128A136 136 0 0 1 256 -8H282V59H256A69 69 0 0 0 187 128V307C187 337 175 364 156 384C175 404 187 431 187 461V640C187 678 218 709 256 709H307V776H256zM768 776A136 136 0 0 0 904 640V461A44 44 0 0 1 947 417L973 417V351L947 351A44 44 0 0 1 904 307V128A136 136 0 0 0 768 -8H742V59H768A69 69 0 0 1 837 128V307C837 337 849 364 868 384A110 110 0 0 0 837 461V640A69 69 0 0 1 768 709H717V776H768zM479 118V476H545V118H479zM512 538A46 46 0 1 1 512 630A46 46 0 0 1 512 538z" />
    <glyph glyph-name="briefcase"
      unicode="&#xE185;"
      horiz-adv-x="1024" d="M132 604V21H892V604H132zM65 611C65 644 92 670 124 670H900C932 670 959 644 959 611V13C959 -19 932 -46 900 -46H124C92 -46 65 -19 65 13V611zM396 770V637H330V778C330 810 356 837 388 837H636C668 837 694 810 694 778V637H628V770H396z" />
    <glyph glyph-name="browser"
      unicode="&#xE027;"
      horiz-adv-x="1024" d="M118 711A231 231 0 0 1 118 703V70C118 64 118 60 118 57C122 57 127 56 134 56L905 56C906 60 906 64 906 70V703C906 706 906 709 906 712H134C127 712 122 712 118 711zM109 711L109 711L109 711zM134 778H906C926 778 948 773 962 752C972 736 973 716 973 703V70C973 57 972 37 963 20C958 11 950 2 939 -3C928 -8 917 -10 906 -10L134 -10C123 -10 112 -10 103 -8C93 -6 81 -3 70 7C60 16 56 29 54 39C52 49 51 60 51 70V703C51 713 52 724 54 734C56 744 61 757 73 766C84 774 96 776 105 777C114 778 124 778 134 778zM939 489H85V555H939V489zM285 599V665H352V599H285zM173 599V665H239V599H173z" />
    <glyph glyph-name="browser-arrow-up"
      unicode="&#xE2B6;"
      horiz-adv-x="1024" d="M285 599V665H352V599H285zM173 599V665H239V599H173zM118 489V70C118 64 118 60 118 57C122 57 127 56 135 56H666V-10H135A192 192 0 0 0 103 -8A61 61 0 0 0 70 7A58 58 0 0 0 54 39A165 165 0 0 0 51 70V703C51 713 52 724 54 734C56 744 61 757 73 766A62 62 0 0 0 105 777C114 778 124 778 134 778H906C926 778 948 773 962 752C972 736 973 716 973 703V307H906V489H118zM118 703V555H906V703C906 706 906 709 906 712H135C127 712 122 712 118 711A231 231 0 0 1 118 703zM877 142L925 93L972 141L844 269L715 141L762 93L810 142V-11H877V142z" />
    <glyph glyph-name="browser-times"
      unicode="&#xE2B5;"
      horiz-adv-x="1024" d="M173 665V599H239V665H173zM285 599V665H352V599H285zM118 70V489H906V307H973V703C973 716 972 736 962 752C948 773 926 778 906 778H135C124 778 114 778 105 777A62 62 0 0 1 73 766A53 53 0 0 1 54 734C52 724 51 713 51 703V70C51 59 52 49 54 39C56 29 60 16 70 7C81 -3 93 -7 103 -8C112 -10 123 -10 135 -10H653V56H135C127 56 122 57 118 57A181 181 0 0 0 118 70zM118 711C122 712 127 712 134 712H906C906 709 906 706 906 703V555H118V703C118 706 118 709 118 711zM1012 207L919 114L1012 20L965 -27L872 67L779 -27L732 20L825 114L732 207L779 254L872 161L965 254L1012 207z" />
    <glyph glyph-name="brush"
      unicode="&#xE028;"
      horiz-adv-x="1024" d="M155 153H905V86H155V153zM535 801C497 802 465 771 465 733V415A33 33 0 0 0 447 386L188 248A18 18 0 0 1 179 233V120C179 59 169 5 158 -39L846 -39C851 -39 855 -35 856 -31L856 -31C864 1 876 63 876 120V232A18 18 0 0 1 866 248S866 248 866 248L620 378A33 33 0 0 0 602 408V725C602 767 571 799 538 801L535 801zM846 -105L122 -105C104 -105 94 -96 89 -89A33 33 0 0 0 84 -60C97 -16 112 48 112 120V233A84 84 0 0 0 157 307L398 435V733C398 808 461 869 536 868L540 867L541 867C614 864 668 798 668 725V428L897 307C925 293 942 264 942 232V120C942 55 929 -12 921 -46C913 -81 882 -105 846 -105z" />
    <glyph glyph-name="bts-skytrain"
      unicode="&#xE029;"
      horiz-adv-x="1024" d="M694 803A4 4 0 0 1 690 800A4 4 0 0 1 690 799C690 797 692 795 694 795H870C893 795 912 776 912 753A42 42 0 0 0 886 714A42 42 0 0 0 870 710H652V749H870A4 4 0 0 1 873 751A4 4 0 0 1 874 753A4 4 0 0 1 873 755A4 4 0 0 1 870 756H694A42 42 0 0 0 652 799C652 822 670 841 694 841H912V803H694zM112 840H326A42 42 0 0 0 361 775A42 42 0 0 0 326 710H112V840zM328 756A43 43 0 0 0 326 756V756H160V795H326A44 44 0 0 0 328 795A4 4 0 0 1 329 798A4 4 0 0 1 326 802H150V749H326A4 4 0 0 1 329 753A4 4 0 0 1 328 756V756zM641 840H381V802H492V710H530V802H641V840zM556 464A635 635 0 0 0 610 379C688 471 794 513 910 513V446C807 446 718 409 654 327A347 347 0 0 1 642 311C685 205 711 74 711 -84H644C644 41 628 146 599 233C566 154 545 50 545 -84H479C479 50 458 154 425 233C396 146 380 41 380 -84H313C313 74 339 205 382 311A353 353 0 0 1 370 327C306 409 217 446 114 446V513C230 513 336 471 414 379C430 410 449 438 468 464C369 570 239 616 114 616V682C254 682 399 632 512 515C625 632 770 682 910 682V616C785 616 655 570 556 464zM457 317A572 572 0 0 0 512 185A572 572 0 0 0 567 317C551 352 532 383 512 411C492 383 473 352 457 317z" />
    <glyph glyph-name="building"
      unicode="&#xE218;"
      horiz-adv-x="1024" d="M230 768V0H794V768H230zM215 835H809C837 835 860 812 860 783V-15C860 -44 837 -67 809 -67H215C187 -67 164 -44 164 -15V783C164 812 187 835 215 835zM430 655V589H364V655H430zM655 655V589H589V655H655zM430 507V507V440H364V507H430zM655 507V507V440H589V507H655zM430 353V287H364V353H430zM655 353V287H589V353H655zM474 -67V174H540V-67H474z" />
    <glyph glyph-name="bulb"
      unicode="&#xE21B;"
      horiz-adv-x="1024" d="M666 -105H358V-38H666V-105zM515 786C351 786 218 653 218 489C218 372 285 271 383 222L402 213V90H627V213L646 222C744 271 812 372 812 489C812 653 679 786 515 786zM151 489C151 690 314 852 515 852S878 690 878 489C878 353 804 235 694 173V61C694 40 677 23 655 23H374C353 23 335 40 335 61V173C225 235 151 353 151 489z" />
    <glyph glyph-name="calendar"
      unicode="&#xE02B;"
      horiz-adv-x="1024" d="M133 730V28H891V730H133zM66 735C66 769 94 797 128 797H896C930 797 958 769 958 735V24C958 -11 930 -38 896 -38H128C94 -38 66 -11 66 24V735zM100 619H924V553H100V619zM316 876V763H249V876H316zM775 876V763H708V876H775zM741 169H808V102H741V169z" />
    <glyph glyph-name="calendar-check"
      unicode="&#xE02A;"
      horiz-adv-x="1024" d="M136 710V13H888V710H136zM69 718C69 750 96 776 128 776H896C928 776 955 750 955 718V5C955 -27 928 -54 896 -54H128C96 -54 69 -27 69 5V718zM316 891V743H250V891H316zM768 891V743H702V891H768zM470 292L678 501L726 454L470 198L298 370L345 417L470 292z" />
    <glyph glyph-name="camera"
      unicode="&#xE02C;"
      horiz-adv-x="1024" d="M512 567A203 203 0 0 1 309 364A203 203 0 0 1 512 161A203 203 0 0 1 715 364A203 203 0 0 1 512 567zM375 364A137 137 0 0 0 512 501A137 137 0 0 0 648 364A137 137 0 0 0 512 228A137 137 0 0 0 375 364zM389 840C369 840 351 830 339 814L294 749H159A100 100 0 0 1 59 649V79A100 100 0 0 1 159 -21H865A100 100 0 0 1 965 79V650A100 100 0 0 1 865 750L730 749L681 816A60 60 0 0 1 633 840H389zM328 682L392 773H630L697 682L865 683A33 33 0 0 0 899 650V79A33 33 0 0 0 865 46H159A33 33 0 0 0 125 79V649A33 33 0 0 0 159 682H328z" />
    <glyph glyph-name="camera-rotate"
      unicode="&#xE26F;"
      horiz-adv-x="1024" d="M661 540A225 225 0 0 1 287 379H264A18 18 0 0 1 249 350L306 275A18 18 0 0 1 334 275L391 350A18 18 0 0 1 376 379H353A159 159 0 0 0 614 493L661 540zM648 364H671A159 159 0 0 0 410 250L363 202A225 225 0 0 1 737 364H760A18 18 0 0 1 775 392L718 467A18 18 0 0 1 690 467L633 392A18 18 0 0 1 648 364zM389 840C369 840 351 830 339 814L294 749H159A100 100 0 0 1 59 649V79A100 100 0 0 1 159 -21H865A100 100 0 0 1 965 79V650A100 100 0 0 1 865 750L730 749L681 816A60 60 0 0 1 633 840H389zM328 682L392 773H630L697 682L865 683A33 33 0 0 0 899 650V79A33 33 0 0 0 865 46H159A33 33 0 0 0 125 79V649A33 33 0 0 0 159 682H328z" />
    <glyph glyph-name="caret-down"
      unicode="&#xE02D;"
      horiz-adv-x="1024" d="M256 461H768L512 205L256 461z" />
    <glyph glyph-name="caret-left"
      unicode="&#xE02E;"
      horiz-adv-x="1024" d="M589 640V128L333 384L589 640z" />
    <glyph glyph-name="caret-right"
      unicode="&#xE02F;"
      horiz-adv-x="1024" d="M435 640V128L691 384L435 640z" />
    <glyph glyph-name="caret-up"
      unicode="&#xE030;"
      horiz-adv-x="1024" d="M256 307H768L512 563L256 307z" />
    <glyph glyph-name="cart"
      unicode="&#xE171;"
      horiz-adv-x="1024" d="M333 -77C375 -77 410 -42 410 0S375 77 333 77S256 42 256 0S290 -77 333 -77zM794 -77C836 -77 870 -42 870 0S836 77 794 77S717 42 717 0S751 -77 794 -77zM230 189L143 640C143 666 169 686 200 686H952C968 686 983 686 993 671C1004 655 1004 640 998 630L916 189C911 148 881 148 860 148H287C261 148 236 148 230 189zM292 215H855L932 620H215L292 215zM189 404L118 783H20V845H143C159 845 174 835 174 819L251 415L189 404z" />
    <glyph glyph-name="cat-face"
      unicode="&#xE031;"
      horiz-adv-x="1024" d="M73 838A33 33 0 0 0 106 838L331 708H694L919 838A33 33 0 0 0 969 809V382C969 130 764 -74 512 -74C261 -74 56 130 56 382V809A33 33 0 0 0 73 838zM123 751V382C123 167 297 -8 512 -8C728 -8 902 167 902 382V751L720 646A33 33 0 0 0 703 642H322A33 33 0 0 0 305 646L123 751zM546 328V218H479V328H546zM401 192L496 247L529 189L434 135L401 192zM591 135L496 189L529 247L624 192L591 135zM663 475C634 475 611 452 611 423C611 394 634 371 663 371C692 371 715 394 715 423S692 475 663 475zM362 475C333 475 310 452 310 423C310 394 333 371 362 371C391 371 414 394 414 423S391 475 362 475z" />
    <glyph glyph-name="cc-square"
      unicode="&#xE212;"
      horiz-adv-x="1024" d="M141 755V13H883V755H141zM74 763C74 795 101 822 133 822H891C923 822 950 795 950 763V5C950 -27 923 -54 891 -54H133C101 -54 74 -27 74 5V763zM373 243C438 243 483 280 499 331C500 334 498 336 494 338L438 352C435 353 433 352 431 348C421 321 400 310 373 310C334 310 307 338 307 384C307 429 334 457 373 457C396 457 414 448 425 429C427 426 429 425 432 426L489 441C492 442 494 445 492 448C473 497 432 524 373 524C295 524 236 468 236 384S291 243 373 243zM661 243C726 243 772 280 788 331C788 334 787 336 783 338L727 352C724 353 722 352 720 348C710 321 689 310 662 310C623 310 596 338 596 384C596 429 622 457 662 457C685 457 702 448 713 429C715 426 718 425 721 426L777 441C781 442 782 445 781 448C762 497 721 524 662 524C583 524 525 468 525 384S579 243 661 243z" />
    <glyph glyph-name="chain-circle"
      unicode="&#xE182;"
      horiz-adv-x="1024" d="M512 791C287 791 105 609 105 384C105 159 287 -23 512 -23C737 -23 919 159 919 384C919 609 737 791 512 791zM38 384C38 646 250 858 512 858S986 646 986 384S774 -90 512 -90S38 122 38 384zM434 534C371 471 371 369 434 306C445 296 457 287 469 280L507 317A43 43 0 0 1 516 331A94 94 0 0 0 481 353C444 390 444 450 481 487L554 560C591 597 651 597 688 560C725 523 725 463 688 426L677 415A213 213 0 0 0 688 332L735 379C798 442 798 544 735 607C672 670 570 670 507 607L434 534zM508 437C521 432 533 425 543 415C580 378 580 318 543 281L470 208C433 171 373 171 336 208C299 245 299 305 336 342L347 353A213 213 0 0 0 336 436L289 389C226 326 226 224 289 161C352 98 454 98 517 161L590 234C653 297 653 399 590 462A161 161 0 0 1 555 488L517 451A43 43 0 0 1 508 437z" />
    <glyph glyph-name="chart-area"
      unicode="&#xE032;"
      horiz-adv-x="1024" d="M975 14H49V651H115V80H975V14zM967 525V148H191V415L347 571L465 462L738 754L967 525zM900 498L740 659L469 368L349 478L257 387V215H900V498z" />
    <glyph glyph-name="chart-bar"
      unicode="&#xE033;"
      horiz-adv-x="1024" d="M288 142V356H354V142H288zM973 -3H51V541H118V64H973V-3zM528 142V586H594V142H528zM768 142V770H834V142H768z" />
    <glyph glyph-name="chart-line"
      unicode="&#xE034;"
      horiz-adv-x="1024" d="M975 34H49V672H115V101H975V34zM230 273A33 33 0 0 1 277 273L488 485L621 351L887 617A33 33 0 1 1 840 664L621 445L488 579L230 320A33 33 0 0 1 230 273zM957 733H770L957 546V733z" />
    <glyph glyph-name="chart-pie"
      unicode="&#xE035;"
      horiz-adv-x="1024" d="M485 796V358H923L920 322C899 101 713 -76 486 -76C246 -76 51 119 51 359C51 589 237 781 450 794L485 796zM419 723C256 695 117 541 117 359C117 156 282 -9 486 -9C665 -9 815 121 848 291H419V723zM976 409H540V846L575 844C781 830 954 650 973 445L976 409zM901 476C872 622 750 747 606 773V476H901z" />
    <glyph glyph-name="chart-scatter"
      unicode="&#xE036;"
      horiz-adv-x="1024" d="M361 680C330 680 305 655 305 624C305 593 330 568 361 568C392 568 417 593 417 624C417 655 392 680 361 680zM300 360C269 360 244 335 244 303C244 272 269 247 300 247C331 247 356 272 356 303C356 335 331 360 300 360zM975 57H49V695H115V124H975V57zM564 466C533 466 508 441 508 410C508 379 533 354 564 354C595 354 621 379 621 410C621 441 595 466 564 466zM710 710C679 710 653 685 653 654C653 623 679 597 710 597C741 597 766 623 766 654C766 685 741 710 710 710zM839 338C808 338 783 313 783 282C783 251 808 226 839 226C870 226 895 251 895 282C895 313 870 338 839 338z" />
    <glyph glyph-name="chat"
      unicode="&#xE043;"
      horiz-adv-x="1024" d="M237 670C173 605 136 510 136 387C136 242 221 113 284 39C316 83 368 128 449 128H449L566 128H566C744 128 888 273 888 451C888 550 852 629 789 684C726 740 634 773 517 773C396 773 302 735 237 670zM190 717C269 797 382 839 517 839C646 839 756 803 833 734C912 665 955 567 955 451C955 236 781 62 566 62H566L449 61H449C381 61 341 12 318 -32L297 -74L264 -40C201 27 69 190 69 387C69 523 111 637 190 717z" />
    <glyph glyph-name="chat-all"
      unicode="&#xE037;"
      horiz-adv-x="1024" d="M237 670C173 605 136 510 136 387C136 242 221 113 284 39C316 83 368 128 449 128H449L566 128H566C744 128 888 273 888 451C888 550 852 629 789 684C726 740 634 773 517 773C396 773 302 735 237 670zM190 717C269 797 382 839 517 839C646 839 756 803 833 734C912 665 955 567 955 451C955 236 781 62 566 62H566L449 61H449C381 61 341 12 318 -32L297 -74L264 -40C201 27 69 190 69 387C69 523 111 637 190 717zM716 502H307V568H716V502zM716 316H307V382H716V316z" />
    <glyph glyph-name="chat-all-square"
      unicode="&#xE1C8;"
      horiz-adv-x="1024" d="M165 747H858C868 747 876 739 876 730V137C876 127 868 119 858 119H378A33 33 0 0 1 349 104L283 37V86A33 33 0 0 1 249 119H165A39 39 0 0 1 164 119A18 18 0 0 0 147 137V730C147 739 155 747 165 747zM393 53H858C905 53 943 91 943 137V730C943 776 905 814 858 814H165C118 814 80 776 80 730V137C80 91 118 53 165 53A32 32 0 0 1 167 53H216V-43A33 33 0 0 1 273 -67L393 53zM723 309H313V375H723V309zM723 495H313V561H723V495z" />
    <glyph glyph-name="chat-check"
      unicode="&#xE038;"
      horiz-adv-x="1024" d="M447 372L638 563L685 516L447 278L288 438L335 485L447 372zM237 670C173 605 136 510 136 387C136 242 221 113 284 39C316 83 368 128 449 128H449L566 128H566C744 128 888 273 888 451C888 550 852 629 789 684C726 740 634 773 517 773C396 773 302 735 237 670zM190 717C269 797 382 839 517 839C646 839 756 803 833 734C912 665 955 567 955 451C955 236 781 62 566 62H566L449 61H449C381 61 341 12 318 -32L297 -74L264 -40C201 27 69 190 69 387C69 523 111 637 190 717z" />
    <glyph glyph-name="chat-check-square"
      unicode="&#xE1C5;"
      horiz-adv-x="1024" d="M478 376L668 565L715 518L478 281L319 441L366 488L478 376zM165 747H858C868 747 876 739 876 730V137C876 127 868 119 858 119H378A33 33 0 0 1 349 104L283 37V86A33 33 0 0 1 249 119H165A39 39 0 0 1 164 119A18 18 0 0 0 147 137V730C147 739 155 747 165 747zM393 53H858C905 53 943 91 943 137V730C943 776 905 814 858 814H165C118 814 80 776 80 730V137C80 91 118 53 165 53A37 37 0 0 1 167 53H216V-43A33 33 0 0 1 273 -67L393 53z" />
    <glyph glyph-name="chat-dot"
      unicode="&#xE039;"
      horiz-adv-x="1024" d="M898 831C868 831 843 806 843 775C843 744 868 719 898 719C929 719 954 744 954 775C954 806 929 831 898 831zM231 630C172 570 137 481 137 368C137 235 214 117 273 47C303 87 352 129 427 129H427L536 129H536C700 129 834 263 834 427C834 519 800 592 742 643C684 694 599 725 490 725C378 725 291 690 231 630zM184 676C258 751 364 791 490 791C611 791 713 757 786 693C860 628 900 536 900 427C900 226 737 62 536 62H536L427 62H427C365 62 328 17 307 -24L285 -66L253 -32C195 31 71 183 71 368C71 495 110 602 184 676z" />
    <glyph glyph-name="chat-edit"
      unicode="&#xE03A;"
      horiz-adv-x="1024" d="M237 670C173 605 136 510 136 387C136 242 221 113 284 39C316 83 368 128 449 128H449L566 128H566C744 128 888 273 888 451C888 550 852 629 789 684C726 740 634 773 517 773C396 773 302 735 237 670zM190 717C269 797 382 839 517 839C646 839 756 803 833 734C912 665 955 567 955 451C955 236 781 62 566 62H566L449 61H449C381 61 341 12 318 -32L297 -74L264 -40C201 27 69 190 69 387C69 523 111 637 190 717zM604 692L748 547L438 240H294V384L604 692zM361 356V306H410L654 548L604 598L361 356z" />
    <glyph glyph-name="chat-edit-square"
      unicode="&#xE1C1;"
      horiz-adv-x="1024" d="M165 747H858C868 747 876 739 876 730V137C876 127 868 119 858 119H378A33 33 0 0 1 349 104L283 37V86A33 33 0 0 1 249 119H165A39 39 0 0 1 164 119A18 18 0 0 0 147 137V730C147 739 155 747 165 747zM393 53H858C905 53 943 91 943 137V730C943 776 905 814 858 814H165C118 814 80 776 80 730V137C80 91 118 53 165 53A37 37 0 0 1 167 53H216V-43A33 33 0 0 1 273 -67L393 53zM615 672L756 531L440 215L301 217L299 356L615 672zM615 578L366 329L366 282L413 282L662 531L615 578z" />
    <glyph glyph-name="chat-ellipsis"
      unicode="&#xE03D;"
      horiz-adv-x="1024" d="M505 475A46 46 0 1 1 505 383A46 46 0 0 1 505 475zM324 475A46 46 0 1 1 324 383A46 46 0 0 1 324 475zM687 475A46 46 0 1 1 687 383A46 46 0 0 1 687 475zM235 672C171 607 134 512 134 389C134 244 219 115 281 41C313 85 366 130 447 130H447L564 130H564C742 130 886 275 886 453C886 552 850 631 787 686C724 742 632 775 515 775C394 775 300 737 235 672zM188 719C267 799 380 841 515 841C644 841 753 805 831 736C910 667 953 569 953 453C953 238 778 64 564 64H564L447 63H447C379 63 338 14 316 -30L295 -72L262 -38C199 29 67 192 67 389C67 525 109 639 188 719z" />
    <glyph glyph-name="chat-ellipsis-alt"
      unicode="&#xE03B;"
      horiz-adv-x="1024" d="M33 411C33 648 252 832 512 832S991 648 991 411C991 175 772 -10 512 -10C444 -10 379 3 321 26L175 -59A33 33 0 0 0 126 -24L154 132C80 206 33 303 33 411zM512 765C280 765 100 602 100 411C100 318 142 233 212 169A33 33 0 0 0 223 138L204 35L301 91A33 33 0 0 0 331 93C386 70 447 57 512 57C744 57 924 220 924 411C924 602 744 765 512 765zM512 462C484 462 461 439 461 411C461 383 484 360 512 360C540 360 563 383 563 411C563 439 540 462 512 462zM706 462C678 462 655 439 655 411C655 383 678 360 706 360C734 360 756 383 756 411C756 439 734 462 706 462zM318 462C290 462 268 439 268 411C268 383 290 360 318 360C346 360 369 383 369 411C369 439 346 462 318 462z" />
    <glyph glyph-name="chat-ellipsis-circle"
      unicode="&#xE1F4;"
      horiz-adv-x="1024" d="M175 721C263 809 380 858 504 858S745 809 833 721C980 574 1011 351 913 170L979 -41A33 33 0 0 0 937 -83L725 -18A467 467 0 0 0 503 -74C379 -74 263 -26 175 62C87 150 38 267 38 392C38 516 87 633 175 721L175 721zM222 674C146 598 105 499 105 392C105 285 146 185 222 109C297 34 397 -8 503 -8C574 -8 643 11 704 47A33 33 0 0 0 731 50L897 -1L845 164A33 33 0 0 0 848 191C940 348 915 545 786 674C710 750 610 791 504 791C397 791 297 750 222 674zM694 433C667 433 645 411 645 384C645 357 667 335 694 335C721 335 742 357 742 384C742 411 721 433 694 433zM512 433C485 433 463 411 463 384C463 357 485 335 512 335C539 335 561 357 561 384C561 411 539 433 512 433zM328 433C301 433 279 411 279 384C279 357 301 335 328 335S376 357 376 384C376 411 354 433 328 433z" />
    <glyph glyph-name="chat-ellipsis-mobile"
      unicode="&#xE1CC;"
      horiz-adv-x="1024" d="M799 435C783 435 773 425 773 410S783 384 799 384S824 394 824 410S814 435 799 435zM712 435C696 435 686 425 686 410S696 384 712 384S737 394 737 410S727 435 712 435zM630 379A26 26 0 1 1 630 430A26 26 0 0 1 630 379zM614 138L584 174C548 215 486 292 486 389C486 532 579 625 717 625S947 543 947 420C947 307 855 215 742 215H686C666 215 650 205 640 179L614 138zM717 558C614 558 553 497 553 389C553 333 584 282 609 251C630 271 660 282 686 282H742C819 282 881 343 881 420C876 502 814 558 717 558zM492 737H364V686H492V737zM696 148L660 82V26C660 0 640 -15 620 -15H236C210 -15 189 5 189 26V742C189 768 210 788 236 788H614C640 788 655 768 655 742V686C681 686 696 691 717 691H727V742C727 804 676 850 614 850H236C174 850 128 799 128 742V26C128 -36 179 -87 236 -87H614C676 -87 727 -36 727 26V148H696z" />
    <glyph glyph-name="chat-ellipsis-plus"
      unicode="&#xE03C;"
      horiz-adv-x="1024" d="M445 461A46 46 0 0 1 399 415A46 46 0 1 1 491 415A46 46 0 0 1 445 461zM271 461A46 46 0 1 1 271 369A46 46 0 0 1 271 461zM619 461A46 46 0 1 1 619 369A46 46 0 0 1 619 461zM188 647C126 585 91 494 91 377C91 240 170 119 230 47C261 89 312 131 389 131H389L548 131L548 65L389 64H389C324 64 286 18 264 -24L242 -66L210 -32C150 33 24 189 24 377C24 508 64 617 140 694C216 770 325 811 454 811C578 811 683 776 758 710C833 644 875 550 875 438V415H808V438C808 533 774 608 714 660C654 713 566 745 454 745C339 745 249 709 188 647zM1024 97H635V163H1024V97zM796 -64V325H863V-64H796z" />
    <glyph glyph-name="chat-ellipsis-square"
      unicode="&#xE1C7;"
      horiz-adv-x="1024" d="M376 433A46 46 0 0 0 298 401A46 46 0 0 0 330 479A46 46 0 0 0 376 433zM558 433A46 46 0 0 0 511 387A46 46 0 1 0 558 433zM693 387A46 46 0 1 1 693 479A46 46 0 0 1 693 387zM858 53H393L273 -67A33 33 0 0 0 222 -62A33 33 0 0 0 216 -43V53H167A84 84 0 0 0 80 137V730C80 776 118 814 165 814H858C905 814 943 776 943 730V137A84 84 0 0 0 858 53V53zM147 730V137A18 18 0 0 1 165 119H249A33 33 0 0 0 283 86V37L349 103A33 33 0 0 0 378 119H858A18 18 0 0 1 876 137V730A18 18 0 0 1 858 747H165A18 18 0 0 1 147 730z" />
    <glyph glyph-name="chat-ellipsis-square-plus"
      unicode="&#xE1C3;"
      horiz-adv-x="1024" d="M890 331V730A84 84 0 0 1 805 814H112A84 84 0 0 1 27 730V137A84 84 0 0 1 53 77A84 84 0 0 1 113 53H163V-44A33 33 0 0 1 220 -67L340 53H611V119H325A33 33 0 0 1 296 103L230 37V86A33 33 0 0 1 196 119H110A18 18 0 0 0 94 137V730A18 18 0 0 0 112 747H805A18 18 0 0 0 823 730V331H890H890zM824 52V-84H890V52H1026V118H890V254H824V118H688V52H824zM462 387A46 46 0 1 1 462 479A46 46 0 0 1 462 387zM281 387A46 46 0 1 1 281 479A46 46 0 0 1 281 387zM643 387A46 46 0 1 1 643 479A46 46 0 0 1 643 387z" />
    <glyph glyph-name="chat-ellipsis-times"
      unicode="&#xE224;"
      horiz-adv-x="1024" d="M92 378C92 239 175 115 232 47H233C273 102 328 132 391 132H549V65H391C326 65 288 17 267 -24L246 -66L213 -31C143 43 26 195 26 378C26 642 201 812 456 812S876 666 876 439C876 435 876 431 875 427A175 175 0 0 1 875 415H808C809 423 809 431 809 439V439C809 628 684 745 456 745S92 608 92 378zM225 415C225 389 246 369 271 369S317 389 317 415S297 461 271 461S225 440 225 415zM976 199L929 246L836 153L742 246L695 199L788 106L695 13L742 -34L836 59L929 -34L976 13L883 106L976 199zM445 369C420 369 399 389 399 415S420 461 445 461S492 440 492 415S471 369 445 369zM620 461C594 461 573 440 573 415S594 369 620 369S666 389 666 415S645 461 620 461z" />
    <glyph glyph-name="chat-hi"
      unicode="&#xE03E;"
      horiz-adv-x="1024" d="M238 670C173 605 136 510 136 387C136 242 221 113 284 39C316 83 368 128 449 128H449L566 128H566C744 128 888 273 888 451C888 550 852 629 790 684C727 740 634 773 517 773C396 773 302 735 238 670zM190 717C269 797 382 839 517 839C646 839 756 803 833 734C912 665 955 567 955 451C955 236 781 62 566 62H566L449 61H449C381 61 341 12 318 -32L297 -74L264 -40C202 27 69 190 69 387C69 523 111 637 190 717zM274 291V563H340V291H274zM454 394H307V460H454V394zM421 291V563H487V291H421zM542 291V476H609V291H542zM576 563A33 33 0 1 1 576 497A33 33 0 0 1 576 563zM704 359A33 33 0 1 1 704 293A33 33 0 0 1 704 359zM671 381V563H737V381H671z" />
    <glyph glyph-name="chat-lines"
      unicode="&#xE03F;"
      horiz-adv-x="1024" d="M237 670C173 605 136 510 136 387C136 242 221 113 284 39C316 83 368 128 449 128H449L566 128H566C744 128 888 273 888 451C888 550 852 629 789 684C726 740 634 773 517 773C396 773 302 735 237 670zM190 717C269 797 382 839 517 839C646 839 756 803 833 734C912 665 955 567 955 451C955 236 781 62 566 62H566L449 61H449C381 61 341 12 318 -32L297 -74L264 -40C201 27 69 190 69 387C69 523 111 637 190 717zM716 502H307V568H716V502zM512 316H307V382H512V316z" />
    <glyph glyph-name="chat-phone"
      unicode="&#xE170;"
      horiz-adv-x="1024" d="M483 423C525 380 562 363 565 366L606 407C612 413 626 413 631 408L688 361C699 350 705 324 690 306L656 271C625 249 541 246 422 361C306 479 316 569 337 590L367 621C384 637 412 637 426 621L474 566C480 559 478 544 470 537L432 499S437 471 483 423zM237 670C173 605 136 510 136 387C136 242 221 113 284 39C316 83 368 128 449 128H449L566 128H566C744 128 888 273 888 451C888 550 852 629 789 684C726 740 634 773 517 773C396 773 302 735 237 670zM190 717C269 797 382 839 517 839C646 839 756 803 833 734C912 665 955 567 955 451C955 236 781 62 566 62H566L449 61H449C381 61 341 12 318 -32L297 -74L264 -40C201 27 69 190 69 387C69 523 111 637 190 717z" />
    <glyph glyph-name="chat-play"
      unicode="&#xE040;"
      horiz-adv-x="1024" d="M409 564A33 33 0 0 0 442 564L626 456A33 33 0 0 0 626 399L442 292A33 33 0 0 0 392 321V535A33 33 0 0 0 409 564zM459 477V379L543 428L459 477zM237 670C173 605 136 510 136 387C136 242 221 113 284 39C316 83 368 128 449 128H449L566 128H566C744 128 888 273 888 451C888 550 852 629 789 684C726 740 634 773 517 773C396 773 302 735 237 670zM190 717C269 797 382 839 517 839C646 839 756 803 833 734C912 665 955 567 955 451C955 236 781 62 566 62H566L449 61H449C381 61 341 12 318 -32L297 -74L264 -40C201 27 69 190 69 387C69 523 111 637 190 717z" />
    <glyph glyph-name="chat-play-square"
      unicode="&#xE1C2;"
      horiz-adv-x="1024" d="M404 555A26 26 0 0 0 443 577L650 457A26 26 0 0 0 659 422A26 26 0 0 0 650 413L443 294A26 26 0 0 0 404 316V555zM555 435L471 484V387L555 435zM853 53H388L268 -67A33 33 0 0 0 232 -74A33 33 0 0 0 211 -43V53H161A84 84 0 0 0 75 137V730C75 776 113 814 160 814H853C900 814 938 776 938 730V137A84 84 0 0 0 853 53L853 53zM853 747H160A18 18 0 0 1 142 730V137A18 18 0 0 1 160 119H244A33 33 0 0 0 278 86V37L344 103A33 33 0 0 0 373 119H853A18 18 0 0 1 871 137V730A18 18 0 0 1 853 747z" />
    <glyph glyph-name="chat-plus"
      unicode="&#xE041;"
      horiz-adv-x="1024" d="M237 670C173 605 136 510 136 387C136 242 221 113 284 39C316 83 368 128 449 128H449L566 128H566C744 128 888 273 888 451C888 550 852 629 789 684C726 740 634 773 517 773C396 773 302 735 237 670zM190 717C269 797 382 839 517 839C646 839 756 803 833 734C912 665 955 567 955 451C955 236 781 62 566 62H566L449 61H449C381 61 341 12 318 -32L297 -74L264 -40C201 27 69 190 69 387C69 523 111 637 190 717zM686 403H338V469H686V403zM478 262V610H545V262H478z" />
    <glyph glyph-name="chat-plus-square"
      unicode="&#xE1CD;"
      horiz-adv-x="1024" d="M160 747H853C863 747 871 739 871 730V137C871 127 863 119 853 119H373A33 33 0 0 1 344 104L278 37V86A33 33 0 0 1 244 119H160A39 39 0 0 1 158 119A18 18 0 0 0 142 137V730C142 739 150 747 160 747zM388 53H853C900 53 938 91 938 137V730C938 776 900 814 853 814H160C113 814 75 776 75 730V137C75 91 113 53 160 53A37 37 0 0 1 161 53H211V-43A33 33 0 0 1 268 -67L388 53zM677 400H336V467H677V400zM473 263V604H540V263H473z" />
    <glyph glyph-name="chat-square"
      unicode="&#xE1C9;"
      horiz-adv-x="1024" d="M160 747H853C863 747 871 739 871 730V137C871 127 863 119 853 119H373A33 33 0 0 1 344 104L278 37V86A33 33 0 0 1 244 119H160A39 39 0 0 1 158 119A18 18 0 0 0 142 137V730C142 739 150 747 160 747zM388 53H853C900 53 938 91 938 137V730C938 776 900 814 853 814H160C113 814 75 776 75 730V137C75 91 113 53 160 53A37 37 0 0 1 161 53H211V-43A33 33 0 0 1 268 -67L388 53z" />
    <glyph glyph-name="chat-square-dot"
      unicode="&#xE1C6;"
      horiz-adv-x="1024" d="M954 778A56 56 0 0 1 899 834A56 56 0 0 1 843 778A56 56 0 0 1 899 722A56 56 0 0 1 954 778zM766 778C766 768 767 757 770 747H160A18 18 0 0 1 142 729V137A18 18 0 0 1 160 119H244A33 33 0 0 0 278 86V37L344 104A33 33 0 0 0 373 119H853A18 18 0 0 1 871 137V648A133 133 0 0 1 938 651V137C938 115 929 93 913 78A84 84 0 0 0 853 53H388L268 -67A33 33 0 0 0 232 -74A33 33 0 0 0 211 -43V53H161A84 84 0 0 0 75 137V730C75 776 113 814 160 814H771A132 132 0 0 1 766 778V778z" />
    <glyph glyph-name="chat-window"
      unicode="&#xE042;"
      horiz-adv-x="1024" d="M237 670C173 605 136 510 136 387C136 242 221 113 284 39C316 83 368 128 449 128H449L566 128H566C744 128 888 273 888 451C888 550 852 629 789 684C726 740 634 773 517 773C396 773 302 735 237 670zM190 717C269 797 382 839 517 839C646 839 756 803 833 734C912 665 955 567 955 451C955 236 781 62 566 62H566L449 61H449C381 61 341 12 318 -32L297 -74L264 -40C201 27 69 190 69 387C69 523 111 637 190 717zM473 74V790H540V74H473zM901 389H102V455H901V389z" />
    <glyph glyph-name="chats"
      unicode="&#xE044;"
      horiz-adv-x="1024" d="M380 540C328 488 298 411 298 312C298 198 363 96 413 34C441 69 484 104 550 104H550L646 104H646C789 104 906 221 906 364C906 444 877 508 826 552C776 596 701 623 606 623C508 623 431 593 380 540zM333 587C399 654 494 690 606 690C713 690 805 659 870 602C936 544 972 461 972 364C972 184 826 38 646 38H646L550 37H550C497 37 466 -1 447 -36L426 -79L393 -44C342 11 231 147 231 312C231 425 266 520 333 587zM380 777H380C297 777 231 753 187 714C144 676 118 620 118 550C118 451 183 366 273 335L252 272C136 311 52 421 52 550C52 638 84 712 143 764C202 816 285 843 380 843C518 843 625 784 679 676L620 646C579 727 498 777 380 777z" />
    <glyph glyph-name="chats-alt"
      unicode="&#xE28D;"
      horiz-adv-x="1024" d="M410 817C287 817 189 774 121 702C53 630 18 532 18 425C18 243 121 92 224 29C255 9 287 35 290 63C293 98 308 119 326 133C331 136 337 140 343 142C383 5 479 -70 518 -96C549 -116 582 -90 584 -62C586 -37 594 -19 603 -9C612 1 623 7 640 7H699A306 306 0 0 1 1006 315C1006 394 981 463 933 516C891 562 833 595 764 611A314 314 0 0 1 682 723C614 783 519 817 410 817zM84 425C84 517 115 598 169 656C223 713 304 750 410 750C505 750 584 721 639 673C693 626 725 558 725 476C725 393 695 330 649 287C603 244 540 220 471 220H394C360 220 320 211 287 186C262 168 241 141 231 106C156 166 84 284 84 425zM786 535C827 520 859 498 884 471C919 432 940 379 940 315A239 239 0 0 0 699 74H640C605 74 575 60 553 35A139 139 0 0 1 525 -18C488 13 436 69 409 153H471C556 153 636 183 695 239C754 295 791 376 791 476A361 361 0 0 1 786 535z" />
    <glyph glyph-name="chats-ellipsis-circle"
      unicode="&#xE24F;"
      horiz-adv-x="1024" d="M742 404A41 41 0 0 1 783 445A41 41 0 1 1 701 445C701 423 720 404 742 404zM543 445C543 468 561 486 584 486C607 486 625 468 625 445C625 423 606 404 584 404C561 404 543 423 543 445zM425 404A41 41 0 0 1 466 445A41 41 0 1 1 384 445A41 41 0 0 1 425 404zM1005 61L947 245C1033 404 1005 603 876 732C798 809 694 852 584 852C474 852 371 809 293 732C215 653 172 549 172 440S215 226 293 148C371 70 474 27 584 27C652 27 719 44 779 76L964 20C967 19 970 18 973 18C982 18 991 22 997 28C1006 37 1009 50 1005 61L1005 61zM879 239L922 101L784 144C775 147 765 145 757 141C705 110 644 94 583 94C490 94 404 130 338 195C273 260 237 347 237 440S273 619 338 685C404 750 490 786 583 786C675 786 762 751 827 685C938 574 961 401 881 266C877 258 876 248 878 240L879 239zM194 7C227 -12 265 -23 303 -23L303 -23C338 -23 372 -14 403 2C429 -9 456 -17 484 -24C433 -66 370 -90 303 -90C257 -90 212 -78 173 -58L55 -94C44 -97 31 -94 22 -86C13 -77 10 -64 14 -52L50 65C11 141 9 229 40 305C55 338 75 369 102 396C103 397 105 399 106 400C108 402 110 403 111 404C113 376 118 348 125 321C116 307 108 293 102 279C76 218 80 146 115 86C120 78 121 68 118 59L96 -11L167 10C176 13 185 12 194 7z" />
    <glyph glyph-name="chats-square"
      unicode="&#xE1C4;"
      horiz-adv-x="1024" d="M802 579V738C802 780 768 814 726 814H151C109 814 75 780 75 738V247C75 205 109 171 151 171H188V97A33 33 0 0 1 208 66A33 33 0 0 1 245 74L321 150V81C321 43 352 13 390 13H707L787 -67A33 33 0 0 1 838 -62A33 33 0 0 1 844 -44V13H869C907 13 938 43 938 81V510C938 548 907 579 869 579H802zM142 738C142 743 146 747 151 747H726C731 747 735 743 735 738V247C735 242 731 238 726 238H328A33 33 0 0 1 300 223L254 178V205A33 33 0 0 1 221 238H151A9 9 0 0 0 142 247V738zM388 171H726C768 171 802 205 802 247V512H869C870 512 871 511 871 510V81C871 80 870 79 869 79H810A33 33 0 0 1 777 46V37L750 64A33 33 0 0 1 722 79H390A2 2 0 0 0 388 81V172V171z" />
    <glyph glyph-name="check"
      unicode="&#xE047;"
      horiz-adv-x="1024" d="M410 149L949 689L996 642L410 55L28 437L75 484L410 149z" />
    <glyph glyph-name="check-circle"
      unicode="&#xE15F;"
      horiz-adv-x="1024" d="M469 314L680 524L727 477L469 220L297 392L344 439L469 314zM512 792C287 792 105 609 105 384C105 159 287 -24 512 -24C737 -24 920 159 920 384C920 609 737 792 512 792zM38 384C38 646 250 858 512 858S986 646 986 384S774 -90 512 -90C250 -90 38 122 38 384z" />
    <glyph glyph-name="check-list"
      unicode="&#xE21A;"
      horiz-adv-x="1024" d="M314 744L159 594L53 695L98 743L158 686L268 792L314 745zM947 648H435V714H947V648zM314 438L159 288L53 388L99 436L158 380L268 486L314 438zM947 346H435V412H947V346zM314 129L159 -21L53 79L98 128L158 71L268 177L314 129zM947 43H435V110H947V43z" />
    <glyph glyph-name="check-square"
      unicode="&#xE046;"
      horiz-adv-x="1024" d="M455 276L734 556L781 509L455 182L242 395L289 442L455 276zM141 755V13H883V755H141zM74 763C74 795 101 822 133 822H891C923 822 950 795 950 763V5C950 -27 923 -54 891 -54H133C101 -54 74 -27 74 5V763z" />
    <glyph glyph-name="check-square-rounded"
      unicode="&#xE045;"
      horiz-adv-x="1024" d="M470 220L297 392L344 439L470 314L680 524L727 477L470 220zM512 -69C426 -69 341 -64 260 -54C163 -42 86 34 74 132C64 214 59 299 59 384C59 469 64 554 74 636C86 734 163 810 260 822C423 842 601 842 764 822C862 810 938 734 950 636C960 554 965 469 965 384C965 299 960 214 950 132A213 213 0 0 0 764 -54C682 -64 598 -69 512 -69zM512 771C429 771 347 766 268 756A146 146 0 0 1 140 628C130 549 125 467 125 384C125 301 130 219 140 140C148 73 201 20 268 12C426 -7 598 -8 756 12A146 146 0 0 1 884 140C894 219 899 302 899 384C899 466 894 549 884 628A146 146 0 0 1 756 756C677 766 595 771 512 771z" />
    <glyph glyph-name="chevron-circle-down"
      unicode="&#xE165;"
      horiz-adv-x="1024" d="M512 791C287 791 105 609 105 384C105 159 287 -23 512 -23C737 -23 919 159 919 384C919 609 737 791 512 791zM38 384C38 646 250 858 512 858S986 646 986 384S774 -90 512 -90S38 122 38 384zM512 357L386 482L339 434L512 263L685 434L638 482L512 357z" />
    <glyph glyph-name="chevron-circle-left"
      unicode="&#xE162;"
      horiz-adv-x="1024" d="M512 791C287 791 105 609 105 384C105 159 287 -23 512 -23C737 -23 919 159 919 384C919 609 737 791 512 791zM38 384C38 646 250 858 512 858S986 646 986 384S774 -90 512 -90S38 122 38 384zM485 384L610 510L562 557L391 384L562 211L610 258L485 384z" />
    <glyph glyph-name="chevron-circle-right"
      unicode="&#xE163;"
      horiz-adv-x="1024" d="M38 384C38 646 250 858 512 858S986 646 986 384S774 -90 512 -90S38 122 38 384zM512 791C287 791 105 609 105 384C105 159 287 -23 512 -23C737 -23 919 159 919 384C919 609 737 791 512 791zM462 557L633 384L462 211L414 258L539 384L414 510L462 557z" />
    <glyph glyph-name="chevron-circle-top"
      unicode="&#xE164;"
      horiz-adv-x="1024" d="M512 -23C287 -23 105 159 105 384C105 609 287 791 512 791C737 791 919 609 919 384C919 159 737 -23 512 -23zM38 384C38 122 250 -90 512 -90S986 122 986 384S774 858 512 858S38 646 38 384zM512 411L386 286L339 334L512 505L685 334L638 286L512 411z" />
    <glyph glyph-name="chevron-double-down"
      unicode="&#xE048;"
      horiz-adv-x="1024" d="M728 653L512 438L296 653L249 605L512 344L775 605L728 653zM728 391L512 176L296 391L249 343L512 82L775 343L728 391V391z" />
    <glyph glyph-name="chevron-double-left"
      unicode="&#xE160;"
      horiz-adv-x="1024" d="M304 384L519 600L471 647L210 384L471 121L519 168L304 384zM566 384L781 600L733 647L472 384L733 121L781 168L566 384H566z" />
    <glyph glyph-name="chevron-double-right"
      unicode="&#xE161;"
      horiz-adv-x="1024" d="M553 647L814 384L553 121L505 168L720 384L505 600L553 647zM291 647L552 384L291 121L244 168L458 384L244 600L291 647z" />
    <glyph glyph-name="chevron-double-up"
      unicode="&#xE049;"
      horiz-adv-x="1024" d="M512 592L728 377L775 425L512 686L249 425L296 377L512 592zM512 330L728 115L775 163L512 424L249 163L296 116L512 330V330z" />
    <glyph glyph-name="chevron-down"
      unicode="&#xE04A;"
      horiz-adv-x="1024" d="M512 235L143 604L96 557L512 141L928 557L881 604L512 235z" />
    <glyph glyph-name="chevron-left"
      unicode="&#xE04B;"
      horiz-adv-x="1024" d="M354 384L740 770L693 817L260 384L693 -49L740 -2L354 384H354z" />
    <glyph glyph-name="chevron-right"
      unicode="&#xE04C;"
      horiz-adv-x="1024" d="M670 384L284 -2L331 -49L764 384L331 817L284 770L670 384z" />
    <glyph glyph-name="chevron-square-down"
      unicode="&#xE169;"
      horiz-adv-x="1024" d="M141 755V13H883V755H141zM74 763C74 795 101 822 133 822H891C923 822 950 795 950 763V5C950 -27 923 -54 891 -54H133C101 -54 74 -27 74 5V763zM512 356L383 483L337 435L512 262L687 435L640 483L512 356z" />
    <glyph glyph-name="chevron-square-left"
      unicode="&#xE166;"
      horiz-adv-x="1024" d="M141 755V13H883V755H141zM74 763C74 795 101 822 133 822H891C923 822 950 795 950 763V5C950 -27 923 -54 891 -54H133C101 -54 74 -27 74 5V763zM484 384L611 513L563 559L390 384L563 209L611 256L484 384z" />
    <glyph glyph-name="chevron-square-right"
      unicode="&#xE167;"
      horiz-adv-x="1024" d="M141 755V13H883V755H141zM74 763C74 795 101 822 133 822H891C923 822 950 795 950 763V5C950 -27 923 -54 891 -54H133C101 -54 74 -27 74 5V763zM540 384L413 512L461 559L634 384L461 209L413 255L540 384z" />
    <glyph glyph-name="chevron-square-top"
      unicode="&#xE168;"
      horiz-adv-x="1024" d="M141 755V13H883V755H141zM74 763C74 795 101 822 133 822H891C923 822 950 795 950 763V5C950 -27 923 -54 891 -54H133C101 -54 74 -27 74 5V763zM512 506L687 333L641 285L512 412L384 285L337 333L512 506z" />
    <glyph glyph-name="chevron-to-left"
      unicode="&#xE16C;"
      horiz-adv-x="1024" d="M388 383L804 799L851 752L482 383L851 14L804 -33L388 383zM166 -51V819H233V-51H166z" />
    <glyph glyph-name="chevron-to-right"
      unicode="&#xE16D;"
      horiz-adv-x="1024" d="M615 383L199 799L152 752L521 383L152 14L199 -33L615 383H615zM837 -51V819H771V-51H837z" />
    <glyph glyph-name="chevron-up"
      unicode="&#xE04D;"
      horiz-adv-x="1024" d="M512 627L928 211L881 164L512 533L143 164L96 211L512 627z" />
    <glyph glyph-name="circle"
      unicode="&#xE04E;"
      horiz-adv-x="1024" d="M512 791C287 791 105 609 105 384C105 159 287 -23 512 -23C737 -23 919 159 919 384C919 609 737 791 512 791zM38 384C38 646 250 858 512 858S986 646 986 384S774 -90 512 -90S38 122 38 384z" />
    <glyph glyph-name="circle-1x"
      unicode="&#xE26E;"
      horiz-adv-x="1024" d="M512 773C297 773 123 599 123 384S297 -5 512 -5S901 169 901 384S727 773 512 773zM56 384C56 636 260 840 512 840S968 636 968 384C968 132 764 -72 512 -72S56 132 56 384zM390 230H438C441 230 443 233 443 236V544C443 548 441 550 438 550H404C401 550 399 549 397 547L312 475C310 473 309 470 310 467L319 451C320 448 323 447 326 448L384 471V236C384 233 387 230 390 230zM499 230H547C550 230 552 232 554 234L604 307L654 234C655 232 658 230 661 230H712C717 230 719 233 716 237L640 346L712 449C714 453 712 456 708 456H660C657 456 655 455 653 452L607 385L562 452C560 455 558 456 555 456H503C499 456 497 453 500 449L571 346L495 237C493 233 494 230 499 230z" />
    <glyph glyph-name="circle-2x"
      unicode="&#xE26D;"
      horiz-adv-x="1024" d="M512 773C297 773 123 599 123 384S297 -5 512 -5S901 169 901 384S727 773 512 773zM56 384C56 636 260 840 512 840S968 636 968 384C968 132 764 -72 512 -72S56 132 56 384zM286 230H496C499 230 501 233 501 236V280C501 283 499 286 496 286H379L404 313C476 389 492 422 492 465C492 519 450 556 387 556C333 556 292 524 275 472C274 468 276 466 279 465L323 453C327 452 329 453 330 457C340 484 360 498 384 498C413 498 431 483 431 459C431 431 417 409 362 346L283 257C281 255 280 253 280 250V236C280 233 282 230 286 230zM539 230H588C591 230 593 232 595 234L645 307L694 234C696 232 698 230 701 230H753C757 230 759 233 757 237L680 346L752 449C755 453 753 456 749 456H700C697 456 695 455 693 452L648 385L602 452C601 455 599 456 595 456H544C539 456 538 453 540 449L612 346L536 237C533 233 535 230 539 230z" />
    <glyph glyph-name="circle-dot-5x"
      unicode="&#xE26C;"
      horiz-adv-x="1024" d="M512 773C297 773 123 599 123 384S297 -5 512 -5S901 169 901 384S727 773 512 773zM56 384C56 636 260 840 512 840S968 636 968 384C968 132 764 -72 512 -72S56 132 56 384zM271 233C290 233 304 246 304 265S290 298 271 298S238 284 238 265S252 233 271 233zM456 231C519 231 563 273 563 334C563 393 524 433 469 433C445 433 423 425 406 411L413 486H541C545 486 547 488 547 491V532C547 536 545 538 541 538H377C373 538 372 536 371 533L357 379C357 376 359 374 361 373L385 361C387 360 390 360 392 362C414 379 432 385 452 385C485 385 506 365 506 334C506 304 485 285 453 285C426 285 406 299 396 325C395 328 393 329 390 328L350 318C346 318 345 315 346 312C361 262 402 231 456 231zM593 237H639C642 237 644 238 645 240L692 309L739 240C741 238 743 237 746 237H794C799 237 800 240 798 244L726 346L794 443C796 446 794 449 790 449H745C742 449 740 448 738 446L695 383L653 446C651 448 649 449 646 449H597C593 449 592 446 594 443L662 346L590 244C588 240 589 237 593 237z" />
    <glyph glyph-name="circle-half-tone"
      unicode="&#xE23D;"
      horiz-adv-x="1024" d="M479 -44V812H545V-44H479zM512 778C294 778 118 602 118 384S294 -10 512 -10S906 166 906 384S730 778 512 778zM51 384C51 638 258 845 512 845S973 638 973 384S766 -77 512 -77S51 130 51 384z" />
    <glyph glyph-name="circles-4"
      unicode="&#xE04F;"
      horiz-adv-x="1024" d="M286 735C217 735 161 679 161 610C161 541 217 485 286 485C355 485 411 541 411 610C411 679 355 735 286 735zM95 610C95 715 181 801 286 801S478 715 478 610S392 418 286 418S95 504 95 610zM738 735C669 735 613 679 613 610C613 541 669 485 738 485C807 485 863 541 863 610C863 679 807 735 738 735zM546 610C546 715 632 801 738 801S929 715 929 610S844 418 738 418S546 504 546 610zM286 283C217 283 161 227 161 158C161 89 217 33 286 33C355 33 411 89 411 158C411 227 355 283 286 283zM95 158C95 264 181 350 286 350S478 264 478 158S392 -33 286 -33S95 53 95 158zM738 283C669 283 613 227 613 158C613 89 669 33 738 33C807 33 863 89 863 158C863 227 807 283 738 283zM546 158C546 264 632 350 738 350S929 264 929 158S844 -33 738 -33S546 53 546 158z" />
    <glyph glyph-name="circles-overlay-3"
      unicode="&#xE26B;"
      horiz-adv-x="1024" d="M333 402C238 402 161 325 161 230C161 136 238 59 333 59C397 59 454 94 483 147L541 115C501 42 422 -8 333 -8C201 -8 95 99 95 230C95 362 201 468 333 468C422 468 501 419 541 346L483 313C454 366 397 402 333 402zM691 402C596 402 520 325 520 230C520 136 596 59 691 59C786 59 863 136 863 230C863 325 786 402 691 402zM453 230C453 362 560 468 691 468C823 468 929 362 929 230C929 99 823 -8 691 -8C560 -8 453 99 453 230zM512 709C417 709 340 632 340 538A171 171 0 0 1 363 452L306 419A237 237 0 0 0 274 538C274 669 380 776 512 776C643 776 750 669 750 538A237 237 0 0 0 718 419L661 452A171 171 0 0 1 683 538C683 632 607 709 512 709z" />
    <glyph glyph-name="clipboard-list"
      unicode="&#xE050;"
      horiz-adv-x="1024" d="M348 187A41 41 0 0 0 386 162A41 41 0 1 0 348 187zM349 553A41 41 0 1 0 349 470A41 41 0 0 0 349 553zM348 368A41 41 0 1 0 348 285A41 41 0 0 0 348 368zM713 108H458V175H713V108zM713 478H458V545H713V478zM713 293H458V360H713V293zM178 729V-11H846V729H664V796H854C886 796 913 769 913 737V-19C913 -52 886 -78 854 -78H170C138 -78 111 -52 111 -19V737C111 769 138 796 170 796H372V729H178zM333 813A33 33 0 0 0 366 846H658A33 33 0 0 0 691 813V703A33 33 0 0 0 658 669H366A33 33 0 0 0 333 703V813zM400 779V736H624V779H400z" />
    <glyph glyph-name="cloche"
      unicode="&#xE051;"
      horiz-adv-x="1024" d="M955 179A443 443 0 0 1 545 621V717H479V621A443 443 0 0 1 69 179V110H0V44H1024V110H955V179zM888 110H136V179A376 376 0 0 0 888 179V110z" />
    <glyph glyph-name="clock"
      unicode="&#xE052;"
      horiz-adv-x="1024" d="M512 791C287 791 105 609 105 384S287 -23 512 -23S919 159 919 384S737 791 512 791zM38 384C38 646 250 858 512 858S986 646 986 384S774 -90 512 -90S38 122 38 384zM545 403V644H479V365L659 261L692 318L545 403z" />
    <glyph glyph-name="close-arrows-horizontal"
      unicode="&#xE053;"
      horiz-adv-x="1024" d="M364 351H51V417H364V351zM260 561L427 384L260 207L211 253L335 384L211 515L260 561zM764 561L813 515L689 384L813 253L764 207L597 384L764 561zM973 351H660V417H973V351zM479 -26V794H545V-26H479z" />
    <glyph glyph-name="close-arrows-vertical"
      unicode="&#xE054;"
      horiz-adv-x="1024" d="M479 -77V236H545V-77H479zM479 532V845H545V532H479zM689 132L643 84L512 208L381 84L335 132L512 300L689 132zM689 636L512 469L335 636L381 685L512 561L643 685L689 636zM922 351H102V417H922V351z" />
    <glyph glyph-name="cloud"
      unicode="&#xE226;"
      horiz-adv-x="1024" d="M267 577C303 674 403 742 523 742C629 742 747 687 785 578C802 536 802 505 802 465V465C926 449 1013 349 1002 225L1002 224C989 106 879 26 753 26H334C183 26 48 121 24 263L24 264C1 416 116 547 262 572A197 197 0 0 1 265 574L267 577zM331 558C328 541 318 529 309 522C302 517 292 513 288 511A55 55 0 0 1 287 510L282 508L277 507C159 489 73 386 90 274C107 171 208 92 334 92H753C853 92 927 155 935 231C944 319 882 391 786 399L780 400L774 403C757 411 736 431 736 463C736 504 735 524 723 553L722 554L722 555C697 629 612 676 523 676C430 676 357 624 331 558z" />
    <glyph glyph-name="cloud-arrow-down"
      unicode="&#xE227;"
      horiz-adv-x="1024" d="M1004 223C993 110 891 33 768 23V90C860 95 927 156 937 228C947 315 886 387 788 397H783L778 402C763 412 737 433 737 463C737 504 737 525 727 550C701 622 614 673 527 673C435 673 364 622 333 556C328 540 317 530 307 525C302 520 292 515 287 515H276C159 494 72 392 87 279C102 192 169 131 256 105V38C138 64 46 151 26 269C0 422 118 550 261 576H266V581C302 678 404 745 522 745C630 745 748 689 783 581C799 540 799 509 799 469C927 448 1014 351 1004 223zM481 13L364 131L317 85L517 -115L717 85L671 131L543 13V320H476V13H481z" />
    <glyph glyph-name="cloud-arrow-up"
      unicode="&#xE228;"
      horiz-adv-x="1024" d="M1004 223C993 105 881 23 758 23H717V90H753C850 90 927 151 937 228C947 315 886 387 788 397H783L778 402C763 412 737 433 737 463C737 504 737 525 727 550C701 622 614 673 527 673C435 673 364 622 333 556C328 540 317 530 307 525C302 520 292 515 287 515H276C159 494 72 392 87 279C102 182 189 110 302 100V33C164 44 41 136 20 269C-5 422 113 550 256 576H261V581C297 678 399 745 517 745C625 745 742 689 778 581C794 540 794 509 794 469C927 448 1014 351 1004 223zM481 248L364 131L317 177L517 376L717 177L671 131L553 248V-59H486V248H481z" />
    <glyph glyph-name="code"
      unicode="&#xE23C;"
      horiz-adv-x="1024" d="M460 38L633 730H564L391 38H460zM124 384L331 591L284 638L30 384L284 130L331 177L124 384zM900 384L693 591L740 638L994 384L740 130L693 177L900 384z" />
    <glyph glyph-name="code-in-square"
      unicode="&#xE2AE;"
      horiz-adv-x="1024" d="M531 597L429 187L493 171L595 581L531 597zM385 505L331 544L215 384L331 224L385 263L297 384L385 505zM693 544L639 505L727 384L639 263L693 224L809 384L693 544zM205 827A136 136 0 0 1 69 691V77A136 136 0 0 1 205 -59H819A136 136 0 0 1 955 77V691A136 136 0 0 1 819 827H205zM136 691C136 729 167 760 205 760H819C857 760 888 729 888 691V77A69 69 0 0 0 819 8H205A69 69 0 0 0 136 77V691z" />
    <glyph glyph-name="code-reader"
      unicode="&#xE055;"
      horiz-adv-x="1024" d="M132 417H893V350H132V417zM132 789H303V722H199V618H132V789zM132 149H199V45H303V-21H132V149zM722 789H893V618H826V722H722V789zM826 45V149H893V-21H722V45H826z" />
    <glyph glyph-name="code-slash"
      unicode="&#xE276;"
      horiz-adv-x="1024" d="M500 472L195 777L147 730L481 396L391 38H460L536 341L886 -9L933 38L791 180L994 384L740 638L693 591L900 384L744 228L554 417L633 730H564L500 472zM215 570L262 522L124 384L331 177L284 130L30 384L215 570z" />
    <glyph glyph-name="code-square"
      unicode="&#xE2AA;"
      horiz-adv-x="1024" d="M244 760L150 666L244 571L197 524L55 666L197 807L244 760zM439 666L345 760L392 807L534 666L392 524L345 571L439 666zM837 709H614V776H870A33 33 0 0 0 904 742V26A33 33 0 0 0 870 -8H154A33 33 0 0 0 120 26V435H187V59H837V709z" />
    <glyph glyph-name="coins"
      unicode="&#xE056;"
      horiz-adv-x="1024" d="M193 721C178 707 174 696 174 689C174 682 178 671 193 657C207 644 230 630 262 618C324 594 413 578 512 578C611 578 700 594 762 618C794 630 817 644 831 657C846 671 850 682 850 689C850 696 846 707 831 721C817 734 794 748 762 760C700 784 611 800 512 800C413 800 324 784 262 760C230 748 207 734 193 721zM238 822C309 850 406 866 512 866C617 866 715 850 786 822C822 808 853 791 876 770C899 749 916 721 916 689C916 657 899 629 876 608C853 587 822 570 786 556C715 528 617 512 512 512C406 512 309 528 238 556C202 570 170 587 148 608C125 629 108 657 108 689C108 721 125 749 148 770C170 791 202 808 238 822zM174 689V79C174 72 178 61 193 48C207 34 230 21 262 8C324 -16 413 -32 512 -32C611 -32 700 -16 762 8C794 21 817 34 831 48C846 61 850 72 850 79V689H916V79C916 47 899 20 876 -1C853 -22 822 -40 786 -54C715 -82 617 -98 512 -98C406 -98 309 -82 238 -54C202 -40 170 -22 148 -1C125 20 108 47 108 79V689H174zM148 410C125 431 108 458 108 491H174C174 483 178 472 193 459C207 445 230 431 262 419C324 395 413 379 512 379C611 379 700 395 762 419C794 431 817 445 831 459C846 472 850 483 850 491H916C916 458 899 431 876 410C854 389 822 371 786 357C715 329 618 312 512 312C406 312 309 329 238 357C202 371 170 389 148 410zM148 204C125 225 108 252 108 284H174C174 277 178 267 192 253C207 240 230 226 262 214C324 190 413 175 512 175C611 175 700 190 762 214C794 226 817 240 832 253C846 267 850 277 850 284H916C916 252 899 225 876 204C853 183 822 166 786 152C714 125 617 108 512 108C407 108 310 125 238 152C202 166 171 183 148 204z" />
    <glyph glyph-name="columns"
      unicode="&#xE1EF;"
      horiz-adv-x="1024" d="M327 26V742H393V26H327zM630 26V742H697V26H630zM110 709V59H914V709H110zM44 717C44 748 68 776 101 776H923C956 776 980 748 980 717V51C980 20 956 -8 923 -8H101C68 -8 44 20 44 51V717z" />
    <glyph glyph-name="command"
      unicode="&#xE2A9;"
      horiz-adv-x="1024" d="M120 640A136 136 0 1 0 392 640V571H632V640A136 136 0 1 0 768 504H699V264H768A136 136 0 1 0 632 128V197H392V128A136 136 0 1 0 256 264H325V504H256A136 136 0 0 0 120 640zM325 571V640A69 69 0 1 1 256 571H325zM392 264H632V504H392V264zM325 197H256A69 69 0 1 1 325 128V197zM699 197V128A69 69 0 1 1 768 197H699zM699 571H768A69 69 0 1 1 699 640V571z" />
    <glyph glyph-name="conical-flask"
      unicode="&#xE184;"
      horiz-adv-x="1024" d="M312 795A33 33 0 0 0 345 828H679A33 33 0 0 0 679 762H345A33 33 0 0 0 312 795zM732 323H293V390H732V323zM376 795A33 33 0 0 0 409 828H615A33 33 0 0 0 648 795V557L959 29C959 29 959 29 959 29C982 -11 954 -60 908 -60H116C70 -60 42 -11 65 29C65 29 65 29 65 29L376 557V795zM442 762V548A33 33 0 0 0 438 531L129 6H895L586 531A33 33 0 0 0 582 548V762H442z" />
    <glyph glyph-name="content"
      unicode="&#xE22D;"
      horiz-adv-x="1024" d="M528 499H299V565H528V499zM528 613H299V680H528V613zM186 786V-18H838V786H186zM119 794C119 827 146 852 178 852H845C878 852 904 825 904 794V-25C905 -58 878 -84 845 -84H178C145 -84 119 -57 119 -26V794z" />
    <glyph glyph-name="copy"
      unicode="&#xE057;"
      horiz-adv-x="1024" d="M61 842A33 33 0 0 0 95 876H760A33 33 0 0 0 793 842V666H727V809H128V129H256V62H95A33 33 0 0 0 61 96V842zM231 673A33 33 0 0 0 265 706H929A33 33 0 0 0 963 673V102L753 -108H265A33 33 0 0 0 231 -74V673zM298 639V-41H725L896 130V639H298zM621 477H389V543H621V477zM621 364H389V431H621V364zM686 169H963V102H753V-108H686V169z" />
    <glyph glyph-name="copy-content"
      unicode="&#xE22C;"
      horiz-adv-x="1024" d="M61 842A33 33 0 0 0 95 876H760A33 33 0 0 0 793 842V666H727V809H128V129H256V62H95A33 33 0 0 0 61 96V842zM231 673A33 33 0 0 0 265 706H929A33 33 0 0 0 963 673L963 -74A33 33 0 0 0 929 -108H265A33 33 0 0 0 231 -74V673zM298 639V-41H896L896 639H298zM621 477H389V543H621V477zM621 364H389V431H621V364z" />
    <glyph glyph-name="corners"
      unicode="&#xE058;"
      horiz-adv-x="1024" d="M340 845H128C86 845 51 810 51 768V556H118V768A10 10 0 0 0 128 778H340V845zM906 556V768A10 10 0 0 1 896 778H684V845H896C938 845 973 810 973 768V556H906zM684 -10H896A10 10 0 0 1 906 0V212H973V0C973 -42 938 -77 896 -77H684V-10zM118 212V0A10 10 0 0 1 128 -10H340V-77H128C86 -77 51 -42 51 0V212H118z" />
    <glyph glyph-name="corners-inverse"
      unicode="&#xE211;"
      horiz-adv-x="1024" d="M325 819V571H77V504H392V819H325zM699 819H632V504H947V571H699V819zM632 -51H699V197H947V264H632V-51zM325 -51V197H77V264H392V-51H325z" />
    <glyph glyph-name="coupon"
      unicode="&#xE05E;"
      horiz-adv-x="1024" d="M317 -5H973C1001 -5 1024 18 1024 46V722C1024 750 1001 773 973 773H317L256 712L195 773H51C23 773 0 750 0 722V46C0 18 23 -5 51 -5H195L256 56L317 -5zM167 61H67V707H167L256 618L345 707H957V61H345L256 150L167 61zM223 490V556H289V490H223zM223 351V417H289V351H223zM223 212V278H289V212H223z" />
    <glyph glyph-name="coupon-alt"
      unicode="&#xE059;"
      horiz-adv-x="1024" d="M67 707H957V508C902 495 860 444 860 384C860 324 902 273 957 260V61H67V260C122 273 164 324 164 384C164 444 122 495 67 508V707zM1024 722C1024 750 1001 773 973 773H51C23 773 0 750 0 722V445H36C70 445 97 418 97 384S70 323 36 323H0V46C0 18 23 -5 51 -5H973C1001 -5 1024 18 1024 46V323H988C954 323 927 350 927 384S954 445 988 445H1024V722zM263 584V651H329V584H263zM263 468V534H329V468H263zM263 351V417H329V351H263zM263 234V301H329V234H263zM263 117V184H329V117H263z" />
    <glyph glyph-name="coupon-bth"
      unicode="&#xE05A;"
      horiz-adv-x="1024" d="M576 193V575H628V193H576zM493 536H628C677 536 716 496 716 447A88 88 0 0 0 697 392C719 376 732 350 732 321C732 272 693 232 644 232H493V536zM544 358V283H644A37 37 0 1 1 644 358H544zM544 410H628A37 37 0 0 1 628 485H544V410zM204 638V755H270V638H204zM204 430V547H270V430H204zM204 221V338H270V221H204zM204 13V130H270V13H204zM95 722V46H929V722H95zM28 729C28 762 55 788 87 788H937C969 788 996 762 996 729V39C996 6 969 -20 937 -20H87C55 -20 28 6 28 39V729z" />
    <glyph glyph-name="coupon-pay"
      unicode="&#xE05B;"
      horiz-adv-x="1024" d="M84 703V65H940V703H84zM18 711C18 743 44 770 77 770H947C980 770 1006 743 1006 711V57C1006 25 980 -2 947 -2H77C44 -2 18 25 18 57V711zM206 621V736H272V621H206zM206 424V540H272V424H206zM206 228V344H272V228H206zM206 32V147H272V32H206zM386 496H453C491 496 521 466 521 429C521 392 491 363 453 363H424V308A7 7 0 0 0 417 302H386A7 7 0 0 0 380 308V489A7 7 0 0 0 386 496zM424 454V404H453C467 404 477 415 477 429C477 443 467 454 453 454H424zM529 371C529 412 559 444 595 444C614 444 628 438 637 427V437A3 3 0 0 0 640 440H675A3 3 0 0 0 678 437V305A3 3 0 0 0 675 302H640A3 3 0 0 0 637 305V315C628 304 614 298 595 298C559 298 529 330 529 371zM571 371C571 350 585 337 604 337C623 337 637 350 637 371C637 392 623 405 604 405C585 405 571 392 571 371zM850 440H815A6 6 0 0 1 809 437L777 356L744 437A6 6 0 0 1 739 440H704A3 3 0 0 1 700 436L756 301L735 251A3 3 0 0 1 739 246H774A6 6 0 0 1 779 250L853 436A3 3 0 0 1 850 440z" />
    <glyph glyph-name="coupon-percentage"
      unicode="&#xE05C;"
      horiz-adv-x="1024" d="M731 469L524 262L488 298L695 506L731 469zM532 476A15 15 0 1 1 532 445A15 15 0 0 1 532 476zM466 461C466 498 496 527 532 527C569 527 599 498 599 461C599 424 569 394 532 394C496 394 466 424 466 461zM687 322A15 15 0 1 1 687 291A15 15 0 0 1 687 322zM620 306C620 343 650 373 687 373C723 373 753 343 753 306C753 270 723 240 687 240C650 240 620 270 620 306zM204 638V755H270V638H204zM204 430V547H270V430H204zM204 221V338H270V221H204zM204 13V130H270V13H204zM95 722V46H929V722H95zM28 729C28 762 55 788 87 788H937C969 788 996 762 996 729V39C996 6 969 -20 937 -20H87C55 -20 28 6 28 39V729z" />
    <glyph glyph-name="coupon-star"
      unicode="&#xE05D;"
      horiz-adv-x="1024" d="M204 638V755H270V638H204zM204 430V547H270V430H204zM204 221V338H270V221H204zM204 13V130H270V13H204zM610 539L563 445L460 430L535 357L517 254L610 303L702 254L684 357L759 430L656 445L610 539zM95 722V46H929V722H95zM28 729C28 762 55 788 87 788H937C969 788 996 762 996 729V39C996 6 969 -20 937 -20H87C55 -20 28 6 28 39V729z" />
    <glyph glyph-name="credit-card"
      unicode="&#xE05F;"
      horiz-adv-x="1024" d="M90 708V60H934V708H90zM23 716C23 748 49 775 82 775H942C975 775 1001 748 1001 716V52C1001 20 975 -7 942 -7H82C49 -7 23 20 23 52V716zM671 221H824V154H671V221zM968 513H56V580H968V513z" />
    <glyph glyph-name="cube"
      unicode="&#xE060;"
      horiz-adv-x="1024" d="M593 852L876 688A161 161 0 0 0 957 549V221A161 161 0 0 0 876 82M876 82L593 -82A161 161 0 0 0 431 -82L148 82A161 161 0 0 0 67 221V549A161 161 0 0 0 148 688L431 852A161 161 0 0 0 593 852M559 794A95 95 0 0 1 465 794L181 631A95 95 0 0 1 134 549V221A95 95 0 0 1 181 139L465 -24A95 95 0 0 1 559 -24L843 139A95 95 0 0 1 890 221V549A95 95 0 0 1 843 631L559 794zM512 418A33 33 0 0 0 545 385V-70A33 33 0 1 0 479 -70V385A33 33 0 0 0 512 418zM935 629A33 33 0 0 0 923 584L529 356A33 33 0 1 0 495 414L890 642A33 33 0 0 0 935 629zM89 629A33 33 0 0 0 134 642L529 414A33 33 0 1 0 495 356L101 584A33 33 0 0 0 89 629z" />
    <glyph glyph-name="data-branch"
      unicode="&#xE277;"
      horiz-adv-x="1024" d="M172 742A136 136 0 1 0 340 611V347C361 359 384 366 410 366H614A69 69 0 0 1 684 435V611A136 136 0 1 0 750 611V435A136 136 0 0 0 614 300H410A69 69 0 0 1 340 230V157A136 136 0 1 0 274 157V611A136 136 0 0 0 172 742zM307 812A69 69 0 1 1 307 673A69 69 0 0 1 307 812zM717 812A69 69 0 1 1 717 673A69 69 0 0 1 717 812zM238 26A69 69 0 1 1 376 26A69 69 0 0 1 238 26z" />
    <glyph glyph-name="data-layer"
      unicode="&#xE1E4;"
      horiz-adv-x="1024" d="M764 172L313 677L362 721L813 216L764 172zM813 535L365 65L316 111L765 581L813 535zM808 216V536H875V216H808zM758 593L363 715L383 779L777 657L758 593zM223 141V648H289V141H223zM786 71L378 -44L360 20L767 135L786 71zM268 819C229 819 197 787 197 747C197 708 229 676 268 676C308 676 340 708 340 747C340 787 308 819 268 819zM130 747C130 823 192 885 268 885S406 823 406 747C406 671 344 609 268 609S130 671 130 747zM268 87C229 87 197 55 197 16C197 -24 229 -56 268 -56C308 -56 340 -24 340 16C340 55 308 87 268 87zM130 16C130 92 192 154 268 154S406 92 406 16S344 -122 268 -122S130 -61 130 16zM841 652A42 42 0 1 1 841 569A42 42 0 1 1 841 652zM733 611C733 670 781 719 841 719S950 670 950 611S901 502 841 502S733 551 733 611zM841 183A42 42 0 0 1 799 141A42 42 0 1 1 841 183zM733 141C733 201 781 250 841 250S950 201 950 141S901 33 841 33S733 81 733 141z" />
    <glyph glyph-name="data-neuron"
      unicode="&#xE1E7;"
      horiz-adv-x="1024" d="M172 110C144 110 120 87 120 58C120 30 144 6 172 6C201 6 224 30 224 58C224 87 201 110 172 110zM54 58C54 124 107 177 172 177C238 177 291 124 291 58C291 -7 238 -60 172 -60S54 -7 54 58zM377 806C348 806 325 783 325 755C325 726 348 703 377 703C406 703 429 726 429 755C429 783 406 806 377 806zM259 755C259 820 312 873 377 873C442 873 495 820 495 755C495 689 442 636 377 636C312 636 259 689 259 755zM853 289C825 289 801 266 801 237C801 209 825 186 853 186C882 186 905 209 905 237C905 266 882 289 853 289zM735 237C735 303 788 356 853 356S972 303 972 237C972 172 919 119 853 119S735 172 735 237zM786 558C818 558 844 584 844 616C844 648 818 674 786 674C754 674 728 648 728 616C728 584 754 558 786 558zM545 -66C578 -66 603 -40 603 -8C603 24 578 50 545 50C513 50 487 24 487 -8C487 -40 513 -66 545 -66zM115 373C147 373 173 399 173 431C173 463 147 489 115 489C83 489 57 463 57 431C57 399 83 373 115 373zM495 402C466 402 443 379 443 350C443 321 466 298 495 298C523 298 547 321 547 350C547 379 523 402 495 402zM376 350C376 415 429 468 495 468S613 415 613 350S560 232 495 232S376 285 376 350zM434 675L488 447L423 431L370 660L434 675zM786 217L563 284L583 348L806 281L786 217zM444 266L259 93L214 141L398 314L444 266z" />
    <glyph glyph-name="data-pipeline"
      unicode="&#xE1E2;"
      horiz-adv-x="1024" d="M276 802C238 802 207 771 207 733C207 696 238 665 276 665C314 665 344 696 344 733C344 771 314 802 276 802zM141 733C141 808 201 869 276 869C351 869 411 808 411 733C411 659 351 598 276 598C201 598 141 659 141 733zM286 104C248 104 218 74 218 36C218 -2 248 -33 286 -33C324 -33 355 -2 355 36C355 74 324 104 286 104zM151 36C151 110 212 171 286 171C361 171 421 110 421 36C421 -39 361 -99 286 -99C212 -99 151 -39 151 36zM670 700H404V767H670C792 767 912 687 918 566C925 442 812 347 684 347H365C334 347 317 325 317 308V138H250V308C250 370 306 413 365 413H684C784 413 856 485 852 563V563C848 636 770 700 670 700z" />
    <glyph glyph-name="database"
      unicode="&#xE16A;"
      horiz-adv-x="1024" d="M193 721C178 707 174 696 174 689C174 682 178 671 193 657C207 644 230 630 262 618C324 594 413 578 512 578C611 578 700 594 762 618C794 630 817 644 831 657C846 671 850 682 850 689C850 696 846 707 831 721C817 734 794 748 762 760C700 784 611 800 512 800C413 800 324 784 262 760C230 748 207 734 193 721zM238 822C309 850 407 866 512 866C618 866 715 850 786 822C822 808 854 791 876 770C899 749 916 721 916 689C916 657 899 629 876 608C854 587 822 570 786 556C715 528 618 512 512 512C407 512 309 528 238 556C202 570 171 587 148 608C125 629 108 657 108 689C108 721 125 749 148 770C171 791 202 808 238 822zM174 689V79C174 72 178 61 193 48C207 34 230 21 262 8C324 -16 413 -32 512 -32C611 -32 700 -16 762 8C794 21 817 34 831 48C846 61 850 72 850 79V689H916V79C916 47 899 20 876 -1C854 -22 822 -40 786 -54C715 -82 618 -98 512 -98C407 -98 309 -82 238 -54C202 -40 171 -22 148 -1C125 20 108 47 108 79V689H174zM148 410C125 431 108 458 108 491H174C174 483 178 472 193 459C207 445 230 431 262 419C324 395 413 379 512 379C611 379 700 395 762 419C794 431 817 445 831 459C846 472 850 483 850 491H916C916 458 899 431 876 410C854 389 822 371 786 357C715 329 618 312 512 312C406 312 309 329 238 357C202 371 170 389 148 410zM148 204C125 225 108 252 108 284H174C174 277 178 267 192 253C207 240 230 226 262 214C324 190 413 175 512 175C611 175 700 190 762 214C794 226 817 240 832 253C846 267 850 277 850 284H916C916 252 899 225 876 204C853 183 822 166 786 152C714 125 617 108 512 108C407 108 310 125 238 152C202 166 171 183 148 204zM241 522A26 26 0 1 1 241 470A26 26 0 0 1 241 522zM241 323A26 26 0 1 1 241 270A26 26 0 0 1 241 323zM241 116A26 26 0 1 1 241 64A26 26 0 0 1 241 116z" />
    <glyph glyph-name="desktop"
      unicode="&#xE061;"
      horiz-adv-x="1024" d="M102 689V164A6 6 0 0 1 103 162C104 161 105 159 107 157A26 26 0 0 1 114 152A12 12 0 0 1 115 152H913A21 21 0 0 1 917 155A28 28 0 0 1 921 162C922 163 922 164 922 164V689A12 12 0 0 1 921 690A28 28 0 0 1 917 696A29 29 0 0 1 912 700H115C115 700 114 700 112 699A22 22 0 0 1 106 695A21 21 0 0 1 102 690A9 9 0 0 1 102 689zM912 151L912 151L912 151zM60 743C73 755 92 767 115 767H916C928 767 938 762 945 758C953 754 959 748 965 742C976 731 988 712 988 690V164C988 144 979 125 968 113C958 101 940 85 916 85H115C95 85 76 96 62 107C49 120 36 139 36 164V690C36 712 47 730 60 743zM479 -68V119H545V-68H479zM718 -68H308V-1H718V-68z" />
    <glyph glyph-name="document"
      unicode="&#xE063;"
      horiz-adv-x="1024" d="M186 776V-8H648L838 182V776H186zM119 782C119 815 146 842 179 842H845C878 842 905 815 905 782V155L676 -74H179C146 -74 119 -47 119 -14V782zM629 202H871V135H695V-41H629V202z" />
    <glyph glyph-name="document-check"
      unicode="&#xE1F1;"
      horiz-adv-x="1024" d="M186 776V-8H648L838 182V776H186zM119 782C119 815 146 842 179 842H845C878 842 905 815 905 782V155L676 -74H179C146 -74 119 -47 119 -14V782zM629 202H871V135H695V-41H629V202zM477 386L648 547L693 498L477 295L331 432L376 481L477 386z" />
    <glyph glyph-name="document-eye"
      unicode="&#xE1E9;"
      horiz-adv-x="1024" d="M102 10V584H312V794H753V312C773 312 799 307 819 302V799C819 829 794 860 758 860H266L36 630V0C36 -31 61 -61 97 -61H492C471 -41 456 -20 445 5H102V10zM246 742V645H154L246 742zM993 82C942 179 845 241 742 241C640 241 548 179 492 82L481 67L492 51C543 -46 640 -108 742 -108C845 -108 937 -46 993 51L1004 67L993 82zM742 -41C671 -41 604 0 563 67C604 133 676 174 742 174C809 174 881 133 922 67C886 0 814 -41 742 -41zM814 67C814 26 783 -5 742 -5C701 -5 671 26 671 67C671 108 701 138 742 138C783 138 814 108 814 67z" />
    <glyph glyph-name="dots-2x3"
      unicode="&#xE29B;"
      horiz-adv-x="1024" d="M261 256A56 56 0 1 1 148 256A56 56 0 0 1 261 256zM261 512A56 56 0 1 1 148 512A56 56 0 0 1 261 512zM512 312A56 56 0 1 0 512 200A56 56 0 0 0 512 312zM568 512A56 56 0 1 1 456 512A56 56 0 0 1 568 512zM819 312A56 56 0 1 0 819 200A56 56 0 0 0 819 312zM876 512A56 56 0 1 1 763 512A56 56 0 0 1 876 512z" />
    <glyph glyph-name="dots-3x2"
      unicode="&#xE29C;"
      horiz-adv-x="1024" d="M384 635A56 56 0 1 1 384 747A56 56 0 0 1 384 635zM640 635A56 56 0 1 1 640 747A56 56 0 0 1 640 635zM440 384A56 56 0 1 0 328 384A56 56 0 0 0 440 384zM640 328A56 56 0 1 1 640 440A56 56 0 0 1 640 328zM440 77A56 56 0 1 0 328 77A56 56 0 0 0 440 77zM640 20A56 56 0 1 1 640 133A56 56 0 0 1 640 20z" />
    <glyph glyph-name="dots-3x3"
      unicode="&#xE2A8;"
      horiz-adv-x="1024" d="M206 746A56 56 0 1 1 206 633A56 56 0 0 1 206 746zM512 746A56 56 0 1 1 512 633A56 56 0 0 1 512 746zM456 384A56 56 0 1 0 568 384A56 56 0 0 0 456 384zM456 78A56 56 0 1 0 568 78A56 56 0 0 0 456 78zM761 690A56 56 0 1 0 874 690A56 56 0 0 0 761 690zM761 384A56 56 0 1 0 874 384A56 56 0 0 0 761 384zM206 440A56 56 0 1 1 206 328A56 56 0 0 1 206 440zM150 78A56 56 0 1 1 263 78A56 56 0 0 1 150 78zM761 78A56 56 0 1 1 874 78A56 56 0 0 1 761 78z" />
    <glyph glyph-name="download"
      unicode="&#xE064;"
      horiz-adv-x="1024" d="M788 509L545 266V799H478V266L236 509L189 462L512 139L835 462L788 509zM904 35H120V-31H904V35z" />
    <glyph glyph-name="earth"
      unicode="&#xE065;"
      horiz-adv-x="1024" d="M517 791C292 791 110 609 110 384S292 -23 517 -23C742 -23 924 159 924 384S742 791 517 791zM44 384C44 646 256 858 517 858C779 858 991 646 991 384S779 -90 517 -90C256 -90 44 122 44 384zM433 684C405 609 387 503 387 384C387 265 405 159 433 84C447 47 463 18 479 0C494 -18 508 -23 517 -23C527 -23 540 -18 556 0C572 18 587 47 601 84C629 159 647 265 647 384C647 503 629 609 601 684C587 721 572 750 556 768C540 786 527 791 517 791C508 791 494 786 479 768C463 750 447 721 433 684zM428 812C452 838 481 858 517 858C553 858 583 838 606 812C629 785 648 749 664 707C695 623 714 508 714 384C714 259 695 145 664 61C648 19 629 -17 606 -44C583 -70 553 -90 517 -90C481 -90 452 -70 428 -44C405 -17 386 19 370 61C339 145 320 259 320 384C320 508 339 623 370 707C386 749 405 785 428 812zM72 525A33 33 0 0 0 105 558H929A33 33 0 1 0 929 491H105A33 33 0 0 0 72 525zM72 243A33 33 0 0 0 105 276H929A33 33 0 1 0 929 210H105A33 33 0 0 0 72 243z" />
    <glyph glyph-name="easy-pass"
      unicode="&#xE066;"
      horiz-adv-x="1024" d="M189 819A46 46 0 0 0 244 845L249 843L872 578A46 46 0 0 0 899 524L897 519L694 41L665 53L637 65C412 167 261 314 304 415C327 469 393 492 486 489L498 489L495 426C419 430 372 415 361 391C338 337 461 217 649 129L661 123L833 527L239 779L68 374L238 302L243 292C282 214 374 128 491 66C680 -34 868 -41 909 36C924 64 919 104 893 151L873 102L815 126L877 273L1024 210L1000 153L952 173C984 112 989 54 964 7C901 -112 677 -104 462 11C345 73 250 157 200 240L193 253L28 323A46 46 0 0 0 2 378L4 383L189 819V819zM275 678L398 626L374 568L251 621L275 678z" />
    <glyph glyph-name="edit"
      unicode="&#xE068;"
      horiz-adv-x="1024" d="M926 -57H98V9H926V-57zM642 839L846 635L301 90H97V294L642 839zM642 745L163 267V157H273L752 635L642 745z" />
    <glyph glyph-name="edit-alt"
      unicode="&#xE067;"
      horiz-adv-x="1024" d="M869 841L996 714L532 251H406V377L869 841zM869 747L472 350V317H505L902 714L869 747zM857 477V36C857 26 849 18 839 18H189C179 18 171 26 171 36V687C171 696 179 705 189 705H635L702 771H189C142 771 104 733 104 687V36C104 -10 142 -48 189 -48H839C885 -48 923 -10 923 36V544L857 477z" />
    <glyph glyph-name="editor-indent"
      unicode="&#xE069;"
      horiz-adv-x="1024" d="M205 208L393 379L205 551V208zM871 661H153V727H871V661zM871 41H153V107H871V41zM871 454H513V521H871V454zM871 248H513V315H871V248z" />
    <glyph glyph-name="editor-outdent"
      unicode="&#xE06A;"
      horiz-adv-x="1024" d="M341 208L154 379L341 551V208zM871 661H153V727H871V661zM871 41H153V107H871V41zM871 454H513V521H871V454zM871 248H513V315H871V248z" />
    <glyph glyph-name="ellipsis-horizontal"
      unicode="&#xE06B;"
      horiz-adv-x="1024" d="M874 384C874 415 849 440 818 440C787 440 761 415 761 384C761 353 787 328 818 328C849 328 874 353 874 384zM568 384C568 415 543 440 512 440C481 440 456 415 456 384C456 353 481 328 512 328C543 328 568 353 568 384zM206 440C237 440 263 415 263 384C263 353 237 328 206 328C175 328 150 353 150 384C150 415 175 440 206 440z" />
    </font>
</defs>
</svg>
