<?xml version="1.0" standalone="no"?>
<!DOCTYPE svg PUBLIC "-//W3C//DTD SVG 1.1//EN" "http://www.w3.org/Graphics/SVG/1.1/DTD/svg11.dtd" >
<svg xmlns="http://www.w3.org/2000/svg">
<metadata>
LAICON Solid Version 16.17
Copyright (c) LINE Corporation
</metadata>
<defs>
  <font id="laicon-solid" horiz-adv-x="1024">
    <font-face font-family="laicon-solid"
      units-per-em="1024" ascent="896"
      descent="128"
      font-weight="400"
      font-style="Regular" />
    <missing-glyph horiz-adv-x="1024" /><glyph unicode="&#x20;" horiz-adv-x="512" d="" />
    <glyph glyph-name="address-book"
      unicode="&#xE15D;"
      horiz-adv-x="1024" d="M157 763C157 796 183 822 216 822H920C952 822 979 796 979 763V5C979 -28 952 -54 920 -54H216C183 -54 157 -28 157 5V763zM335 205V157H801V205C801 226 775 251 758 263L636 347C624 355 628 394 640 405C648 418 656 432 669 456A98 98 0 0 1 670 456C674 458 688 466 691 491C693 504 686 526 683 530A6 6 0 0 0 683 530A4 4 0 0 1 683 531C683 597 627 650 568 650C509 650 452 597 452 531C452 531 452 530 452 530A4 4 0 0 0 452 530C449 526 442 504 444 491C448 466 461 458 465 456L465 456C478 432 487 418 495 405C508 394 511 355 500 347L378 263C361 251 335 226 335 205zM46 241H224V174H46V241zM46 588H224V522H46V588z" />
    <glyph glyph-name="album"
      unicode="&#xE000;"
      horiz-adv-x="1024" d="M638 498C638 527 661 550 690 550C719 550 743 527 743 498C743 469 719 446 690 446C661 446 638 469 638 498zM692 229H356L524 491L692 229zM897 822H195C162 822 136 795 136 763V588H23V521H136V240H23V174H136V5C136 -27 162 -54 195 -54H897C930 -54 956 -27 956 5V763C956 795 930 822 897 822z" />
    <glyph glyph-name="antenna"
      unicode="&#xE001;"
      horiz-adv-x="1024" d="M324 427C324 530 408 614 512 614C616 614 700 530 700 427C700 361 666 303 614 270V156C724 197 802 303 802 427C802 587 672 717 512 717C352 717 222 587 222 427C222 303 300 197 410 156V270C358 303 324 361 324 427zM512 887C258 887 51 681 51 427C51 208 205 24 410 -22V83C262 128 154 265 154 427C154 624 314 785 512 785S870 624 870 427C870 265 762 128 614 83V-22C819 24 973 208 973 427C973 681 766 887 512 887zM621 381C626 395 630 410 630 427C630 492 577 544 512 544C447 544 394 492 394 427C394 410 398 395 404 381C405 377 408 373 410 370C421 349 439 332 461 321V-119H563V321C585 332 603 349 614 370C616 373 619 377 621 381z" />
    <glyph glyph-name="arrow-down"
      unicode="&#xE003;"
      horiz-adv-x="1024" d="M512 77L856 403L926 329L512 -64L98 329L168 403L512 77zM461 19V794H563V19H461z" />
    <glyph glyph-name="arrow-down-circle"
      unicode="&#xE002;"
      horiz-adv-x="1024" d="M512 860C251 860 41 650 41 389S251 -82 512 -82S983 128 983 389C983 645 773 860 512 860zM512 128L338 292L384 338L481 246V640H548V251L645 343L691 297L512 128z" />
    <glyph glyph-name="arrow-left"
      unicode="&#xE005;"
      horiz-adv-x="1024" d="M254 333L531 40L457 -30L64 384L457 798L531 728L254 435H922V333H254z" />
    <glyph glyph-name="arrow-left-circle"
      unicode="&#xE004;"
      horiz-adv-x="1024" d="M512 855C251 855 41 645 41 384S251 -87 512 -87S983 123 983 384S773 855 512 855zM768 353H379L471 256L425 210L256 384L420 558L466 512L374 415H768V353z" />
    <glyph glyph-name="arrow-left-up"
      unicode="&#xE24E;"
      horiz-adv-x="1024" d="M179 717H742V614H282V154H179V717zM757 66L194 629L267 702L830 139L757 66z" />
    <glyph glyph-name="arrow-out-square"
      unicode="&#xE006;"
      horiz-adv-x="1024" d="M479 404L880 805L938 747L537 347L479 404zM886 754H661V836H968V530H886V754zM143 678V25C143 22 144 20 144 19A10 10 0 0 1 147 16A15 15 0 0 1 156 12H799C806 12 811 15 812 16A7 7 0 0 1 814 18C814 19 814 19 814 19V427H896V19C896 -32 852 -70 799 -70H156C112 -70 61 -36 61 25V680C61 707 77 728 91 741C105 754 127 767 152 767H560V685H153A9 9 0 0 1 152 684A21 21 0 0 1 146 681A19 19 0 0 1 143 678zM143 677L143 677L143 677z" />
    <glyph glyph-name="arrow-right"
      unicode="&#xE008;"
      horiz-adv-x="1024" d="M819 384L493 728L567 798L960 384L567 -30L493 40L819 384zM877 435V333H102V435H877z" />
    <glyph glyph-name="arrow-right-circle"
      unicode="&#xE007;"
      horiz-adv-x="1024" d="M512 860C251 860 41 650 41 389S251 -82 512 -82S983 128 983 389C983 645 773 860 512 860zM599 210L553 256L645 353H256V420H645L553 517L599 563L768 384L599 210z" />
    <glyph glyph-name="arrow-right-up"
      unicode="&#xE288;"
      horiz-adv-x="1024" d="M742 542L267 66L194 139L670 614H282V717H845V154H742V542z" />
    <glyph glyph-name="arrow-to-down"
      unicode="&#xE009;"
      horiz-adv-x="1024" d="M513 216L269 448L325 507L513 329L699 507L755 448L513 216zM553 735V282H471V735H553zM922 36H102V118H922V36z" />
    <glyph glyph-name="arrow-to-left"
      unicode="&#xE00A;"
      horiz-adv-x="1024" d="M496 343H863V425H497L635 571L576 627L344 383L576 141L635 197L496 343zM164 -26V794H246V-26H164z" />
    <glyph glyph-name="arrow-to-right"
      unicode="&#xE00B;"
      horiz-adv-x="1024" d="M528 343H161V425H527L389 571L448 627L680 383L448 141L389 197L528 343zM860 -26V794H778V-26H860z" />
    <glyph glyph-name="arrow-to-top"
      unicode="&#xE00C;"
      horiz-adv-x="1024" d="M553 400V33H471V399L325 261L269 320L513 552L755 320L699 261L553 400zM922 732H102V650H922V732z" />
    <glyph glyph-name="arrow-turn-down-right"
      unicode="&#xE296;"
      horiz-adv-x="1024" d="M164 742V461A297 297 0 0 1 461 164H746L611 29L669 -29L903 205L669 439L611 381L746 246H461A215 215 0 0 0 246 461V742H164z" />
    <glyph glyph-name="arrow-u-turn-right"
      unicode="&#xE297;"
      horiz-adv-x="1024" d="M246 486A215 215 0 0 0 676 486V160L567 270L509 212L717 4L925 212L867 270L758 160V486A297 297 0 0 1 164 486V128H246V486z" />
    <glyph glyph-name="arrow-up"
      unicode="&#xE00E;"
      horiz-adv-x="1024" d="M512 691L168 365L98 439L512 832L926 439L856 365L512 691zM461 749H563V-26H461V749z" />
    <glyph glyph-name="arrow-up-circle"
      unicode="&#xE00D;"
      horiz-adv-x="1024" d="M512 860C251 860 36 650 36 389S246 -82 512 -82C773 -82 983 128 983 389C988 645 773 860 512 860zM645 425L548 517V128H481V517L384 425L338 471L512 640L686 476L645 425z" />
    <glyph glyph-name="arrows-diagonal-in"
      unicode="&#xE00F;"
      horiz-adv-x="1024" d="M369 527V701H451V445H195V527H369zM655 241V67H573V323H829V241H655zM923 -85L585 253L643 311L981 -27L923 -85zM381 457L43 795L101 853L439 515L381 457z" />
    <glyph glyph-name="arrows-diagonal-out"
      unicode="&#xE010;"
      horiz-adv-x="1024" d="M396 442L58 780L116 838L454 500L396 442zM908 -70L570 268L628 326L966 -12L908 -70zM896 0V174H978V-82H722V0H896zM128 768V594H46V850H302V768H128z" />
    <glyph glyph-name="arrows-up-down"
      unicode="&#xE20A;"
      horiz-adv-x="1024" d="M341 742V48H239V742H341zM290 120H290L409 239L481 167L290 -25L98 167L171 239L290 120zM683 26V720H785V26H683zM734 648L615 529L543 601L734 793L926 601L853 529L734 648z" />
    <glyph glyph-name="asterisk"
      unicode="&#xE1E0;"
      horiz-adv-x="1024" d="M461 76V692H563V76H461zM753 186L220 494L271 582L804 274L753 186zM753 186L220 494L271 582L804 274L753 186zM804 494L271 186L220 274L753 582L804 494z" />
    <glyph glyph-name="astronaut"
      unicode="&#xE173;"
      horiz-adv-x="1024" d="M517 686C410 686 323 604 323 507C323 404 410 328 517 328C625 328 712 410 712 507S625 686 517 686zM620 507L568 573L609 604L660 538L620 507zM691 20V-82H333V20C333 36 343 46 358 46H666C681 46 691 36 691 20zM860 200C855 225 840 246 819 261C835 282 845 307 850 333C911 358 922 430 922 481C922 548 911 594 886 620C881 630 870 635 855 640C819 788 696 870 517 870C343 870 220 788 179 640C164 635 154 630 143 620C118 594 108 553 108 486C108 430 118 358 179 338C184 312 195 287 210 266C189 251 174 230 169 200C87 154 82 67 82 -46C82 -67 97 -82 113 -82H276V20C276 61 312 97 353 97H660C701 97 737 61 737 20V-82H911C932 -82 942 -67 942 -51C952 46 957 154 860 200zM517 271C379 271 271 374 271 502S384 732 517 732C650 732 763 630 763 502C763 379 650 271 517 271z" />
    <glyph glyph-name="astronauts"
      unicode="&#xE1F2;"
      horiz-adv-x="1024" d="M220 266C220 307 220 358 256 399C261 404 266 410 271 410C307 492 384 548 471 558C486 573 497 594 497 625V630C497 660 497 701 471 727C466 732 461 737 456 737C425 819 353 865 261 865C169 865 102 819 67 737C61 737 56 732 51 727C26 701 26 666 26 630V625C26 584 46 558 72 548C77 543 82 532 87 522C67 507 41 481 26 440C15 410 15 323 15 297C15 276 31 266 46 266H220zM998 440C983 481 957 507 937 522C942 532 947 543 952 548C978 558 998 584 998 625V630C998 660 998 701 973 727C968 732 963 737 957 737C927 819 855 865 763 865C671 865 599 819 568 737C563 732 558 732 553 727C527 701 527 666 527 630V625C527 594 538 573 553 558C645 548 717 492 753 410C758 404 763 404 768 399C804 364 804 307 804 266H978C998 266 1009 282 1014 297C1014 328 1014 410 998 440zM589 -31H435V-118H589V-31zM763 67C748 108 717 133 696 154C707 164 712 174 717 184C742 195 763 220 763 266V271C763 307 763 348 737 374C732 379 727 384 722 384C686 471 609 522 517 522C420 522 343 471 312 384C307 379 302 379 297 374C271 348 271 307 271 271V266C271 225 292 195 317 184C323 174 328 164 338 154C312 138 287 108 271 67C256 36 256 -56 256 -82C256 -102 271 -113 287 -113H389V0C389 15 399 26 415 26H620C635 26 645 15 645 0V-113H748C768 -113 778 -97 783 -82C778 -56 778 31 763 67z" />
    <glyph glyph-name="at-mark"
      unicode="&#xE011;"
      horiz-adv-x="1024" d="M179 384A333 333 0 1 0 837 312C833 296 825 273 812 255C799 239 786 230 768 230A26 26 0 0 0 742 256V538A51 51 0 0 1 650 568A230 230 0 1 1 652 201A128 128 0 0 1 768 128C827 128 868 160 894 194C918 227 931 264 937 289A435 435 0 1 1 512 -51A51 51 0 1 1 512 51A333 333 0 0 0 179 384zM640 384A128 128 0 1 0 384 384A128 128 0 0 0 640 384z" />
    <glyph glyph-name="backward-layer"
      unicode="&#xE012;"
      horiz-adv-x="1024" d="M264 486C264 560 323 620 397 620H694V742C694 779 664 809 627 809H141C104 809 74 779 74 742V282C74 245 104 215 141 215H264V486zM330 486C330 523 360 553 397 553H883C920 553 950 523 950 486V26C950 -11 920 -41 883 -41H397C360 -41 330 -11 330 26V486zM412 471V41H868V471H412z" />
    <glyph glyph-name="balloons"
      unicode="&#xE225;"
      horiz-adv-x="1024" d="M714 317L562 -95A33 33 0 0 0 500 -95L353 309L415 332L531 13L652 340L714 317zM576 343C629 422 652 528 630 639A451 451 0 0 1 608 713C659 761 726 783 797 769C852 759 898 727 928 677C967 615 976 531 954 454C920 335 816 271 723 271C706 271 690 273 675 277C636 287 602 311 576 343zM195 697C218 740 249 750 271 754L260 819C205 810 164 780 136 728C108 675 111 615 119 573L185 586C179 617 176 661 195 697zM581 629C614 467 536 311 404 276C386 271 367 268 347 268C234 268 103 350 61 496C33 593 45 697 93 775C130 835 185 874 251 886C406 915 545 807 581 629z" />
    <glyph glyph-name="barometer-speed"
      unicode="&#xE20D;"
      horiz-adv-x="1024" d="M320 116C386 54 475 15 573 15C777 15 942 180 942 384C942 588 777 753 573 753C475 753 386 714 320 652L262 709C343 787 453 835 573 835C822 835 1024 633 1024 384C1024 135 822 -67 573 -67C453 -67 343 -19 262 59L320 116zM573 474C623 474 663 433 663 384S623 294 573 294S484 335 484 384S524 474 573 474zM379 476H97V558H379V476zM282 343H0V425H282V343zM594 459L740 593L796 533L650 399L594 459zM379 210H97V292H379V210z" />
    <glyph glyph-name="bars"
      unicode="&#xE013;"
      horiz-adv-x="1024" d="M172 333H852V435H172V333zM172 50H852V153H172V50zM172 615H852V718H172V615z" />
    <glyph glyph-name="bars-check"
      unicode="&#xE213;"
      horiz-adv-x="1024" d="M861 660H77V742H861V660zM488 41H77V123H488V41zM861 351H77V433H861V351zM740 57L962 279L1020 221L740 -59L555 127L613 185L740 57z" />
    <glyph glyph-name="bars-music"
      unicode="&#xE22A;"
      horiz-adv-x="1024" d="M819 707H35V788H819V707zM409 87H35V169H409V87zM599 397H35V479H599V397zM818 476L927 354L988 409L843 571C805 613 736 586 736 530V252A143 143 0 1 1 818 123V476z" />
    <glyph glyph-name="bars-plus"
      unicode="&#xE22F;"
      horiz-adv-x="1024" d="M886 660H102V742H886V660zM514 41H102V123H514V41zM973 41H614V123H973V41zM753 -97V262H835V-97H753zM886 351H102V433H886V351z" />
    <glyph glyph-name="baseball-ball"
      unicode="&#xE014;"
      horiz-adv-x="1024" d="M44 384C44 643 253 852 512 852C771 852 980 643 980 384C980 125 771 -84 512 -84C253 -84 44 125 44 384zM257 621A33 33 0 0 1 251 574A350 350 0 0 0 284 523A33 33 0 0 1 343 554A417 417 0 0 1 303 615A33 33 0 0 1 257 621zM350 445A33 33 0 0 1 322 407A356 356 0 0 0 325 346A33 33 0 0 1 391 344A422 422 0 0 1 388 416A33 33 0 0 1 350 445zM361 202A33 33 0 1 1 300 227A350 350 0 0 0 272 173A33 33 0 1 1 328 137A417 417 0 0 1 361 202zM764 618A33 33 0 0 1 718 611A417 417 0 0 1 684 559A33 33 0 0 1 742 527A350 350 0 0 0 771 571A33 33 0 0 1 764 618zM702 403A33 33 0 0 1 636 411A422 422 0 0 1 632 349A33 33 0 0 1 699 350A356 356 0 0 0 702 403zM682 241A33 33 0 0 1 665 197C673 178 682 159 693 142A33 33 0 0 1 750 176A351 351 0 0 0 726 223A33 33 0 0 1 682 241z" />
    <glyph glyph-name="beauty"
      unicode="&#xE270;"
      horiz-adv-x="1024" d="M727 831A17 17 0 0 0 744 815L745 807A85 85 0 0 1 823 729L831 729A17 17 0 0 0 831 695L823 694A85 85 0 0 1 745 616L744 608A17 17 0 0 0 710 608L709 616A85 85 0 0 1 631 694L623 695A17 17 0 0 0 623 729L631 729A85 85 0 0 1 709 807L710 815A17 17 0 0 0 727 831zM881 627A13 13 0 0 0 893 615L894 609A64 64 0 0 1 952 551L959 550A13 13 0 0 0 959 525L952 524A64 64 0 0 1 894 466L893 460A13 13 0 0 0 868 460L867 466A64 64 0 0 1 809 524L803 525A13 13 0 0 0 803 550L809 551A64 64 0 0 1 867 609L868 615A13 13 0 0 0 881 627zM556 773A422 422 0 0 1 512 776C282 776 95 589 95 358V153A218 218 0 0 0 58 32L49 18A33 33 0 0 1 77 -33H375C280 16 215 116 215 230V358C215 395 245 425 282 425H742C779 425 809 395 809 358V230C809 116 744 16 649 -33H845A33 33 0 0 1 872 -18L882 -5A284 284 0 0 1 929 153V358C929 371 929 384 928 397H881A64 64 0 0 0 817 455L816 462A13 13 0 0 1 805 473L799 474A64 64 0 0 0 740 538A4 4 0 0 1 735 542A69 69 0 0 0 727 541C692 541 662 568 659 604L658 612A34 34 0 0 1 627 643L619 644C584 647 556 676 556 712V773zM282 230C282 103 385 0 512 0S742 103 742 230V358H282V230z" />
    <glyph glyph-name="beer"
      unicode="&#xE1B1;"
      horiz-adv-x="1024" d="M870 143H783V210H870C881 210 886 215 886 225V507C886 512 881 522 870 522H783V589H870C916 589 952 553 952 507V225C952 179 916 143 870 143zM773 635C799 635 814 620 819 594V-10C819 -56 783 -92 737 -92H266C220 -92 184 -56 184 -10V384L220 364C236 358 256 358 271 358C338 358 358 394 389 466C425 543 466 635 609 635H773zM445 87V200H394V87H445zM604 87V415H553V87H604zM276 297C138 297 77 399 77 507C77 568 113 625 169 655C189 758 271 835 374 855C471 876 568 840 635 763C655 768 681 773 707 768C788 753 819 676 819 604V573H614C512 573 486 517 456 445C425 379 389 297 276 297zM425 794C410 794 399 794 384 788C302 773 241 707 230 625L225 604L210 599C169 584 143 548 143 507C143 481 148 364 276 364C343 364 364 399 394 471C425 543 466 640 614 640H753C748 666 732 696 696 707C676 712 645 701 635 696L609 686L594 712C553 758 492 794 425 794z" />
    <glyph glyph-name="beginner-mark"
      unicode="&#xE2B2;"
      horiz-adv-x="1024" d="M682 834C782 898 914 826 914 707V224A136 136 0 0 0 853 111L581 -69A125 125 0 0 0 443 -69L171 111A136 136 0 0 0 110 224V707C110 826 242 898 342 834L512 726L682 834zM307 778C250 814 177 773 177 707V224C177 201 188 179 208 166L480 -13C489 -19 501 -23 512 -23V647L307 778z" />
    <glyph glyph-name="bell"
      unicode="&#xE015;"
      horiz-adv-x="1024" d="M160 474A352 352 0 0 0 864 474V239C864 180 882 125 913 79A33 33 0 0 0 886 27H545V-76H479V27H138A33 33 0 0 0 111 79A284 284 0 0 1 160 239V474z" />
    <glyph glyph-name="bell-slash"
      unicode="&#xE29F;"
      horiz-adv-x="1024" d="M210 27H138A33 33 0 0 0 111 79A284 284 0 0 1 160 239V474A352 352 0 0 0 823 639L924 740L971 693L177 -100L130 -53L210 27zM864 474C864 481 864 488 863 494L396 27H479V-76H545V27H886A33 33 0 0 1 913 79A284 284 0 0 0 864 239V474z" />
    <glyph glyph-name="bicycle"
      unicode="&#xE016;"
      horiz-adv-x="1024" d="M523 717A33 33 0 0 0 557 751H645L747 469A229 229 0 0 0 793 474C919 474 1021 372 1021 246C1021 120 919 17 793 17C667 17 565 120 565 246C565 332 613 408 685 447L656 526H368L339 447C411 408 459 332 459 246C459 120 357 17 231 17C105 17 3 120 3 246C3 372 105 474 231 474C247 474 262 472 277 469L322 593H631L598 684H557A33 33 0 0 0 523 717zM717 454A33 33 0 0 1 697 411L762 234A33 33 0 1 1 824 257L760 434A33 33 0 0 1 717 454zM306 454A33 33 0 0 1 264 434L200 257A33 33 0 1 1 262 234L326 411A33 33 0 0 1 306 454z" />
    <glyph glyph-name="billing-document"
      unicode="&#xE017;"
      horiz-adv-x="1024" d="M865 759V274A221 221 0 0 1 854 278C820 291 777 297 732 297C687 297 644 291 610 278C593 272 575 264 560 251C545 238 525 215 525 179V-5C525 -22 529 -36 535 -47H201C146 -47 101 -2 101 53V759C101 814 146 859 201 859H765C820 859 865 814 865 759zM647 560V611H319V560H647zM319 380H647V431H319V380zM624 240C653 250 691 256 732 256C773 256 812 250 841 240C855 235 868 228 878 219C888 211 899 198 899 179V179C898 160 888 147 878 139C868 130 855 124 841 119C812 108 773 102 732 102C691 102 653 108 624 119C609 124 596 130 586 139C576 147 566 161 566 179C566 198 576 211 586 219C596 228 609 235 624 240zM566 115V87C566 68 576 55 586 47C596 38 609 32 624 26C653 16 691 10 732 10C773 10 812 16 841 26C855 32 868 38 878 47C888 55 898 68 899 87V115C884 103 868 96 852 90C819 78 776 72 732 72S646 78 612 90C597 96 580 103 566 115zM852 -2C868 4 884 11 899 23V-5C899 -24 888 -37 878 -45C868 -54 855 -61 841 -66C812 -76 773 -82 732 -82C691 -82 653 -76 624 -66C609 -61 596 -54 586 -45C576 -37 566 -24 566 -5V23C580 11 597 4 612 -2C646 -14 688 -20 732 -20S819 -14 852 -2z" />
    <glyph glyph-name="bitcoin"
      unicode="&#xE018;"
      horiz-adv-x="1024" d="M476 413V492H547A39 39 0 0 0 547 413H476zM476 268V347H572A39 39 0 1 0 572 268H476zM38 384C38 646 250 858 512 858S986 646 986 384S774 -90 512 -90S38 122 38 384zM410 599V558H373V492H410V268H373V202H410V161H476V202H515V161H581V202C636 207 678 252 678 308C678 343 661 374 635 393A105 105 0 0 1 653 452C653 499 623 538 581 553V599H515V558H476V599H410z" />
    <glyph glyph-name="block-quote-text"
      unicode="&#xE2A3;"
      horiz-adv-x="1024" d="M110 753H914V650H110V753zM120 453H223V-3H120V453zM914 15H358V118H914V15zM914 333H358V435H914V333z" />
    <glyph glyph-name="book"
      unicode="&#xE1EA;"
      horiz-adv-x="1024" d="M486 696C486 742 451 778 404 778H102C56 778 26 742 26 696V102C26 56 61 20 108 20H369C384 20 399 15 415 10C420 5 425 5 430 0C430 0 435 0 435 -5C445 -15 461 -15 471 -10C481 -5 492 5 492 20L486 696zM364 220H138V271H364V220zM364 374H138V425H364V374zM364 522H138V573H364V522zM922 778H620C573 778 538 737 538 691V15C538 0 543 -10 558 -15C568 -20 584 -20 594 -10L599 -5C604 -5 609 0 614 5C630 10 645 15 660 15H922C968 15 1004 56 1004 97V696C1004 742 968 778 922 778zM886 220H660V271H886V220zM886 374H660V425H886V374zM886 522H660V573H886V522z" />
    <glyph glyph-name="book-push"
      unicode="&#xE240;"
      horiz-adv-x="1024" d="M205 845C148 845 102 799 102 742V91A138 138 0 0 0 197 128H610C622 243 719 332 837 332C848 332 859 331 870 330V768C870 810 836 845 794 845H205zM699 -77C648 -38 614 20 609 87H179C139 87 106 56 103 17A109 109 0 0 1 103 15A83 83 0 0 1 102 5C102 -40 139 -77 184 -77H699zM837 -82C733 -82 650 1 650 104C650 208 733 291 837 291C940 291 1023 208 1023 104C1023 1 940 -82 837 -82zM759 85L818 144V-7H858V144L917 85L946 114L838 222L730 114L759 85z" />
    <glyph glyph-name="border-all"
      unicode="&#xE019;"
      horiz-adv-x="1024" d="M36 860H988V-92H36V860zM118 778V-10H906V778H118zM471 -51V819H553V-51H471zM77 425H947V343H77V425z" />
    <glyph glyph-name="border-bottom"
      unicode="&#xE01A;"
      horiz-adv-x="1024" d="M145 835V753H63V835H145zM962 835V753H880V835H962zM960 15H61V-67H960V15zM63 220H145V139H63V220zM553 220H471V139H553V220zM879 220H960V139H879V220zM553 425H471V343H553V425zM267 425H349V343H267V425zM758 425H676V343H758V425zM62 425H144V343H62V425zM963 425H881V343H963V425zM471 629H553V548H471V629zM144 629H62V548H144V629zM881 629H963V548H881V629zM349 753V835H267V753H349zM553 835V753H471V835H553zM758 753V835H676V753H758z" />
    <glyph glyph-name="border-center-horizontal"
      unicode="&#xE01B;"
      horiz-adv-x="1024" d="M62 753V835H144V753H62zM880 753V835H962V753H880zM62 343H962V425H62V343zM144 139H62V221H144V139zM61 -67H143V15H61V-67zM143 548H61V630H143V548zM881 548H963V630H881V548zM267 753V835H349V753H267zM675 835V753H757V835H675zM348 -67H266V15H348V-67zM676 -67H758V15H676V-67zM963 -67H881V15H963V-67zM881 139H963V221H881V139zM553 -67H471V15H553V-67zM471 139H553V221H471V139zM553 548H471V630H553V548zM471 753H553V835H471V753z" />
    <glyph glyph-name="border-center-vertical"
      unicode="&#xE01C;"
      horiz-adv-x="1024" d="M61 835V753H143V835H61zM881 834H963V752H881V834zM881 16H963V-66H881V16zM471 834V-66H553V834H471zM267 752V834H349V752H267zM676 753V835H758V753H676zM676 15V-67H758V15H676zM881 629H963V547H881V629zM963 221H881V139H963V221zM61 548V630H143V548H61zM61 220V138H143V220H61zM61 -67V15H143V-67H61zM267 15V-67H349V15H267zM61 343V425H143V343H61zM267 425V343H349V425H267zM676 343V425H758V343H676zM881 425V343H963V425H881z" />
    <glyph glyph-name="border-inner"
      unicode="&#xE01D;"
      horiz-adv-x="1024" d="M61 835V753H143V835H61zM963 834H881V752H963V834zM963 16H881V-66H963V16zM471 425V834H553V425H962V343H553V-66H471V343H62V425H471zM267 752V834H349V752H267zM676 753V835H758V753H676zM676 15V-67H758V15H676zM881 629H963V547H881V629zM963 221H881V139H963V221zM61 548V630H143V548H61zM61 220V138H143V220H61zM61 -67V15H143V-67H61zM267 15V-67H349V15H267z" />
    <glyph glyph-name="border-left"
      unicode="&#xE01E;"
      horiz-adv-x="1024" d="M471 753V835H553V753H471zM881 834H963V752H881V834zM881 16H963V-66H881V16zM61 834V-66H143V834H61zM267 752V834H348V752H267zM267 426V344H348V426H267zM267 -64V18H348V-64H267zM471 426V344H553V426H471zM471 548V630H553V548H471zM471 220V138H553V220H471zM471 15V-67H553V15H471zM676 344V426H757V344H676zM676 835V753H757V835H676zM676 -67V15H757V-67H676zM963 629H881V547H963V629zM881 425H963V343H881V425zM963 221H881V139H963V221z" />
    <glyph glyph-name="border-none"
      unicode="&#xE01F;"
      horiz-adv-x="1024" d="M144 834V752H62V834H144zM144 -66V16H62V-66H144zM962 -66V16H880V-66H962zM962 752V834H880V752H962zM144 548H62V630H144V548zM470 548H552V630H470V548zM962 548H880V630H962V548zM470 344H552V426H470V344zM348 344H266V426H348V344zM676 344H758V426H676V344zM144 344H62V426H144V344zM880 344H962V426H880V344zM552 139H470V221H552V139zM62 139H144V221H62V139zM962 139H880V221H962V139zM349 -66V16H267V-66H349zM553 16V-66H471V16H553zM757 -66V16H675V-66H757zM349 834V752H267V834H349zM553 752V834H471V752H553zM757 834V752H675V834H757z" />
    <glyph glyph-name="border-outer"
      unicode="&#xE020;"
      horiz-adv-x="1024" d="M267 425V343H348V425H267zM471 343V425H553V343H471zM471 221V139H553V221H471zM471 548V630H553V548H471zM676 425V343H757V425H676zM61 835V-66H62V-67H961V-66H963V835H61zM881 15H143V753H881V15z" />
    <glyph glyph-name="border-right"
      unicode="&#xE021;"
      horiz-adv-x="1024" d="M553 753V835H471V753H553zM143 834H61V752H143V834zM143 16H61V-66H143V16zM963 834V-66H881V834H963zM757 752V834H676V752H757zM757 426V344H676V426H757zM757 -64V18H676V-64H757zM553 426V344H471V426H553zM553 548V630H471V548H553zM553 220V138H471V220H553zM553 15V-67H471V15H553zM348 344V426H267V344H348zM348 835V753H267V835H348zM348 -67V15H267V-67H348zM61 629H143V547H61V629zM143 425H61V343H143V425zM61 221H143V139H61V221z" />
    <glyph glyph-name="border-style"
      unicode="&#xE023;"
      horiz-adv-x="1024" d="M61 834H961V752H143V-66H61V834zM963 -66H881V16H963V-66zM267 -66V16H348V-66H267zM267 424V342H348V424H267zM471 342V424H553V342H471zM471 220V138H553V220H471zM471 548V630H553V548H471zM471 15V-67H553V15H471zM676 342V424H757V342H676zM676 15V-67H757V15H676zM963 139H881V221H963V139zM881 343H963V425H881V343zM963 547H881V629H963V547z" />
    <glyph glyph-name="border-style-alt"
      unicode="&#xE022;"
      horiz-adv-x="1024" d="M553 753V835H471V753H553zM61 834H143V752H61V834zM963 834V-67H62V15H881V834H963zM757 834V752H675V834H757zM757 344V426H675V344H757zM553 426V344H471V426H553zM553 548V630H471V548H553zM553 220V138H471V220H553zM348 426V344H266V426H348zM348 753V835H266V753H348zM61 629H143V547H61V629zM143 425H61V343H143V425zM61 221H143V139H61V221z" />
    <glyph glyph-name="border-top"
      unicode="&#xE024;"
      horiz-adv-x="1024" d="M961 752H62V834H961V752zM144 -66V16H62V-66H144zM962 -66V16H880V-66H962zM62 548H144V630H62V548zM552 548H470V630H552V548zM878 548H960V630H878V548zM552 343H470V425H552V343zM266 343H348V425H266V343zM758 343H676V425H758V343zM61 343H143V425H61V343zM963 343H881V425H963V343zM470 139H552V221H470V139zM143 139H61V221H143V139zM881 139H963V221H881V139zM349 16V-66H267V16H349zM553 -66V16H471V-66H553zM757 16V-66H675V16H757z" />
    <glyph glyph-name="box"
      unicode="&#xE026;"
      horiz-adv-x="1024" d="M300 817C277 817 256 808 240 792L76 628A85 85 0 0 1 71 622H953A84 84 0 0 1 948 628L784 792A85 85 0 0 1 724 817H300zM973 556H51V37C51 -11 89 -49 136 -49H888C935 -49 973 -11 973 37L973 556z" />
    <glyph glyph-name="box-check"
      unicode="&#xE025;"
      horiz-adv-x="1024" d="M300 817C277 817 256 808 240 792L76 628A85 85 0 0 1 71 622H953A84 84 0 0 1 948 628L784 792A85 85 0 0 1 724 817H300zM973 556H51V37C51 -11 89 -49 136 -49H888C935 -49 973 -11 973 37L973 556zM477 253L644 419L691 372L477 159L333 303L380 350L477 253z" />
    <glyph glyph-name="boxes-3"
      unicode="&#xE1E5;"
      horiz-adv-x="1024" d="M696 184L538 276V26H532L681 -61C686 -67 691 -67 696 -67V184zM276 184L61 317C56 307 56 302 56 292V108C56 77 72 51 97 36L256 -61C261 -67 266 -67 271 -67V169C276 174 276 179 276 184zM486 276L338 189C328 184 323 174 323 169V-67C328 -67 333 -61 338 -61L486 26H481V276H486zM722 230C727 236 727 236 732 236L932 358C927 358 927 364 922 364L778 445L563 323L722 230zM312 236L456 317L236 445L92 364L87 358L302 230C307 230 307 236 312 236zM486 548L271 686C271 676 266 666 266 655V492L486 364V548zM538 364L758 492V655C758 666 758 676 753 681L538 548V364zM748 169V-67C753 -67 758 -61 763 -61L922 31C947 46 963 72 963 102V287C963 297 963 302 957 312L753 189S748 179 748 169zM722 722L717 727L558 819C532 835 502 835 471 819L307 727L302 722L512 594L722 722z" />
    <glyph glyph-name="brackets-curly-i"
      unicode="&#xE2AD;"
      horiz-adv-x="1024" d="M102 640A154 154 0 0 0 256 794H307V691H256A51 51 0 0 1 205 640V461A127 127 0 0 0 179 384C195 363 205 336 205 307V128A51 51 0 0 1 256 77H282V-26H256A154 154 0 0 0 102 128V307A26 26 0 0 1 77 333L51 333V435L77 435A26 26 0 0 1 102 461V640zM922 640A154 154 0 0 1 768 794H717V691H768A51 51 0 0 0 819 640V461C819 432 829 405 845 384A127 127 0 0 1 819 307V128A51 51 0 0 0 768 77H742V-26H768A154 154 0 0 1 922 128V307A26 26 0 0 0 947 333L973 333V435L947 435A26 26 0 0 0 922 461V640zM461 476V118H563V476H461zM512 648A64 64 0 1 1 512 520A64 64 0 0 1 512 648z" />
    <glyph glyph-name="briefcase"
      unicode="&#xE185;"
      horiz-adv-x="1024" d="M396 670V770H628V670H396zM900 670H694V778C694 810 668 837 636 837H388C356 837 330 810 330 778V670H124C92 670 65 644 65 611V13C65 -19 92 -46 124 -46H900C932 -46 959 -19 959 13V611C959 644 932 670 900 670z" />
    <glyph glyph-name="browser"
      unicode="&#xE027;"
      horiz-adv-x="1024" d="M974 717V548H50V717C51 751 79 778 113 778H911C945 778 973 751 974 717zM321 691H254V625H321V691zM208 691H142V625H208V691zM974 497H50V52C50 18 78 -10 112 -10H912C946 -10 974 18 974 52V497z" />
    <glyph glyph-name="browser-arrow-up"
      unicode="&#xE2B6;"
      horiz-adv-x="1024" d="M135 778H906C926 778 948 773 962 752C972 736 973 716 973 703V548H51V703C51 713 52 724 54 734C56 744 61 757 73 766A62 62 0 0 0 105 777C114 778 124 778 134 778zM142 691V625H208V691H142zM254 691V625H321V691H254zM51 497H973V213L844 342L643 141L742 41V-10H135A192 192 0 0 0 103 -8A61 61 0 0 0 70 7A58 58 0 0 0 54 39A165 165 0 0 0 51 70V497zM925 93L877 142V-10H810V142L762 93L715 141L844 269L972 141L925 93z" />
    <glyph glyph-name="browser-times"
      unicode="&#xE2B5;"
      horiz-adv-x="1024" d="M135 778H906C926 778 948 773 962 752C972 736 973 716 973 703V548H51V703C51 713 52 724 54 734C56 744 61 757 73 766A62 62 0 0 0 105 777C114 778 124 778 135 778zM142 691V625H208V691H142zM254 691V625H321V691H254zM51 497H973V334L872 233L779 326L659 207L753 114L659 20L627 -10H135A192 192 0 0 0 103 -8A61 61 0 0 0 70 7A58 58 0 0 0 54 39A165 165 0 0 0 51 70V497zM1012 207L919 114L1012 20L965 -27L872 67L779 -27L732 20L825 114L732 207L779 254L872 161L965 254L1012 207z" />
    <glyph glyph-name="brush"
      unicode="&#xE028;"
      horiz-adv-x="1024" d="M907 269L651 404A17 17 0 0 0 642 419V752C642 814 596 865 535 868C476 868 428 819 428 760V427A17 17 0 0 0 419 412L147 267C130 258 119 240 119 221V124H938V217C938 239 926 259 907 269zM870 73H117C115 29 110 -15 98 -64A33 33 0 0 1 104 -92C110 -100 120 -105 130 -105H873C893 -105 911 -91 916 -71C923 -40 934 16 937 73H870z" />
    <glyph glyph-name="bts-skytrain"
      unicode="&#xE029;"
      horiz-adv-x="1024" d="M690 799C690 801 692 803 694 803H912V841H694A42 42 0 0 1 652 799C652 775 670 756 694 756H870C872 756 874 755 874 753A4 4 0 0 0 873 750A4 4 0 0 0 870 749H652V710H870A42 42 0 0 1 909 736A42 42 0 0 1 912 753A42 42 0 0 1 886 792A42 42 0 0 1 870 795H694A4 4 0 0 0 690 797A4 4 0 0 0 690 799zM326 840H112V710H326A42 42 0 0 1 361 775A42 42 0 0 1 326 840zM329 753A4 4 0 0 0 326 749H150V802H326C328 802 329 800 329 798C329 797 329 795 328 795A45 45 0 0 1 326 795H160V756H326V756A43 43 0 0 1 328 756A4 4 0 0 0 329 753zM641 802V840H381V802H492V710H530V802H641zM566 464C582 441 598 418 612 392C690 481 796 521 910 521V439C809 439 723 402 660 322A341 341 0 0 1 651 310C694 203 718 73 718 -84H636C636 30 622 128 598 211C570 135 553 39 553 -83V-84H471V-83C471 39 454 135 426 210C401 128 388 30 388 -84H306C306 73 330 203 373 310A344 344 0 0 1 364 322C301 402 214 439 114 439V521C228 521 334 481 412 392C426 418 442 441 458 464C361 564 236 608 114 608V690C253 690 398 641 512 526C626 641 771 690 910 690V608C788 608 663 564 566 464zM466 317V317C484 286 499 250 512 211C524 248 539 284 558 317C544 347 529 373 512 398C495 373 480 347 466 317z" />
    <glyph glyph-name="building"
      unicode="&#xE218;"
      horiz-adv-x="1024" d="M809 835H215C184 835 164 814 164 783V-15C164 -46 184 -67 215 -67H481V123H532V-67H804C835 -67 855 -41 860 -15V783C860 814 840 835 809 835zM420 292H369V343H420V292zM420 445H369V497H420V445zM420 599H369V650H420V599zM645 292H594V343H645V292zM645 445H594V497H645V445zM645 599H594V650H645V599z" />
    <glyph glyph-name="bulb"
      unicode="&#xE21B;"
      horiz-adv-x="1024" d="M666 -105H358V-38H666V-105zM515 852C314 852 151 690 151 489C151 353 225 235 335 173V61C335 40 353 23 374 23H655C677 23 694 40 694 61V173C804 235 878 353 878 489C878 690 715 852 515 852z" />
    <glyph glyph-name="calendar"
      unicode="&#xE02B;"
      horiz-adv-x="1024" d="M896 797H775V875H708V797H316V875H249V797H128C94 797 66 769 66 735V612H958V735C958 769 930 797 896 797zM800 110V161H749V110H800zM133 560H958V24C958 -11 930 -38 896 -38H128C94 -38 66 -11 66 24V560H133z" />
    <glyph glyph-name="calendar-check"
      unicode="&#xE02A;"
      horiz-adv-x="1024" d="M304 375L340 411L470 281L684 496L720 459L470 209L304 375zM896 776H768V891H702V776H316V891H250V776H128C96 776 69 750 69 717V5C69 -27 96 -54 128 -54H896C928 -54 955 -27 955 5V717C955 750 928 776 896 776z" />
    <glyph glyph-name="camera"
      unicode="&#xE02C;"
      horiz-adv-x="1024" d="M375 364A137 137 0 0 0 512 501A137 137 0 0 0 648 364A137 137 0 0 0 512 228A137 137 0 0 0 375 364zM339 814C351 830 369 840 389 840H633C652 840 670 831 681 816L730 749L865 750A100 100 0 0 0 965 650V79A100 100 0 0 0 865 -21H159A100 100 0 0 0 59 79V649A100 100 0 0 0 159 749H294L339 814zM512 567A203 203 0 0 1 309 364A203 203 0 0 1 512 161A203 203 0 0 1 715 364A203 203 0 0 1 512 567z" />
    <glyph glyph-name="camera-rotate"
      unicode="&#xE26F;"
      horiz-adv-x="1024" d="M339 814C351 830 369 840 389 840H633C652 840 670 831 681 816L730 749L865 750A100 100 0 0 0 965 650V79A100 100 0 0 0 865 -21H159A100 100 0 0 0 59 79V649A100 100 0 0 0 159 749H294L339 814zM661 540A225 225 0 0 1 287 379H264A18 18 0 0 1 249 350L306 275A18 18 0 0 1 334 275L391 350A18 18 0 0 1 376 379H353A159 159 0 0 0 614 493L661 540zM648 364H671A159 159 0 0 0 410 250L363 202A225 225 0 0 1 737 364H760A18 18 0 0 1 775 392L718 467A18 18 0 0 1 690 467L633 392A18 18 0 0 1 648 364z" />
    <glyph glyph-name="caret-down"
      unicode="&#xE02D;"
      horiz-adv-x="1024" d="M830 486L512 169L194 486H830z" />
    <glyph glyph-name="caret-left"
      unicode="&#xE02E;"
      horiz-adv-x="1024" d="M614 66V702L297 384L614 66z" />
    <glyph glyph-name="caret-right"
      unicode="&#xE02F;"
      horiz-adv-x="1024" d="M727 384L410 702V66L727 384z" />
    <glyph glyph-name="caret-up"
      unicode="&#xE030;"
      horiz-adv-x="1024" d="M830 282L512 599L194 282H830z" />
    <glyph glyph-name="cart"
      unicode="&#xE171;"
      horiz-adv-x="1024" d="M333 -77C290 -77 256 -42 256 0S290 77 333 77S410 42 410 0S375 -77 333 -77zM794 -77C751 -77 717 -42 717 0S751 77 794 77S870 42 870 0S836 -77 794 -77zM230 189L143 640C143 666 169 686 200 686H952C963 686 983 686 993 671C1004 655 998 640 998 630L916 189C911 148 881 148 860 148H287C266 148 236 148 230 189zM189 404L113 783H20V845H143C159 845 174 835 174 819L251 415L189 404z" />
    <glyph glyph-name="cat-face"
      unicode="&#xE031;"
      horiz-adv-x="1024" d="M611 423C611 452 634 475 663 475C692 475 715 452 715 423C715 394 692 371 663 371C634 371 611 394 611 423zM362 371C333 371 310 394 310 423C310 452 333 475 362 475S414 452 414 423C414 394 391 371 362 371zM487 233V328H538V233L620 186L594 141L512 189L431 141L405 186L487 233zM952 838A33 33 0 0 1 919 838L694 708H331L106 838A33 33 0 0 1 73 838A33 33 0 0 1 56 809V382C56 130 261 -74 512 -74C764 -74 969 130 969 382V809C969 821 962 832 952 838z" />
    <glyph glyph-name="cc-square"
      unicode="&#xE212;"
      horiz-adv-x="1024" d="M74 763C74 795 101 822 133 822H891C923 822 950 795 950 763V5C950 -27 923 -54 891 -54H133C101 -54 74 -27 74 5V763zM499 331C500 334 498 336 494 338L438 352C435 353 433 352 431 348C421 321 400 310 373 310C334 310 307 338 307 384C307 429 334 457 373 457C396 457 414 448 425 429C427 426 429 425 432 426L489 441C492 442 494 445 492 448C473 497 432 524 373 524C295 524 236 468 236 384C236 300 291 243 373 243C438 243 483 280 499 331zM788 331C788 334 787 336 783 338L727 352C724 353 722 352 720 348C710 321 689 310 662 310C623 310 596 338 596 384C596 429 622 457 662 457C685 457 702 448 713 429C715 426 718 425 721 426L777 441C781 442 782 445 781 448C762 497 721 524 662 524C583 524 525 468 525 384C525 300 579 243 661 243C726 243 772 280 788 331z" />
    <glyph glyph-name="chain-circle"
      unicode="&#xE182;"
      horiz-adv-x="1024" d="M38 384C38 646 250 858 512 858S986 646 986 384S774 -90 512 -90S38 122 38 384zM434 534C371 471 371 369 434 306C445 296 457 287 469 280L507 317A43 43 0 0 1 516 331A94 94 0 0 0 481 353C444 390 444 450 481 487L554 560C591 597 651 597 688 560C725 523 725 463 688 426L677 415A213 213 0 0 0 688 332L735 379C798 442 798 544 735 607C672 670 570 670 507 607L434 534zM508 437A94 94 0 0 0 543 415C580 378 580 318 543 281L470 208C433 171 373 171 336 208C299 245 299 305 336 342L347 353A213 213 0 0 0 336 436L289 389C226 326 226 224 289 161C352 98 454 98 517 161L590 234C653 297 653 399 590 462A161 161 0 0 1 555 488L517 451A43 43 0 0 1 508 437z" />
    <glyph glyph-name="chart-area"
      unicode="&#xE032;"
      horiz-adv-x="1024" d="M975 6H41V651H123V88H975V6zM975 140V529L738 766L465 473L347 581L183 418V140H975z" />
    <glyph glyph-name="chart-bar"
      unicode="&#xE033;"
      horiz-adv-x="1024" d="M280 142V356H362V142H280zM973 -10H44V541H126V72H973V-10zM520 142V586H602V142H520zM760 142V770H842V142H760z" />
    <glyph glyph-name="chart-line"
      unicode="&#xE034;"
      horiz-adv-x="1024" d="M975 27H41V672H123V109H975V27zM224 267A41 41 0 0 1 282 267L488 474L621 340L892 611A41 41 0 0 1 834 669L621 456L488 590L224 325A41 41 0 0 1 224 267zM970 746H739L970 515V746z" />
    <glyph glyph-name="chart-pie"
      unicode="&#xE035;"
      horiz-adv-x="1024" d="M485 358V796L450 794C237 781 51 589 51 359C51 119 246 -76 486 -76C713 -76 899 101 920 322L923 358H485zM540 409H976L973 445C954 650 781 830 575 844L540 846V409z" />
    <glyph glyph-name="chart-scatter"
      unicode="&#xE036;"
      horiz-adv-x="1024" d="M361 701C319 701 284 666 284 624C284 582 319 547 361 547S438 582 438 624C438 666 403 701 361 701zM300 380C258 380 223 346 223 303S258 227 300 227S377 261 377 303S343 380 300 380zM975 50H41V695H123V132H975V50zM564 487C522 487 487 452 487 410S522 333 564 333S641 368 641 410S607 487 564 487zM710 730C667 730 633 696 633 654C633 611 667 577 710 577S786 611 786 654C786 696 752 730 710 730zM839 359C797 359 762 324 762 282C762 239 797 205 839 205S916 239 916 282C916 324 881 359 839 359z" />
    <glyph glyph-name="chat"
      unicode="&#xE043;"
      horiz-adv-x="1024" d="M517 839C382 839 269 797 190 717C111 637 69 523 69 387C69 190 201 27 264 -40L297 -74L318 -32C341 12 381 61 449 61H449L566 62H566C781 62 955 236 955 451C955 567 912 665 833 734C756 803 646 839 517 839z" />
    <glyph glyph-name="chat-all"
      unicode="&#xE037;"
      horiz-adv-x="1024" d="M190 717C269 797 382 839 517 839C646 839 756 803 833 734C912 665 955 567 955 451C955 236 781 62 566 62H566L449 61H449C381 61 341 12 318 -32L297 -74L264 -40C201 27 69 190 69 387C69 523 111 637 190 717zM716 502V568H307V502H716zM716 316V382H307V316H716z" />
    <glyph glyph-name="chat-all-square"
      unicode="&#xE1C8;"
      horiz-adv-x="1024" d="M860 814H164C118 814 82 778 82 727V133C82 87 118 46 164 46H215V-51C215 -67 225 -77 236 -82C246 -87 261 -82 271 -77L389 41H855C901 41 942 77 942 128V727C942 778 906 814 860 814zM307 553H717V502H307V553zM717 317H307V369H717V317z" />
    <glyph glyph-name="chat-check"
      unicode="&#xE038;"
      horiz-adv-x="1024" d="M190 717C269 797 382 839 517 839C646 839 756 803 833 734C912 665 955 567 955 451C955 236 781 62 566 62H566L449 61H449C381 61 341 12 318 -32L297 -74L264 -40C201 27 69 190 69 387C69 523 111 637 190 717zM638 563L447 372L335 485L288 438L447 278L685 516L638 563z" />
    <glyph glyph-name="chat-check-square"
      unicode="&#xE1C5;"
      horiz-adv-x="1024" d="M860 814H164C118 814 82 778 82 727V133C82 87 118 46 164 46H215V-51C215 -67 225 -77 236 -82C246 -87 261 -82 271 -77L389 41H855C901 41 942 77 942 128V727C942 778 906 814 860 814zM497 312L476 292L461 312L323 451L358 481L476 364L671 558L707 522L497 312z" />
    <glyph glyph-name="chat-dot"
      unicode="&#xE039;"
      horiz-adv-x="1024" d="M898 831C867 831 842 806 842 775C842 744 867 719 898 719C929 719 953 744 953 775C953 806 929 831 898 831zM490 791C235 791 70 625 70 368C70 189 184 41 252 -32L285 -66L306 -24C326 15 363 62 426 62L535 62C736 62 900 226 900 427C900 648 739 791 490 791z" />
    <glyph glyph-name="chat-edit"
      unicode="&#xE03A;"
      horiz-adv-x="1024" d="M356 301V358L604 605L661 548L412 301H356zM190 717C269 797 382 839 517 839C646 839 756 803 833 734C912 665 955 567 955 451C955 236 781 62 566 62H566L449 61H449C381 61 341 12 318 -32L297 -74L264 -40C201 27 69 190 69 387C69 523 111 637 190 717zM740 547L604 685L299 381V245H436L740 547z" />
    <glyph glyph-name="chat-edit-square"
      unicode="&#xE1C1;"
      horiz-adv-x="1024" d="M358 333L614 589L671 532L415 276H358V333zM860 814H164C118 814 77 778 77 727V133C77 87 113 46 164 46H215V-51C215 -67 225 -77 236 -82C246 -87 261 -82 271 -77L389 41H855C901 41 942 77 942 128V727C942 778 906 814 860 814zM727 512L445 230L440 225H312V353L317 358L599 640L614 660L635 640L727 548L748 527L727 512z" />
    <glyph glyph-name="chat-ellipsis"
      unicode="&#xE03D;"
      horiz-adv-x="1024" d="M370 428A46 46 0 1 0 278 428A46 46 0 0 0 370 428zM505 382A46 46 0 1 0 505 474A46 46 0 0 0 505 382zM733 428A46 46 0 1 0 641 428A46 46 0 0 0 733 428zM515 841C243 841 67 663 67 389C67 198 189 39 262 -38L295 -73L316 -31C338 12 378 63 447 63L564 63C778 63 953 238 953 452C953 688 781 841 515 841z" />
    <glyph glyph-name="chat-ellipsis-alt"
      unicode="&#xE03B;"
      horiz-adv-x="1024" d="M33 411C33 648 252 832 512 832S991 648 991 411C991 175 772 -10 512 -10C444 -10 379 3 321 26L175 -59A33 33 0 0 0 126 -24L154 132C80 206 33 303 33 411zM461 411C461 383 484 360 512 360C540 360 563 383 563 411C563 439 540 462 512 462C484 462 461 439 461 411zM706 462C678 462 655 439 655 411C655 383 678 360 706 360C734 360 756 383 756 411C756 439 734 462 706 462zM268 411C268 383 290 360 318 360A51 51 0 0 1 369 411C369 439 346 462 318 462C290 462 268 439 268 411z" />
    <glyph glyph-name="chat-ellipsis-circle"
      unicode="&#xE1F4;"
      horiz-adv-x="1024" d="M175 721C263 809 380 858 504 858S745 809 833 721C980 574 1011 351 913 170L979 -41A33 33 0 0 0 937 -83L725 -18A467 467 0 0 0 503 -74C379 -74 263 -26 175 62C87 150 38 267 38 392C38 516 87 633 175 721L175 721zM328 433C301 433 279 411 279 384S301 335 328 335C354 335 376 357 376 384S354 433 328 433zM463 384C463 357 485 335 512 335S561 357 561 384S539 433 512 433C485 433 463 411 463 384zM645 384C645 357 667 335 694 335C721 335 742 357 742 384S721 433 694 433C667 433 645 411 645 384z" />
    <glyph glyph-name="chat-ellipsis-mobile"
      unicode="&#xE1CC;"
      horiz-adv-x="1024" d="M717 635H727V742C727 804 676 855 620 855H236C174 855 123 804 123 742V26C123 -36 174 -82 236 -82H614C676 -82 722 -31 722 26V205H681C666 205 650 195 645 174L620 118L579 164C548 195 476 282 476 389C476 461 497 522 543 568C584 609 645 635 717 635zM497 707H358V758H497V707zM717 589C594 589 517 512 517 389C517 302 579 225 604 195C614 215 640 246 681 246H737C829 246 906 323 906 415C911 522 835 589 717 589zM630 379C614 379 604 389 604 404S614 430 630 430S655 420 655 404C655 394 645 379 630 379zM712 379C696 379 686 389 686 404S696 430 712 430S737 420 737 404C742 394 727 379 712 379zM799 379C783 379 773 389 773 404S783 430 799 430S824 420 824 404C824 394 814 379 799 379z" />
    <glyph glyph-name="chat-ellipsis-plus"
      unicode="&#xE03C;"
      horiz-adv-x="1024" d="M618 371A44 44 0 0 0 574 415A44 44 0 1 0 618 371zM445 371A44 44 0 0 0 414 384A44 44 0 0 0 401 415A44 44 0 0 0 428 456A44 44 0 1 0 445 371zM316 415A44 44 0 0 0 272 371A44 44 0 0 0 228 415A44 44 0 0 0 303 446A44 44 0 0 0 316 415zM734 191H764V362H866C872 387 874 412 874 438C874 665 709 811 454 811C193 811 25 641 25 378C25 195 142 43 211 -32L244 -66L265 -24C286 16 324 65 389 65L501 65A369 369 0 0 1 593 77V191H734zM796 97H635V163H796V325H863V163H1024V97H863V-64H796V97V97z" />
    <glyph glyph-name="chat-ellipsis-square"
      unicode="&#xE1C7;"
      horiz-adv-x="1024" d="M393 53H858C881 53 902 62 918 78A84 84 0 0 1 943 137V730A84 84 0 0 1 858 814H165A84 84 0 0 1 80 730V137A84 84 0 0 1 167 53H216V-44A33 33 0 0 1 256 -76A33 33 0 0 1 273 -67L393 53V53zM512 387A46 46 0 1 0 512 479A46 46 0 0 0 512 387zM376 433A46 46 0 1 0 284 433A46 46 0 0 0 376 433zM693 387A46 46 0 1 0 693 479A46 46 0 0 0 693 387z" />
    <glyph glyph-name="chat-ellipsis-square-plus"
      unicode="&#xE1C3;"
      horiz-adv-x="1024" d="M890 730V305H780V162H637V53H340L220 -67A33 33 0 0 0 184 -74A33 33 0 0 0 163 -43V53H113A84 84 0 0 0 53 77A84 84 0 0 0 27 137V730C27 776 65 814 112 814H805C852 814 890 776 890 730L890 730zM508 433A46 46 0 1 1 416 433A46 46 0 0 1 508 433zM281 387A46 46 0 1 1 281 479A46 46 0 0 1 281 387zM690 433A46 46 0 1 1 597 433A46 46 0 0 1 690 433zM831 -84V59H688V111H831V254H883V111H1026V59H883V-84H831z" />
    <glyph glyph-name="chat-ellipsis-times"
      unicode="&#xE224;"
      horiz-adv-x="1024" d="M822 246L742 326L616 199L696 119C639 85 573 65 502 65H502L390 65H390C326 65 288 18 267 -24L245 -66L213 -32C153 32 26 189 26 378C26 508 66 617 142 694C218 771 326 812 455 812C579 812 684 776 759 711C834 645 876 550 876 438C876 368 856 302 822 246zM271 369A46 46 0 0 1 317 415A46 46 0 0 1 271 461A46 46 0 0 1 225 415A46 46 0 0 1 271 369zM445 369A46 46 0 0 1 492 415A46 46 0 0 1 445 461A46 46 0 0 1 399 415A46 46 0 0 1 445 369zM620 369A46 46 0 1 1 620 461A46 46 0 0 1 620 369zM929 -34L695 199L742 246L976 13L929 -34zM976 199L742 -34L695 13L929 246L976 199z" />
    <glyph glyph-name="chat-hi"
      unicode="&#xE03E;"
      horiz-adv-x="1024" d="M190 717C269 797 382 839 517 839C646 839 756 803 833 734C912 665 955 567 955 451C955 236 781 62 566 62H566L449 61H449C381 61 341 12 318 -32L297 -74L264 -40C202 27 69 190 69 387C69 523 111 637 190 717zM274 563V291H340V394H421V291H487V563H421V461H340V563H274zM542 476V291H609V476H542zM576 563A33 33 0 1 1 576 497A33 33 0 0 1 576 563zM671 326A33 33 0 1 1 737 326A33 33 0 0 1 671 326zM671 381H737V563H671V381z" />
    <glyph glyph-name="chat-lines"
      unicode="&#xE03F;"
      horiz-adv-x="1024" d="M190 717C269 797 382 839 517 839C646 839 756 803 833 734C912 665 955 567 955 451C955 236 781 62 566 62H566L449 61H449C381 61 341 12 318 -32L297 -74L264 -40C201 27 69 190 69 387C69 523 111 637 190 717zM716 502V568H307V502H716zM512 316V382H307V316H512z" />
    <glyph glyph-name="chat-phone"
      unicode="&#xE170;"
      horiz-adv-x="1024" d="M190 717C269 797 382 839 517 839C646 839 756 803 833 734C912 665 955 567 955 451C955 236 781 62 566 62H566L449 61H449C381 61 341 12 318 -32L297 -74L264 -40C201 27 69 190 69 387C69 523 111 637 190 717zM565 366C562 363 525 380 483 423C437 471 432 499 432 499L470 537C478 544 480 559 474 566L426 621C412 637 384 637 367 621L337 590C316 569 306 479 422 361C541 246 625 249 656 271L690 306C705 324 699 350 688 361L631 408C626 413 612 413 606 407L565 366z" />
    <glyph glyph-name="chat-play"
      unicode="&#xE040;"
      horiz-adv-x="1024" d="M190 717C269 797 382 839 517 839C646 839 756 803 833 734C912 665 955 567 955 451C955 236 781 62 566 62H566L449 61H449C381 61 341 12 318 -32L297 -74L264 -40C201 27 69 190 69 387C69 523 111 637 190 717zM431 570C414 580 392 568 392 548V308C392 288 414 276 431 286L638 405C655 415 655 440 638 450L431 570z" />
    <glyph glyph-name="chat-play-square"
      unicode="&#xE1C2;"
      horiz-adv-x="1024" d="M388 53H853C876 53 897 62 913 78A84 84 0 0 1 938 137V730A84 84 0 0 1 853 814H160A84 84 0 0 1 75 730V137C75 91 113 53 160 53H211V-44A33 33 0 0 1 251 -76A33 33 0 0 1 268 -67L388 53V53zM650 457V457A26 26 0 0 0 659 423A26 26 0 0 0 650 413L443 294A26 26 0 0 0 408 303A26 26 0 0 0 404 316V555A26 26 0 0 0 443 577L650 457z" />
    <glyph glyph-name="chat-plus"
      unicode="&#xE041;"
      horiz-adv-x="1024" d="M190 717C269 797 382 839 517 839C646 839 756 803 833 734C912 665 955 567 955 451C955 236 781 62 566 62H566L449 61H449C381 61 341 12 318 -32L297 -74L264 -40C201 27 69 190 69 387C69 523 111 637 190 717zM478 262H545V403H686V469H545V610H478V469H338V403H478V262z" />
    <glyph glyph-name="chat-plus-square"
      unicode="&#xE1CD;"
      horiz-adv-x="1024" d="M855 814H159C113 814 77 778 77 732V138C77 118 87 92 102 77C118 61 143 51 164 51H215V-46C215 -61 225 -72 236 -77H246C256 -77 261 -72 271 -67L389 51H855C901 51 942 87 942 138V727C937 778 901 814 855 814zM676 399H538V261H471V399H338V466H476V604H543V466H681V399H676z" />
    <glyph glyph-name="chat-square"
      unicode="&#xE1C9;"
      horiz-adv-x="1024" d="M853 53H388L268 -67A33 33 0 0 0 211 -43V53H161A37 37 0 0 0 160 53C113 53 75 91 75 137V730C75 776 113 814 160 814H853C900 814 938 776 938 730V137C938 91 900 53 853 53z" />
    <glyph glyph-name="chat-square-dot"
      unicode="&#xE1C6;"
      horiz-adv-x="1024" d="M954 778A56 56 0 1 1 843 778A56 56 0 0 1 954 778zM792 778A107 107 0 0 1 839 690A107 107 0 0 1 938 678V137C938 115 929 93 913 78A84 84 0 0 0 853 53H388L268 -67A33 33 0 0 0 232 -74A33 33 0 0 0 211 -43V53H161A84 84 0 0 0 75 137V730C75 776 113 814 160 814H798A106 106 0 0 1 792 778V778z" />
    <glyph glyph-name="chat-window"
      unicode="&#xE042;"
      horiz-adv-x="1024" d="M473 62V389H69V387C69 190 201 27 264 -40L297 -74L318 -32C341 12 381 61 449 61H449L473 62zM540 62L566 62H566C759 62 920 204 950 389H540V62zM955 455C954 570 911 666 833 734C760 799 659 835 540 839V455H955zM473 838C358 829 261 788 190 717C125 651 85 561 73 455H473V838z" />
    <glyph glyph-name="chats"
      unicode="&#xE044;"
      horiz-adv-x="1024" d="M606 741C616 741 626 741 636 740C577 807 488 843 380 843C285 843 202 816 143 764C84 712 52 638 52 550C52 450 103 361 180 308A420 420 0 0 0 180 312C180 436 218 545 296 623C374 702 483 741 606 741zM333 587C399 654 494 690 606 690C713 690 805 659 870 602C936 544 972 461 972 364C972 184 826 38 646 38H646L550 37H550C497 37 466 -1 447 -36L426 -79L393 -44C342 11 231 147 231 312C231 425 266 520 333 587z" />
    <glyph glyph-name="chats-alt"
      unicode="&#xE28D;"
      horiz-adv-x="1024" d="M121 702C189 774 287 817 410 817C519 817 614 783 682 723C751 663 791 577 791 476C791 376 754 295 695 239C636 183 555 153 471 153H394C371 153 346 147 326 133C308 119 293 98 290 63C287 35 255 9 224 29C121 92 18 243 18 425C18 532 53 630 121 702zM518 -96A441 441 0 0 0 366 79C372 83 382 87 394 87H471C571 87 668 121 741 190C814 260 858 359 858 476C858 513 853 549 844 582C868 571 889 556 908 540C971 485 1006 407 1006 314A306 306 0 0 0 698 7H640C623 7 612 1 603 -9C594 -19 586 -37 584 -62A44 44 0 0 0 562 -97A42 42 0 0 0 518 -96z" />
    <glyph glyph-name="chats-ellipsis-circle"
      unicode="&#xE24F;"
      horiz-adv-x="1024" d="M292 732C370 810 474 852 584 852C694 852 797 810 875 732C1005 602 1033 405 947 245L1005 61A33 33 0 0 0 963 19L778 76A413 413 0 0 0 583 27C473 27 370 70 292 148C214 226 172 329 172 440C172 550 214 653 292 732L292 732zM384 445C384 423 402 404 425 404S466 423 466 445C466 468 448 486 425 486S384 468 384 445zM584 486C561 486 543 468 543 445C543 423 561 404 584 404S625 423 625 445C625 468 607 486 584 486zM701 445C701 423 720 404 742 404S783 423 783 445C783 468 765 486 742 486S701 468 701 445zM485 -23C282 20 127 193 111 405A289 289 0 0 1 102 396A285 285 0 0 1 41 305C9 229 11 141 51 65L14 -52A33 33 0 0 1 56 -93L173 -57C213 -78 258 -89 303 -89C370 -89 434 -66 485 -23z" />
    <glyph glyph-name="chats-square"
      unicode="&#xE1C4;"
      horiz-adv-x="1024" d="M342 171H726C768 171 802 205 802 247V738A76 76 0 0 1 726 814H151A76 76 0 0 1 75 738V247C75 205 109 171 151 171H188V97A33 33 0 0 1 228 65A33 33 0 0 1 245 74L342 171H342zM390 13A69 69 0 0 0 321 78L364 120H726A127 127 0 0 1 853 247V579H869C907 579 938 548 938 510V81C938 43 907 13 869 13H844V-44A33 33 0 0 0 823 -74A33 33 0 0 0 804 -76A33 33 0 0 0 787 -67L707 13H390z" />
    <glyph glyph-name="check"
      unicode="&#xE047;"
      horiz-adv-x="1024" d="M410 30L15 425L87 497L410 175L937 702L1009 629L410 30z" />
    <glyph glyph-name="check-circle"
      unicode="&#xE15F;"
      horiz-adv-x="1024" d="M38 384C38 646 250 858 512 858C774 858 986 646 986 384S774 -90 512 -90C250 -90 38 122 38 384zM727 477L680 524L469 314L344 439L297 392L469 220L727 477z" />
    <glyph glyph-name="check-list"
      unicode="&#xE21A;"
      horiz-adv-x="1024" d="M327 732L159 569L40 682L111 756L158 711L256 805L327 732zM947 630H435V732H947V630zM327 425L159 263L40 375L111 449L158 404L256 499L327 425zM947 328H435V430H947V328zM327 116L159 -46L40 66L111 141L158 96L256 190L327 116zM947 25H435V128H947V25z" />
    <glyph glyph-name="check-square"
      unicode="&#xE046;"
      horiz-adv-x="1024" d="M74 763C74 795 101 822 133 822H891C923 822 950 795 950 763V5C950 -27 923 -54 891 -54H133C101 -54 74 -27 74 5V763zM734 556L455 276L289 442L242 395L455 182L781 509L734 556z" />
    <glyph glyph-name="check-square-rounded"
      unicode="&#xE045;"
      horiz-adv-x="1024" d="M339 434L470 303L685 519L721 483L470 231L303 398L339 434zM950 636C938 734 862 810 764 822C601 842 423 842 260 822A213 213 0 0 1 74 636C64 554 59 469 59 384C59 299 64 214 74 132C86 34 162 -42 260 -54C341 -64 426 -69 512 -69C598 -69 683 -64 764 -54A213 213 0 0 1 950 132C960 214 965 299 965 384C965 469 960 554 950 636z" />
    <glyph glyph-name="chevron-circle-down"
      unicode="&#xE165;"
      horiz-adv-x="1024" d="M38 384C38 646 250 858 512 858S986 646 986 384S774 -90 512 -90S38 122 38 384zM386 482L339 434L512 263L685 434L638 482L512 357L386 482z" />
    <glyph glyph-name="chevron-circle-left"
      unicode="&#xE162;"
      horiz-adv-x="1024" d="M38 384C38 646 250 858 512 858S986 646 986 384S774 -90 512 -90S38 122 38 384zM610 510L562 557L391 384L562 211L610 258L485 384L610 510z" />
    <glyph glyph-name="chevron-circle-right"
      unicode="&#xE163;"
      horiz-adv-x="1024" d="M38 384C38 646 250 858 512 858S986 646 986 384C986 122 774 -90 512 -90S38 122 38 384zM633 384L462 557L414 510L539 384L414 258L462 211L633 384z" />
    <glyph glyph-name="chevron-circle-top"
      unicode="&#xE164;"
      horiz-adv-x="1024" d="M38 384C38 122 250 -90 512 -90S986 122 986 384S774 858 512 858S38 646 38 384zM386 286L339 334L512 505L685 334L638 286L512 411L386 286z" />
    <glyph glyph-name="chevron-double-down"
      unicode="&#xE048;"
      horiz-adv-x="1024" d="M715 665L512 463L309 665L237 593L512 318L787 593L715 665zM715 403L512 201L309 403L237 331L512 57L787 331L715 403z" />
    <glyph glyph-name="chevron-double-left"
      unicode="&#xE160;"
      horiz-adv-x="1024" d="M329 384L531 587L459 659L185 384L459 109L531 181L329 384zM591 384L793 587L721 659L446 384L721 109L793 181L591 384H591z" />
    <glyph glyph-name="chevron-double-right"
      unicode="&#xE161;"
      horiz-adv-x="1024" d="M565 659L839 384L565 109L493 181L695 384L493 587L565 659zM303 659L578 384L303 109L231 181L433 384L231 587L303 659z" />
    <glyph glyph-name="chevron-double-up"
      unicode="&#xE049;"
      horiz-adv-x="1024" d="M512 567L715 365L787 437L512 711L237 437L309 365L512 567zM512 305L715 103L787 175L512 450L237 175L309 103L512 305z" />
    <glyph glyph-name="chevron-down"
      unicode="&#xE04A;"
      horiz-adv-x="1024" d="M868 616L512 260L156 616L83 544L512 115L941 544L868 616z" />
    <glyph glyph-name="chevron-left"
      unicode="&#xE04B;"
      horiz-adv-x="1024" d="M681 -62L235 384L681 830L753 757L380 384L753 11L681 -62z" />
    <glyph glyph-name="chevron-right"
      unicode="&#xE04C;"
      horiz-adv-x="1024" d="M343 830L789 384L343 -62L271 11L644 384L271 757L343 830z" />
    <glyph glyph-name="chevron-square-down"
      unicode="&#xE169;"
      horiz-adv-x="1024" d="M74 763C74 795 101 822 133 822H891C923 822 950 795 950 763V5C950 -27 923 -54 891 -54H133C101 -54 74 -27 74 5V763zM383 483L337 435L512 262L687 435L640 483L512 356L383 483z" />
    <glyph glyph-name="chevron-square-left"
      unicode="&#xE166;"
      horiz-adv-x="1024" d="M74 763C74 795 101 822 133 822H891C923 822 950 795 950 763V5C950 -27 923 -54 891 -54H133C101 -54 74 -27 74 5V763zM611 513L563 559L390 384L563 209L611 256L484 384L611 513z" />
    <glyph glyph-name="chevron-square-right"
      unicode="&#xE167;"
      horiz-adv-x="1024" d="M950 763C950 795 923 822 891 822H133C101 822 74 795 74 763V5C74 -27 101 -54 133 -54H891C923 -54 950 -27 950 5V763zM413 513L461 559L634 384L461 209L413 256L540 384L413 513z" />
    <glyph glyph-name="chevron-square-top"
      unicode="&#xE168;"
      horiz-adv-x="1024" d="M133 822H891C923 822 950 795 950 763V5C950 -27 923 -54 891 -54H133C101 -54 74 -27 74 5V763C74 795 101 822 133 822zM687 333L512 506L337 333L383 285L512 412L640 285L687 333z" />
    <glyph glyph-name="chevron-to-left"
      unicode="&#xE16C;"
      horiz-adv-x="1024" d="M363 383L792 812L864 740L508 383L864 27L792 -45L363 383zM148 -51V819H251V-51H148z" />
    <glyph glyph-name="chevron-to-right"
      unicode="&#xE16D;"
      horiz-adv-x="1024" d="M641 383L212 812L140 740L496 383L140 27L212 -45L641 383zM855 -51V819H753V-51H855z" />
    <glyph glyph-name="chevron-up"
      unicode="&#xE04D;"
      horiz-adv-x="1024" d="M156 152L83 224L512 653L941 224L868 152L512 508L156 152z" />
    <glyph glyph-name="circle"
      unicode="&#xE04E;"
      horiz-adv-x="1024" d="M512 858C250 858 38 646 38 384S250 -90 512 -90S986 122 986 384S774 858 512 858z" />
    <glyph glyph-name="circle-1x"
      unicode="&#xE26E;"
      horiz-adv-x="1024" d="M56 384C56 636 260 840 512 840S968 636 968 384C968 132 764 -72 512 -72S56 132 56 384zM404 558C400 558 395 557 391 553L307 481C305 479 303 476 302 473C302 470 302 467 303 464L312 448C313 445 316 442 319 441C323 440 326 440 329 441L377 460V236C377 233 378 229 381 227C383 224 387 223 390 223H438C441 223 444 224 447 227C450 229 451 233 451 236V544C451 548 450 551 447 554C444 556 441 558 438 558H404zM503 464C499 464 494 462 492 457C489 453 491 448 493 445L562 346L489 242L489 242C487 239 485 234 488 229C490 224 495 223 499 223H547C553 223 557 225 560 229L604 294L647 230L648 229C651 225 655 223 661 223H712C716 223 721 224 724 229C726 234 724 239 722 242L649 346L718 444L718 445C720 448 722 453 719 457C717 462 712 464 708 464H660C654 464 650 461 647 457L607 399L568 457L568 457C565 461 561 464 555 464H503z" />
    <glyph glyph-name="circle-2x"
      unicode="&#xE26D;"
      horiz-adv-x="1024" d="M512 840C261 840 56 635 56 384S261 -72 512 -72S968 133 968 384S763 840 512 840zM509 236C509 228 503 223 496 223H286C278 223 272 228 272 236V250C272 254 274 259 276 262L355 351C410 412 422 433 422 459C422 479 408 490 383 490C361 490 346 478 337 454C334 446 328 443 321 445L276 457C271 458 269 461 268 463C267 465 266 469 267 474C285 530 330 563 387 563C454 563 499 524 499 464C499 416 479 380 409 307L396 293H495C502 293 508 287 508 280V236L509 236zM764 229C762 225 758 223 753 223H701C696 223 691 225 688 229L645 293L601 229C598 225 593 223 588 223H540C535 223 530 225 528 229C526 233 527 238 529 242L603 346L534 444C531 449 530 454 532 457C535 461 539 463 544 463H595C599 463 604 462 608 457L648 399L687 457C691 461 695 463 700 463H749C754 463 758 461 760 457C762 453 761 449 759 444L690 346L763 242C766 237 767 232 765 229H764z" />
    <glyph glyph-name="circle-dot-5x"
      unicode="&#xE26C;"
      horiz-adv-x="1024" d="M512 840C260 840 56 636 56 384S260 -72 512 -72S968 132 968 384S764 840 512 840zM271 225C247 225 230 243 230 265S247 305 271 305S312 288 312 265S294 225 271 225zM456 224C398 224 355 256 338 310C337 313 337 316 339 319S344 325 348 326L388 335C395 337 401 334 403 327C412 305 429 293 453 293C481 293 498 308 498 334S481 377 452 377C433 377 416 371 396 355C391 352 386 352 381 354L357 365C352 368 349 374 349 380L363 533C364 541 369 545 376 545H541C548 545 553 539 553 532V490C553 483 548 478 541 478H419L415 426C431 435 449 440 468 440C528 440 569 396 569 333S522 223 455 223L456 224zM805 236C803 232 799 229 795 229H746C742 229 737 230 734 236L693 296L652 236C648 231 644 229 639 229H593C589 229 585 231 583 236C581 239 581 244 584 248L652 347L588 439C585 443 585 447 587 452C589 455 593 458 598 458H646C650 458 655 457 659 452L696 397L733 451C737 457 742 458 745 458H791C796 458 800 456 802 452C804 448 803 443 801 439L736 347L805 249C808 245 808 240 806 236L805 236z" />
    <glyph glyph-name="circle-half-tone"
      unicode="&#xE23D;"
      horiz-adv-x="1024" d="M512 845A461 461 0 1 1 512 -77A461 461 0 0 1 512 845zM512 0H510V768H512A384 384 0 0 0 512 0z" />
    <glyph glyph-name="circles-4"
      unicode="&#xE04F;"
      horiz-adv-x="1024" d="M286 793C185 793 103 711 103 610C103 508 185 426 286 426S470 508 470 610C470 711 388 793 286 793zM738 426C839 426 921 508 921 610C921 711 839 793 738 793S554 711 554 610C554 508 636 426 738 426zM286 342C185 342 103 260 103 158C103 57 185 -25 286 -25S470 57 470 158C470 260 388 342 286 342zM738 342C636 342 554 260 554 158C554 57 636 -25 738 -25S921 57 921 158C921 260 839 342 738 342z" />
    <glyph glyph-name="circles-overlay-3"
      unicode="&#xE26B;"
      horiz-adv-x="1024" d="M275 514A240 240 0 0 0 274 538C274 669 381 776 512 776C643 776 750 669 750 538C750 530 750 522 749 514A291 291 0 0 1 691 520A288 288 0 0 1 512 458A288 288 0 0 1 333 520A291 291 0 0 1 275 514zM286 464C177 442 95 346 95 230C95 99 201 -8 333 -8A237 237 0 0 1 474 39C429 90 402 157 402 230S429 371 474 422A237 237 0 0 1 333 469C317 469 301 467 286 464zM691 469C707 469 723 467 738 464C847 442 929 346 929 230C929 99 823 -8 691 -8C620 -8 556 24 512 74C475 116 453 170 453 230C453 362 560 469 691 469z" />
    <glyph glyph-name="clipboard-list"
      unicode="&#xE050;"
      horiz-adv-x="1024" d="M170 796H307V742C307 700 342 666 384 666H640C682 666 717 700 717 742V796H854C886 796 913 769 913 737V-19C913 -52 886 -78 854 -78H170C138 -78 111 -52 111 -19V737C111 769 138 796 170 796zM666 819V742A26 26 0 0 0 640 717H384A26 26 0 0 0 358 742V819A26 26 0 0 0 384 845H640A26 26 0 0 0 666 819zM349 553A41 41 0 0 1 307 511A41 41 0 1 1 349 553zM348 187A41 41 0 0 1 307 146A41 41 0 1 1 348 187zM307 326C307 304 326 285 348 285A41 41 0 1 1 307 326zM713 116V167H458V116H713zM458 486H713V537H458V486zM713 301V352H458V301H713z" />
    <glyph glyph-name="cloche"
      unicode="&#xE051;"
      horiz-adv-x="1024" d="M479 717V621A443 443 0 0 1 69 179V110H0V44H1024V110H955V179A443 443 0 0 1 545 621V717H479z" />
    <glyph glyph-name="clock"
      unicode="&#xE052;"
      horiz-adv-x="1024" d="M38 384C38 646 250 858 512 858S986 646 986 384S774 -90 512 -90S38 122 38 384zM545 644H479V365L659 261L692 318L545 403V644z" />
    <glyph glyph-name="close-arrows-horizontal"
      unicode="&#xE053;"
      horiz-adv-x="1024" d="M364 343H51V425H364V343zM265 566L438 384L265 202L206 259L325 384L206 509L265 566zM759 566L818 509L699 384L818 259L759 202L586 384L759 566zM973 343H660V425H973V343zM471 -26V794H553V-26H471z" />
    <glyph glyph-name="close-arrows-vertical"
      unicode="&#xE054;"
      horiz-adv-x="1024" d="M471 -77V236H553V-77H471zM471 532V845H553V532H471zM694 138L637 79L512 198L387 79L330 138L512 311L694 138zM694 631L512 458L330 631L387 690L512 571L637 690L694 631zM922 343H102V425H922V343z" />
    <glyph glyph-name="cloud"
      unicode="&#xE226;"
      horiz-adv-x="1024" d="M523 742C403 742 303 674 267 577L265 574A199 199 0 0 0 262 572C116 547 1 416 24 264L24 263C48 121 183 26 334 26H754C879 26 989 106 1002 224L1002 225C1014 349 926 449 802 465V465C802 505 802 536 785 578C747 687 629 742 523 742z" />
    <glyph glyph-name="cloud-arrow-down"
      unicode="&#xE227;"
      horiz-adv-x="1024" d="M1004 223C993 105 881 23 758 23H727L778 74L660 192L599 131V351H430V131L369 192L251 74L302 23C164 38 51 125 31 259C5 412 123 540 266 566H271V571C307 668 410 735 527 735C635 735 753 678 788 571C804 530 804 499 804 458C927 448 1014 351 1004 223zM481 13L364 131L317 85L517 -115L717 85L671 131L543 13V320H476V13H481z" />
    <glyph glyph-name="cloud-arrow-up"
      unicode="&#xE228;"
      horiz-adv-x="1024" d="M1004 223C993 105 881 23 758 23H599V125L660 64L778 182L573 387L512 448L451 387L246 182L364 64L420 120V18H333C179 18 46 115 26 253C0 407 118 535 261 561H266V566C302 663 404 730 522 730C630 730 748 673 783 566C799 525 799 494 799 453C927 448 1014 351 1004 223zM481 248L364 131L317 177L517 376L717 177L671 131L553 248V-59H486V248H481z" />
    <glyph glyph-name="code"
      unicode="&#xE23C;"
      horiz-adv-x="1024" d="M468 38L641 730H556L383 38H468zM135 384L336 585L278 643L19 384L278 125L336 183L135 384zM889 384L688 585L746 643L1005 384L746 125L688 183L889 384z" />
    <glyph glyph-name="code-in-square"
      unicode="&#xE2AE;"
      horiz-adv-x="1024" d="M69 691A136 136 0 0 0 205 827H819A136 136 0 0 0 955 691V77A136 136 0 0 0 819 -59H205A136 136 0 0 0 69 77V691zM429 187L493 171L595 581L531 597L429 187zM331 544L215 384L331 224L385 263L297 384L385 505L331 544zM692 544L639 505L727 384L639 263L693 224L809 384L693 544z" />
    <glyph glyph-name="code-reader"
      unicode="&#xE055;"
      horiz-adv-x="1024" d="M142 343H883V425H142V343zM224 565H142V778H354V696H224V565zM354 -11H142V202H224V71H354V-11zM883 565H801V696H671V778H883V565zM883 -11H671V71H801V202H883V-11z" />
    <glyph glyph-name="code-slash"
      unicode="&#xE276;"
      horiz-adv-x="1024" d="M495 487L195 787L137 730L472 394L383 38H468L540 326L886 -19L944 38L802 181L1005 384L746 643L688 585L889 384L744 238L563 419L641 730H556L496 487zM197 562L255 504L135 384L336 183L278 125L19 384L197 562z" />
    <glyph glyph-name="code-square"
      unicode="&#xE2AA;"
      horiz-adv-x="1024" d="M819 691H614V794H870A51 51 0 0 0 922 742V26A51 51 0 0 0 870 -26H154A51 51 0 0 0 102 26V435H205V77H819V691zM414 666L332 747L405 820L559 666L405 512L332 584L414 666zM175 666L256 747L184 820L30 666L184 512L256 584L175 666z" />
    <glyph glyph-name="coins"
      unicode="&#xE056;"
      horiz-adv-x="1024" d="M238 556C311 527 409 511 512 511C615 511 713 527 786 556C824 571 855 588 877 608C895 625 916 653 916 689C916 724 895 753 877 769C855 789 824 806 786 821C713 850 615 866 512 866C409 866 311 850 238 821C200 806 169 789 147 769C129 752 108 725 108 689C108 652 129 625 147 608C169 588 200 571 238 556zM811 494C729 462 623 445 512 445S295 462 214 494C171 511 135 531 108 556V420C160 381 321 312 512 312C703 312 864 381 916 420V556C889 532 854 511 811 495V494zM108 353C160 314 321 246 512 246C703 246 864 314 916 353V220C864 181 703 113 512 113C321 113 160 181 108 220V353zM512 46C321 46 160 115 108 154V87C108 -29 316 -91 512 -91S916 -29 916 87V154C864 115 703 46 512 46z" />
    <glyph glyph-name="columns"
      unicode="&#xE1EF;"
      horiz-adv-x="1024" d="M699 -8H923C956 -8 981 20 981 51V717C981 748 956 776 923 776H699V-8zM648 776H376V-8H648V776zM102 776H325V-8H102A58 58 0 0 0 60 10A58 58 0 0 0 44 51V717C44 748 69 776 102 776z" />
    <glyph glyph-name="command"
      unicode="&#xE2A9;"
      horiz-adv-x="1024" d="M102 640A154 154 0 0 0 410 640V589H614V640A154 154 0 1 0 768 486H717V282H768A154 154 0 1 0 614 128V179H410V128A154 154 0 1 0 256 282H307V486H256A154 154 0 0 0 102 640zM307 589V640A51 51 0 1 1 256 589H307zM410 282H614V486H410V282zM307 179H256A51 51 0 1 1 307 128V179zM717 179V128A51 51 0 1 1 768 179H717zM717 589H768A51 51 0 1 1 717 640V589z" />
    <glyph glyph-name="conical-flask"
      unicode="&#xE184;"
      horiz-adv-x="1024" d="M438 531C441 537 442 542 442 548V762H582V548C582 542 583 537 586 531L670 390H354L438 531zM959 29L648 557V762H679A33 33 0 0 1 713 795C713 813 698 828 679 828H345C327 828 312 813 312 795C312 776 327 762 345 762H376V557L65 29C54 10 54 -12 64 -31C75 -49 94 -60 115 -60H908C930 -60 949 -49 960 -31C970 -12 970 10 959 29z" />
    <glyph glyph-name="content"
      unicode="&#xE22D;"
      horiz-adv-x="1024" d="M119 794C119 827 146 852 178 852H845C878 852 904 825 904 794V-25C905 -58 878 -84 845 -84H178C145 -84 119 -57 119 -26V794zM528 613V680H299V613H528zM528 499V565H299V499H528z" />
    <glyph glyph-name="copy"
      unicode="&#xE057;"
      horiz-adv-x="1024" d="M197 773A33 33 0 0 1 164 740V62H95A33 33 0 0 0 61 96V842A33 33 0 0 0 95 876H760A33 33 0 0 0 793 842V773H197zM265 706A33 33 0 0 1 231 673V-74A33 33 0 0 1 265 -108H686V169H963V673A33 33 0 0 1 929 706H265zM389 477V543H621V477H389zM621 364H389V431H621V364zM963 102L753 -107V102H963z" />
    <glyph glyph-name="copy-content"
      unicode="&#xE22C;"
      horiz-adv-x="1024" d="M164 740A33 33 0 0 0 197 773H793V842A33 33 0 0 1 760 876H95A33 33 0 0 1 61 842V96C61 77 76 62 95 62H164V740zM231 673A33 33 0 0 0 265 706H929A33 33 0 0 0 963 673L963 -74A33 33 0 0 0 929 -108H265A33 33 0 0 0 231 -74V673zM621 477V543H389V477H621zM621 364V431H389V364H621z" />
    <glyph glyph-name="corners"
      unicode="&#xE058;"
      horiz-adv-x="1024" d="M340 845H128C86 845 51 810 51 768V556H133V763H340V845zM891 556V763H684V845H896C938 845 973 810 973 768V556H891zM684 5H891V212H973V0C973 -42 938 -77 896 -77H684V5zM133 212V5H340V-77H128C86 -77 51 -42 51 0V212H133z" />
    <glyph glyph-name="corners-inverse"
      unicode="&#xE211;"
      horiz-adv-x="1024" d="M317 819V579H77V497H399V819H317zM707 819H625V497H947V579H707V819zM625 -51H707V189H947V271H625V-51zM317 -51V189H77V271H399V-51H317z" />
    <glyph glyph-name="coupon"
      unicode="&#xE05E;"
      horiz-adv-x="1024" d="M973 773H317L256 712L195 773H51C23 773 0 750 0 722V46C0 18 23 -5 51 -5H195L256 56L317 -5H973C1001 -5 1024 18 1024 46V722C1024 750 1001 773 973 773zM223 351V417H289V351H223zM289 489H223V556H289V489zM223 279H289V212H223V279z" />
    <glyph glyph-name="coupon-alt"
      unicode="&#xE059;"
      horiz-adv-x="1024" d="M51 773H973C1001 773 1024 750 1024 722V445H988C954 445 927 418 927 384S954 323 988 323H1024V46C1024 18 1001 -5 973 -5H51C23 -5 0 18 0 46V323H36C70 323 97 350 97 384S70 445 36 445H0V722C0 750 23 773 51 773zM271 643V592H323V643H271zM271 526V475H323V526H271zM271 358H323V410H271V358zM271 293V242H323V293H271zM271 125H323V176H271V125z" />
    <glyph glyph-name="coupon-bth"
      unicode="&#xE05A;"
      horiz-adv-x="1024" d="M644 283H628V358H628L629 358H644A38 38 0 0 0 644 283zM577 283V358H544V283H577zM629 409H628V484H628A38 38 0 0 0 629 409zM577 409V484H544V409H577zM87 788H937C969 788 996 762 996 729V39C996 6 969 -20 937 -20H87C55 -20 28 6 28 39V729C28 762 55 788 87 788zM211 -20H263V96H211V-20zM263 788H211V672H263V788zM263 210V327H211V210H263zM263 441V558H211V441H263zM577 193H628V232H644C693 232 733 272 733 321C733 350 719 376 697 392A88 88 0 0 1 716 447C716 496 677 536 628 536H628V575H577V536H493V232H577V193z" />
    <glyph glyph-name="coupon-pay"
      unicode="&#xE05B;"
      horiz-adv-x="1024" d="M629 405C610 405 596 392 596 371S610 337 629 337S662 350 662 371S648 405 629 405zM502 429C502 443 492 454 479 454H450V404H479C492 404 502 415 502 429zM239 -2H188V114H239V-2zM188 435V551H239V435H188zM726 435A3 3 0 0 0 729 440H765C767 440 769 439 770 437L803 356L835 437C836 439 838 440 840 440H876C878 440 880 438 879 436L805 250A6 6 0 0 0 800 246H764C762 246 760 248 761 251L781 301L726 435zM621 298C585 298 555 330 555 371C555 412 585 444 621 444C639 444 653 438 662 427V437C662 439 664 440 666 440H700C702 440 704 439 704 437V305C704 303 702 302 700 302H666A3 3 0 0 0 662 305V315C653 304 639 298 621 298zM405 308V489C405 493 408 496 412 496H479C517 496 547 466 547 429S517 363 479 363H449V308C449 305 447 302 443 302H412A7 7 0 0 0 405 308zM188 217V333H239V217H188zM947 770H239V654H188V770H77C44 770 18 743 18 711V57C18 25 44 -2 77 -2H947C980 -2 1006 25 1006 57V711C1006 743 980 770 947 770z" />
    <glyph glyph-name="coupon-percentage"
      unicode="&#xE05C;"
      horiz-adv-x="1024" d="M574 444A23 23 0 0 1 574 477V477A23 23 0 0 1 558 484C552 484 546 481 542 477C537 473 535 467 535 461S537 449 542 444C550 436 566 436 574 444zM703 285C709 283 715 283 721 285H721A23 23 0 0 1 734 298A23 23 0 0 1 721 328A23 23 0 0 1 712 330C709 330 706 329 703 328A23 23 0 0 1 691 298A23 23 0 0 1 703 285zM263 -20H211V96H263V-20zM211 788H263V672H211V788zM516 502C539 525 577 525 600 502C611 491 617 476 617 461C617 445 611 430 600 419C589 408 574 402 558 402C542 402 527 408 516 419A59 59 0 0 0 499 461C499 476 505 491 516 502zM544 267L519 292L726 500L752 475L544 267zM658 329C664 344 675 355 690 361C704 367 720 367 735 361C749 355 761 344 767 329C773 314 773 298 767 284A59 59 0 0 0 735 252C728 249 720 247 712 247C705 247 697 249 690 252C675 258 664 269 658 284A59 59 0 0 0 658 329zM211 210V327H263V210H211zM211 441V558H263V441H211zM937 788H87C55 788 28 762 28 729V39C28 6 55 -20 87 -20H937C969 -20 996 6 996 39V729C996 762 969 788 937 788z" />
    <glyph glyph-name="coupon-star"
      unicode="&#xE05D;"
      horiz-adv-x="1024" d="M263 -20H211V96H263V-20zM211 788H263V672H211V788zM589 445L635 539L681 445L785 430L710 357L728 254L635 303L543 254L560 357L485 430L589 445zM211 210V327H263V210H211zM211 441V558H263V441H211zM937 788H87C55 788 28 762 28 729V39C28 6 55 -20 87 -20H937C969 -20 996 6 996 39V729C996 762 969 788 937 788z" />
    <glyph glyph-name="credit-card"
      unicode="&#xE05F;"
      horiz-adv-x="1024" d="M942 774H82C50 774 24 748 24 716V572H1000V716C1000 748 974 774 942 774zM824 162V213H671V162H824zM89 521H1000V52C1000 20 974 -6 942 -6H82C50 -6 24 20 24 52V521H89z" />
    <glyph glyph-name="cube"
      unicode="&#xE060;"
      horiz-adv-x="1024" d="M945 606L916 589L887 572L538 370V-100C557 -97 575 -92 593 -82L876 82C926 110 957 164 957 221V549C957 569 952 587 945 606zM108 589L79 605C72 587 67 569 67 549V221C67 164 98 110 148 82L431 -82C449 -92 467 -97 486 -100V370L137 572L108 589zM891 633L920 650C907 665 893 678 876 688L593 852C543 881 481 881 431 852L148 688C131 678 117 665 105 650L133 633L162 616L512 415L862 616L891 633z" />
    <glyph glyph-name="data-branch"
      unicode="&#xE277;"
      horiz-adv-x="1024" d="M307 878A136 136 0 0 1 274 611V157A136 136 0 1 1 340 157V215C340 262 378 300 425 300H614A136 136 0 0 1 750 435V611A136 136 0 1 1 684 611V435A69 69 0 0 0 614 366H425C394 366 365 357 340 340V611A136 136 0 0 1 307 878z" />
    <glyph glyph-name="data-layer"
      unicode="&#xE1E4;"
      horiz-adv-x="1024" d="M268 885C344 885 406 823 406 747C406 671 344 609 268 609S130 671 130 747C130 823 192 885 268 885zM268 154C344 154 406 92 406 16S344 -122 268 -122S130 -61 130 16S192 154 268 154zM841 719C901 719 950 670 950 611C950 551 901 502 841 502C781 502 733 551 733 611C733 670 781 719 841 719zM841 250C901 250 950 201 950 141C950 81 901 33 841 33C781 33 733 81 733 141C733 201 781 250 841 250zM764 172L313 677L362 721L813 216L764 172zM813 535L364 65L316 111L765 581L813 535zM808 216V536H875V216H808zM758 593L363 715L383 779L777 657L758 593V593zM223 141V648H289V141H223zM786 71L378 -44L360 20L767 135L786 71z" />
    <glyph glyph-name="data-neuron"
      unicode="&#xE1E7;"
      horiz-adv-x="1024" d="M172 177C238 177 291 124 291 58C291 -7 238 -60 172 -60S54 -7 54 58C54 124 107 177 172 177zM377 873C442 873 495 820 495 755C495 689 442 636 377 636S259 689 259 755C259 820 312 873 377 873zM853 356C919 356 972 303 972 237C972 172 919 119 853 119C788 119 735 172 735 237C735 303 788 356 853 356zM786 558C754 558 728 584 728 616C728 648 754 674 786 674C818 674 844 648 844 616C844 584 818 558 786 558zM545 -66C513 -66 487 -40 487 -8C487 24 513 50 545 50C578 50 603 24 603 -8C603 -40 578 -66 545 -66zM115 373C83 373 57 399 57 431C57 463 83 489 115 489C147 489 173 463 173 431C173 399 147 373 115 373zM495 468C560 468 613 415 613 350S560 232 495 232C429 232 376 285 376 350S429 468 495 468zM434 675L488 447L423 431L370 660L434 675zM786 217L563 284L583 348L806 281L786 217zM444 266L259 93L214 141L398 314L444 266z" />
    <glyph glyph-name="data-pipeline"
      unicode="&#xE1E2;"
      horiz-adv-x="1024" d="M276 869C351 869 411 808 411 733C411 659 351 598 276 598C201 598 141 659 141 733C141 808 201 869 276 869zM286 171C361 171 421 110 421 36C421 -39 361 -99 286 -99C212 -99 151 -39 151 36C151 110 212 171 286 171zM670 700H404V767H670C792 767 912 687 918 566C925 442 812 347 684 347H365C334 347 317 325 317 308V138H250V308C250 370 306 413 365 413H684C784 413 856 485 852 563V563C848 636 770 700 670 700z" />
    <glyph glyph-name="database"
      unicode="&#xE16A;"
      horiz-adv-x="1024" d="M512 511C409 511 311 527 238 556C200 571 169 588 147 608C129 625 108 652 108 689C108 725 129 752 147 769C169 789 200 806 238 821C311 850 409 866 512 866C615 866 713 850 786 821C824 806 855 789 877 769C895 753 916 724 916 689C916 653 895 625 877 608C855 588 824 571 786 556C713 527 615 511 512 511zM512 445C623 445 729 462 811 494V495C854 511 889 532 916 556V420C864 381 703 312 512 312C321 312 160 381 108 420V556C135 531 171 511 214 494C295 462 401 445 512 445zM195 427C195 413 206 401 221 401S247 413 247 427S235 453 221 453S195 441 195 427zM512 246C321 246 160 314 108 353V220C160 181 321 113 512 113C703 113 864 181 916 220V353C864 314 703 246 512 246zM221 206C206 206 195 218 195 232S206 258 221 258S247 246 247 232S235 206 221 206zM108 154C160 115 321 46 512 46C703 46 864 115 916 154V87C916 -29 708 -91 512 -91S108 -29 108 87V154zM195 28C195 14 206 2 221 2S247 14 247 28S235 54 221 54S195 42 195 28z" />
    <glyph glyph-name="desktop"
      unicode="&#xE061;"
      horiz-adv-x="1024" d="M110 694V172A15 15 0 0 1 112 169A18 18 0 0 1 117 166H910A20 20 0 0 1 914 172L914 172V694A22 22 0 0 1 911 698A25 25 0 0 1 910 699H116A14 14 0 0 1 112 697A15 15 0 0 1 110 694zM54 755C68 769 89 781 115 781H916C930 781 941 776 949 772C957 767 965 761 971 754C982 742 996 722 996 697V171C996 149 985 128 974 115C963 102 943 84 916 84H115C92 84 71 96 57 109C43 122 28 143 28 171V697C28 721 41 742 54 755zM471 -61V126H553V-61H471zM718 -68H308V14H718V-68z" />
    <glyph glyph-name="document"
      unicode="&#xE063;"
      horiz-adv-x="1024" d="M119 782C119 815 146 842 179 842H845C878 842 905 815 905 782V189H641V-74H179C146 -74 119 -47 119 -14V782zM682 -68L898 148H682V-68z" />
    <glyph glyph-name="document-check"
      unicode="&#xE1F1;"
      horiz-adv-x="1024" d="M119 782C119 815 146 842 179 842H845C878 842 905 815 905 782V189H641V-74H179C146 -74 119 -47 119 -14V782zM682 -68L898 148H682V-68zM477 371L371 470L336 432L477 301L688 498L653 536L477 371z" />
    <glyph glyph-name="document-eye"
      unicode="&#xE1E9;"
      horiz-adv-x="1024" d="M256 640H51L256 845V640zM492 -56H97C67 -56 36 -31 36 5V589H307V860H763C794 860 824 835 824 799V302C799 307 773 312 748 312C614 312 502 230 440 118L410 67L435 20C451 -10 471 -36 492 -56zM497 82C548 179 640 241 748 241C850 241 942 179 998 82L1009 67L998 51C947 -46 855 -108 748 -108C645 -108 548 -46 497 51L486 67L497 82zM691 67C691 97 717 123 748 123C778 123 804 97 804 67C804 36 778 10 748 10C712 10 691 36 691 67zM748 164C696 164 650 118 650 67C650 15 696 -31 748 -31C799 -31 845 15 845 67C845 123 799 164 748 164z" />
    <glyph glyph-name="dots-2x3"
      unicode="&#xE29B;"
      horiz-adv-x="1024" d="M282 256A77 77 0 1 1 128 256A77 77 0 0 1 282 256zM282 512A77 77 0 1 1 128 512A77 77 0 0 1 282 512zM512 333A77 77 0 1 0 512 179A77 77 0 0 0 512 333zM589 512A77 77 0 1 1 435 512A77 77 0 0 1 589 512zM819 333A77 77 0 1 0 819 179A77 77 0 0 0 819 333zM896 512A77 77 0 1 1 742 512A77 77 0 0 1 896 512z" />
    <glyph glyph-name="dots-3x2"
      unicode="&#xE29C;"
      horiz-adv-x="1024" d="M384 614A77 77 0 1 1 384 768A77 77 0 0 1 384 614zM640 614A77 77 0 1 1 640 768A77 77 0 0 1 640 614zM461 384A77 77 0 1 0 307 384A77 77 0 0 0 461 384zM640 307A77 77 0 1 1 640 461A77 77 0 0 1 640 307zM461 77A77 77 0 1 0 307 77A77 77 0 0 0 461 77zM640 0A77 77 0 1 1 640 153A77 77 0 0 1 640 0z" />
    <glyph glyph-name="dots-3x3"
      unicode="&#xE2A8;"
      horiz-adv-x="1024" d="M206 766A77 77 0 1 1 206 613A77 77 0 0 1 206 766zM512 766A77 77 0 1 1 512 613A77 77 0 0 1 512 766zM818 766A77 77 0 1 1 818 613A77 77 0 0 1 818 766zM206 461A77 77 0 1 1 206 307A77 77 0 0 1 206 461zM512 461A77 77 0 1 1 512 307A77 77 0 0 1 512 461zM818 461A77 77 0 1 1 818 307A77 77 0 0 1 818 461zM512 155A77 77 0 1 1 512 2A77 77 0 0 1 512 155zM206 155A77 77 0 1 1 206 2A77 77 0 0 1 206 155zM818 155A77 77 0 1 1 818 2A77 77 0 0 1 818 155z" />
    <glyph glyph-name="download"
      unicode="&#xE064;"
      horiz-adv-x="1024" d="M783 518L553 288V803H471V288L241 518L184 460L512 132L840 460L783 518zM904 47H120V-35H904V47z" />
    <glyph glyph-name="earth"
      unicode="&#xE065;"
      horiz-adv-x="1024" d="M61 512A474 474 0 0 1 44 384C44 340 50 297 61 256H332A1274 1274 0 0 0 325 384C325 427 327 470 332 512H61zM79 205A474 474 0 0 1 433 -82A166 166 0 0 0 432 -80C410 -50 391 -8 375 39A1002 1002 0 0 0 338 205H79zM601 -82A474 474 0 0 1 956 205H696A1002 1002 0 0 0 659 39C644 -8 625 -50 603 -80L601 -82zM973 256A474 474 0 0 1 991 384C991 428 985 471 973 512H703C707 470 709 427 709 384C709 341 707 298 703 256H973zM956 563A474 474 0 0 1 601 850L602 848C625 818 644 776 659 729C675 680 688 623 696 563H956zM433 850A474 474 0 0 1 79 563H338A1005 1005 0 0 0 375 729C391 776 410 818 432 848L433 850H433zM390 563C398 618 410 669 424 713C438 758 455 794 473 818C491 842 506 850 517 850C528 850 543 842 561 818C579 794 596 758 610 713C625 669 636 618 645 563H390zM424 55A941 941 0 0 0 390 205H645A941 941 0 0 0 610 55C596 10 579 -26 561 -50C543 -74 528 -82 517 -82C506 -82 491 -74 473 -50C455 -26 438 10 424 55V55zM376 384C376 341 379 298 383 256H651C656 298 658 341 658 384C658 427 656 470 651 512H383C379 470 376 427 376 384z" />
    <glyph glyph-name="easy-pass"
      unicode="&#xE066;"
      horiz-adv-x="1024" d="M877 272L1024 210L1000 153L951 173C984 111 989 53 964 7C935 -49 869 -79 778 -79C772 -79 767 -78 762 -78C670 -75 564 -43 462 11C340 76 241 166 194 253L28 323A47 47 0 0 0 3 348A45 45 0 0 0 3 383L189 819A46 46 0 0 0 249 843L872 578C883 573 893 564 897 553A44 44 0 0 0 897 519L694 41L665 53C457 141 250 278 295 395C299 405 304 415 309 425C280 414 254 399 241 378C226 356 227 327 244 291C283 212 376 127 491 66C585 16 682 -13 764 -16C837 -19 890 0 909 36C924 65 918 105 893 150L873 102L815 126L877 272zM395 619L272 671L253 627L377 575L395 619z" />
    <glyph glyph-name="edit"
      unicode="&#xE068;"
      horiz-adv-x="1024" d="M926 -57H98V9H926V-57zM846 635L642 839L97 294V90H301L846 635z" />
    <glyph glyph-name="edit-alt"
      unicode="&#xE067;"
      horiz-adv-x="1024" d="M857 553L533 230H385V378L711 705L744 738L778 771H189C142 771 104 733 104 687V36C104 -10 142 -48 189 -48H839C885 -48 923 -10 923 36V620L890 587L857 553zM912 844L839 771L806 738L773 704L429 360V274H515L857 615L890 648L923 682L999 757L912 844z" />
    <glyph glyph-name="editor-indent"
      unicode="&#xE069;"
      horiz-adv-x="1024" d="M205 208L393 379L205 551V208zM871 653H153V735H871V653zM871 33H153V115H871V33zM871 447H513V529H871V447zM871 240H513V322H871V240z" />
    <glyph glyph-name="editor-outdent"
      unicode="&#xE06A;"
      horiz-adv-x="1024" d="M341 208L154 379L341 551V208zM871 653H153V735H871V653zM871 33H153V115H871V33zM871 447H513V529H871V447zM871 240H513V322H871V240z" />
    <glyph glyph-name="ellipsis-horizontal"
      unicode="&#xE06B;"
      horiz-adv-x="1024" d="M206 461C249 461 283 426 283 384S249 307 206 307C190 307 176 312 163 320C159 323 155 326 152 330A77 77 0 0 0 129 384C129 405 138 424 152 438C155 442 159 445 163 448C176 456 190 461 206 461zM589 384C589 426 554 461 512 461S435 426 435 384S470 307 512 307S589 342 589 384zM741 384C741 342 775 307 818 307C860 307 895 342 895 384S860 461 818 461C775 461 741 426 741 384z" />
    <glyph glyph-name="ellipsis-vertical"
      unicode="&#xE06C;"
      horiz-adv-x="1024" d="M512 461C470 461 435 426 435 384S470 307 512 307S589 342 589 384S554 461 512 461zM512 613C554 613 589 647 589 690C589 732 554 767 512 767S435 732 435 690C435 647 470 613 512 613zM512 155C470 155 435 121 435 78C435 62 440 48 448 35C451 31 454 27 458 24C472 10 491 1 512 1C533 1 552 10 566 24C570 27 573 31 576 35C584 48 589 62 589 78C589 121 554 155 512 155z" />
    <glyph glyph-name="envelope"
      unicode="&#xE06D;"
      horiz-adv-x="1024" d="M86 741A110 110 0 0 0 166 776H858A110 110 0 0 0 938 741L512 386L86 741zM57 679A111 111 0 0 1 56 666V102C56 42 106 -8 166 -8H858C918 -8 968 42 968 102V666C968 670 967 674 967 679L533 317A33 33 0 0 0 491 317L57 679z" />
    <glyph glyph-name="equalizer"
      unicode="&#xE06E;"
      horiz-adv-x="1024" d="M353 -1V225H435V-1H353zM589 -1V769H671V-1H589zM118 -1V559H200V-1H118zM824 -1V471H906V-1H824z" />
    <glyph glyph-name="exchange"
      unicode="&#xE06F;"
      horiz-adv-x="1024" d="M360 480L275 565H870V647H275L360 733L302 790L118 606L302 422L360 480zM722 346L664 288L749 203H154V121H749L664 35L722 -22L906 162L722 346z" />
    <glyph glyph-name="exclamation-circle"
      unicode="&#xE070;"
      horiz-adv-x="1024" d="M38 384A474 474 0 1 0 986 384A474 474 0 0 0 38 384zM479 301H545L556 602H468L479 301zM512 259A46 46 0 1 1 512 166A46 46 0 0 1 512 259z" />
    <glyph glyph-name="exclamation-octagon"
      unicode="&#xE071;"
      horiz-adv-x="1024" d="M331 853A33 33 0 0 1 307 843L53 587A33 33 0 0 1 43 564V204C43 195 47 187 53 181L307 -75A33 33 0 0 1 331 -85H693A33 33 0 0 1 717 -75L971 181A33 33 0 0 1 981 204V564A33 33 0 0 1 971 587L717 843A33 33 0 0 1 693 853H331zM512 244C535 244 554 225 554 202C554 179 535 160 512 160C489 160 470 179 470 202C470 225 489 244 512 244zM478 609H545V326H478V609z" />
    <glyph glyph-name="exclamation-triangle"
      unicode="&#xE072;"
      horiz-adv-x="1024" d="M28 -2C17 26 20 58 36 82C140 262 191 350 241 436L243 439C292 523 341 607 439 777L440 778L441 779C458 804 484 820 513 820C542 820 569 804 585 778L586 778L586 777C684 608 733 524 781 440C832 352 883 265 988 83C1001 62 1008 31 997 2C991 -14 980 -28 964 -38C948 -47 928 -52 906 -52H107C69 -52 40 -31 28 -2zM511 174A43 43 0 1 1 511 88A43 43 0 0 1 511 174zM478 538V254H545V538H478z" />
    <glyph glyph-name="exclamation-triangle-clock"
      unicode="&#xE278;"
      horiz-adv-x="1024" d="M28 90A87 87 0 0 0 35 168A57504 57504 0 0 0 216 479L217 482C261 557 304 631 390 780L391 781L392 782C407 805 432 820 459 820C486 820 510 805 526 782L526 781L527 780C612 632 656 557 698 483L699 483L745 402A264 264 0 0 1 536 44H101C65 44 39 63 28 90zM432 333H483L488 538H427L432 333zM458 292A38 38 0 1 1 458 215A38 38 0 0 1 458 292zM558 141A223 223 0 1 0 1004 141A223 223 0 0 0 558 141zM812 251H750V125L843 62L877 112L812 157V251z" />
    <glyph glyph-name="exclamation-triangle-times-circle"
      unicode="&#xE279;"
      horiz-adv-x="1024" d="M28 90A87 87 0 0 0 35 168C126 326 171 404 216 479L217 482C261 557 304 630 390 780L391 781L392 782C407 805 432 820 459 820C486 820 510 805 526 782L526 781L527 780C612 632 656 557 699 483L699 483L745 402A264 264 0 0 1 536 44H101C65 44 39 63 28 90zM432 333H483L488 538H427L432 333zM458 292A38 38 0 1 1 458 215A38 38 0 0 1 458 292zM558 141A223 223 0 1 0 1004 141A223 223 0 0 0 558 141zM683 83L723 43L781 101L839 43L879 83L821 141L879 199L839 239L781 181L723 239L683 199L741 141L683 83z" />
    <glyph glyph-name="expand-screen"
      unicode="&#xE269;"
      horiz-adv-x="1024" d="M69 691C69 752 118 801 179 801H794C854 801 904 752 904 691V404H589C521 404 466 349 466 282V69H179C118 69 69 118 69 179V691zM171 682L232 486C235 475 249 471 257 480L302 524L423 403L470 450L349 571L393 615C401 623 397 637 386 640L190 702C178 705 167 694 171 682zM589 353C549 353 517 321 517 282V26C517 -14 549 -46 589 -46H947C987 -46 1019 -14 1019 26V282C1019 321 987 353 947 353H589z" />
    <glyph glyph-name="eye"
      unicode="&#xE074;"
      horiz-adv-x="1024" d="M512 199C410 199 327 282 327 384C327 486 410 569 512 569S696 486 696 384C696 282 613 199 512 199zM1014 400C907 600 715 725 512 725C309 725 116 600 9 400L1 384L9 368C116 168 309 43 512 43C715 43 907 168 1014 368L1023 384L1014 400zM512 517C438 517 378 458 378 384C378 310 438 251 512 251S645 310 645 384C645 458 585 517 512 517z" />
    <glyph glyph-name="eye-slash"
      unicode="&#xE073;"
      horiz-adv-x="1024" d="M422 474C470 522 554 522 602 474L649 521C576 594 448 594 375 521C339 485 319 436 319 384C319 333 339 284 375 248L399 271L403 275L422 295C398 319 385 351 385 384C385 418 398 450 422 474zM819 616L801 598L782 580L339 137L319 117L299 97L171 -31L135 5L252 122C155 178 71 263 13 372L7 384L13 396C119 596 311 719 512 719C604 719 694 692 775 645L907 777L943 741L819 616zM871 575C926 526 974 466 1011 396L1017 384L1011 372C905 173 713 50 512 50C463 50 415 57 368 71L389 93L410 114L835 538L853 557L871 575z" />
    <glyph glyph-name="face-angry"
      unicode="&#xE274;"
      horiz-adv-x="1024" d="M38 384C38 646 250 858 512 858C774 858 986 646 986 384S774 -90 512 -90C250 -90 38 122 38 384zM689 587A26 26 0 1 1 664 632L602 596A26 26 0 1 1 627 551L689 587zM409 173C428 196 468 215 517 215C566 215 606 196 626 173A26 26 0 0 1 665 206C633 244 577 266 517 266S401 244 369 206A26 26 0 0 1 409 173zM344 588L395 552A26 26 0 0 1 424 594L373 630A26 26 0 1 1 344 588zM319 425C319 397 342 374 370 374C398 374 421 397 421 425S398 476 370 476C342 476 319 453 319 425zM603 425C603 397 626 374 654 374C682 374 705 397 705 425S682 476 654 476C626 476 603 453 603 425z" />
    <glyph glyph-name="face-laugh"
      unicode="&#xE272;"
      horiz-adv-x="1024" d="M38 384C38 646 250 858 512 858S986 646 986 384S774 -90 512 -90S38 122 38 384zM319 471C319 443 342 420 370 420C398 420 421 443 421 471S398 522 370 522C342 522 319 500 319 471zM654 522C626 522 603 500 603 471S626 420 654 420C682 420 705 443 705 471S682 522 654 522zM330 298V298L330 296C330 294 330 292 331 290A183 183 0 0 1 333 271C336 256 341 236 353 215C364 194 382 173 408 157C435 141 469 131 512 131C555 131 589 141 616 157C642 173 660 194 671 215C683 236 688 256 691 271A182 182 0 0 1 693 290A123 123 0 0 1 694 298A26 26 0 0 1 668 324H356A26 26 0 0 1 330 298z" />
    <glyph glyph-name="face-meh"
      unicode="&#xE273;"
      horiz-adv-x="1024" d="M38 384C38 646 250 858 512 858S986 646 986 384S774 -90 512 -90S38 122 38 384zM319 471C319 443 342 420 370 420C398 420 421 443 421 471S398 522 370 522C342 522 319 500 319 471zM654 522C626 522 603 500 603 471S626 420 654 420C682 420 705 443 705 471S682 522 654 522zM389 282A26 26 0 0 1 389 230H645A26 26 0 1 1 645 282H389z" />
    <glyph glyph-name="file"
      unicode="&#xE076;"
      horiz-adv-x="1024" d="M119 782C119 815 146 842 179 842H845C878 842 905 815 905 782V189H641V-74H179C146 -74 119 -47 119 -14V782zM682 -68L898 148H682V-68zM512 625V676H282V625H512zM512 512V563H282V512H512z" />
    <glyph glyph-name="file-blank"
      unicode="&#xE23B;"
      horiz-adv-x="1024" d="M905 -14C905 -47 878 -74 845 -74H179C146 -74 119 -47 119 -14V579H383V842H845C878 842 905 815 905 782V-14zM342 836L126 620H342V836z" />
    <glyph glyph-name="file-certificate"
      unicode="&#xE27A;"
      horiz-adv-x="1024" d="M154 750A84 84 0 0 1 69 666V128C69 81 107 44 154 44H482L482 59L458 84A118 118 0 0 0 458 249L482 274L482 308A118 118 0 0 0 599 425L633 425L658 449A118 118 0 0 0 823 449L847 425L882 425C889 425 897 424 904 422V666A84 84 0 0 1 819 750H154zM461 405H230V472H461V405zM230 520V586H461V520H230zM787 413A67 67 0 0 1 694 413L654 374L599 373A67 67 0 0 1 533 308L533 252L494 213A67 67 0 0 1 494 120L533 80L533 25A67 67 0 0 1 599 -41L654 -41L694 -80A67 67 0 0 1 787 -80L826 -41L882 -41A67 67 0 0 1 947 25L948 80L987 120A67 67 0 0 1 987 213L948 252L947 308A67 67 0 0 1 882 373L826 374L787 413zM857 223L722 87L627 182L663 218L722 160L821 259L857 223z" />
    <glyph glyph-name="file-clock"
      unicode="&#xE27B;"
      horiz-adv-x="1024" d="M791 394A289 289 0 0 1 572 -84H178C145 -84 119 -57 119 -26V794C119 827 146 852 178 852H845C878 852 904 825 904 794V371A288 288 0 0 1 791 394zM528 499V565H298V499H528zM298 613H528V680H298V613zM791 328A223 223 0 1 1 791 -118A223 223 0 0 1 791 328zM822 215V121L888 77L853 26L760 89V215H822z" />
    <glyph glyph-name="file-csv"
      unicode="&#xE233;"
      horiz-adv-x="1024" d="M410 179C410 207 433 230 461 230H922C950 230 973 207 973 179V-77C973 -105 950 -128 922 -128H461C433 -128 410 -105 410 -77V179zM631 26C632 27 631 29 628 29L593 39C591 39 590 38 589 36C585 25 576 21 565 21C550 21 538 33 538 52C538 70 550 82 565 82C574 82 581 79 585 71C587 70 588 69 590 70L625 79C628 80 628 81 628 83C617 109 597 123 565 123C525 123 494 94 494 52C494 9 522 -20 565 -20C598 -20 623 -1 631 26zM751 24C751 47 739 59 715 68L704 71C692 75 688 78 688 81C688 85 692 87 696 87C700 87 705 86 708 78C709 76 711 75 713 75L745 84C748 85 748 87 748 89C739 113 720 123 697 123C668 123 645 105 645 79C645 58 658 43 679 36L694 31C704 27 708 25 708 21C708 18 704 16 698 16C690 16 684 18 680 27C679 29 678 29 676 29L644 21C642 21 641 19 642 17C650 -7 670 -20 697 -20C728 -20 751 -2 751 24zM809 -17H838C840 -17 841 -16 842 -15L895 117C896 119 895 121 892 121H851C849 121 848 120 847 118L824 45L801 118C800 120 799 121 797 121H755C753 121 751 119 752 117L806 -15C806 -16 808 -17 809 -17zM461 271H905V782C905 815 878 842 845 842H383V579H119V-14C119 -47 146 -74 179 -74H369V179C369 230 410 271 461 271zM342 836L126 620H342V836z" />
    <glyph glyph-name="file-exe"
      unicode="&#xE238;"
      horiz-adv-x="1024" d="M512 271H905V782C905 815 878 842 845 842H383V579H119V-14C119 -47 146 -74 179 -74H420V179C420 230 461 271 512 271zM342 836L126 620H342V836zM461 179C461 207 484 230 512 230H922C950 230 973 207 973 179V-77C973 -105 950 -128 922 -128H512C484 -128 461 -105 461 -77V179zM637 -17C639 -17 640 -16 640 -14V15C640 17 639 18 637 18H580V36H627C629 36 630 37 630 39V66C630 68 629 70 627 70H580V85H634C637 85 638 87 638 89V117C638 119 637 121 634 121H541C539 121 538 119 538 117V-14C538 -16 539 -17 541 -17H637zM692 -17C694 -17 695 -16 696 -15L716 21L735 -15C736 -16 738 -17 739 -17H782C784 -17 785 -16 784 -13L743 53L781 116C782 119 782 121 779 121H739C737 121 736 120 735 118L718 86L700 118C699 120 698 121 696 121H655C652 121 651 119 652 116L690 53L650 -13C648 -16 649 -17 652 -17H692zM802 -17H898C900 -17 901 -16 901 -14V15C901 17 900 18 898 18H841V36H888C890 36 891 37 891 39V66C891 68 890 70 888 70H841V85H896C898 85 899 87 899 89V117C899 119 898 121 896 121H802C800 121 799 119 799 117V-14C799 -16 800 -17 802 -17z" />
    <glyph glyph-name="file-gif"
      unicode="&#xE235;"
      horiz-adv-x="1024" d="M563 271H905V782C905 815 878 842 845 842H383V579H119V-14C119 -47 146 -74 179 -74H471V179C471 230 512 271 563 271zM342 836L126 620H342V836zM512 179C512 207 535 230 563 230H922C950 230 973 207 973 179V-77C973 -105 950 -128 922 -128H563C535 -128 512 -105 512 -77V179zM721 42V58C721 60 719 62 717 62H657C655 62 654 60 654 58V37C654 35 655 33 657 33H678C676 25 667 21 654 21C638 21 626 31 626 51S638 82 654 82C662 82 670 79 674 73C676 71 677 71 679 71L715 81C717 81 718 83 717 85C707 110 685 123 654 123C613 123 582 94 582 52C582 9 610 -20 653 -20C697 -20 721 7 721 42zM781 -17C783 -17 784 -16 784 -14V117C784 119 783 121 781 121H745C743 121 741 119 741 117V-14C741 -16 743 -17 745 -17H781zM812 -17H848C850 -17 851 -16 851 -14V27H893C895 27 897 28 897 31V61C897 63 895 64 893 64H851V83H903C905 83 906 85 906 87V117C906 119 905 121 903 121H812C810 121 808 119 808 117V-14C808 -16 810 -17 812 -17z" />
    <glyph glyph-name="file-jpg"
      unicode="&#xE236;"
      horiz-adv-x="1024" d="M512 271H905V782C905 815 878 842 845 842H383V579H119V-14C119 -47 146 -74 179 -74H420V179C420 230 461 271 512 271zM342 836L126 620H342V836zM461 179C461 207 484 230 512 230H922C950 230 973 207 973 179V-77C973 -105 950 -128 922 -128H512C484 -128 461 -105 461 -77V179zM841 -20C885 -20 909 7 909 42V58C909 60 908 62 906 62H846C844 62 842 60 842 58V37C842 35 844 33 846 33H866C864 25 855 21 843 21C826 21 814 31 814 51C814 72 826 82 843 82C850 82 858 79 863 73C864 71 865 71 867 71L903 81C905 81 906 83 905 85C896 110 873 123 842 123C801 123 770 94 770 52C770 9 799 -20 841 -20zM620 36V117C620 119 618 121 616 121H545C543 121 542 119 542 117V84C542 82 543 80 545 80H577V38C577 28 574 21 565 21C559 21 557 24 555 29C554 31 553 32 550 31L519 23C517 22 516 21 517 19C523 -4 538 -20 567 -20C598 -20 620 -5 620 36zM682 -17C684 -17 685 -16 685 -14V16H696C736 16 757 33 757 68C757 103 736 121 696 121H647C644 121 643 119 643 117V-14C643 -16 644 -17 647 -17H682zM713 68C713 82 706 87 695 87H685V49H695C706 49 713 54 713 68z" />
    <glyph glyph-name="file-json"
      unicode="&#xE234;"
      horiz-adv-x="1024" d="M905 271H358C307 271 266 230 266 179V-74H179C146 -74 119 -47 119 -14V579H383V842H845C878 842 905 815 905 782V271zM126 620L342 836V620H126zM681 21C664 21 652 34 652 52C652 70 664 82 681 82C697 82 709 70 709 52C709 34 697 21 681 21zM358 230C330 230 307 207 307 179V-77C307 -105 330 -128 358 -128H922C950 -128 973 -105 973 -77V179C973 207 950 230 922 230H358zM596 24C596 -2 574 -20 542 -20C515 -20 495 -7 487 17C486 19 487 21 489 21L521 29C523 29 524 29 525 27C529 18 535 16 544 16C549 16 553 18 553 21C553 25 549 27 540 31L524 36C503 43 490 58 490 79C490 105 514 123 542 123C565 123 584 113 593 89C594 87 593 85 591 84L558 75C556 75 554 76 554 78C550 86 545 87 541 87C537 87 533 85 533 81C533 78 537 75 549 71L560 68C584 59 596 47 596 24zM473 36C473 -5 451 -20 420 -20C391 -20 376 -4 370 19C369 21 370 22 372 23L403 31C406 32 407 31 408 29C410 24 412 21 418 21C427 21 430 28 430 38V80H398C396 80 395 82 395 84V117C395 119 396 121 398 121H469C471 121 473 119 473 117V36zM681 -20C639 -20 608 9 608 52C608 94 639 123 681 123C722 123 753 94 753 52C753 9 722 -20 681 -20zM811 -17H777C775 -17 774 -16 774 -14V117C774 119 775 121 777 121H815C817 121 818 120 819 118L858 48V117C858 119 859 121 862 121H896C898 121 899 119 899 117V-14C899 -16 898 -17 896 -17H858A4 4 0 0 0 854 -15L815 56V-14C815 -16 813 -17 811 -17z" />
    <glyph glyph-name="file-log"
      unicode="&#xE244;"
      horiz-adv-x="1024" d="M461 271H905V782C905 815 878 842 845 842H383V579H119V-14C119 -47 146 -74 179 -74H369V179C369 230 410 271 461 271zM126 620H342V836L126 620zM668 22C652 22 640 34 640 52C640 70 652 81 668 81S696 70 696 52C696 34 684 22 668 22zM461 230C433 230 410 207 410 179V-77C410 -105 433 -128 461 -128H922C950 -128 973 -105 973 -77V179C973 207 950 230 922 230H461zM668 -20C627 -20 596 9 596 52C596 94 627 123 668 123C709 123 740 94 740 52C740 9 709 -20 668 -20zM490 -17C488 -17 486 -16 486 -14V117C486 119 488 120 490 120H526C528 120 529 119 529 117V23H585C587 23 588 22 588 20V-14C588 -16 587 -17 585 -17H490zM896 42C896 7 872 -20 828 -20C786 -20 758 9 758 52C758 94 788 123 829 123C860 123 883 109 892 85C893 83 892 81 890 81L854 71C852 71 851 71 850 73C845 79 837 82 830 82C813 82 802 72 802 51C802 31 814 21 830 21C842 21 851 25 853 33H833C831 33 830 35 830 37V58C830 60 831 61 833 61H893C895 61 896 60 896 58V42z" />
    <glyph glyph-name="file-pdf"
      unicode="&#xE23A;"
      horiz-adv-x="1024" d="M512 271H905V782C905 815 878 842 845 842H383V579H119V-14C119 -47 146 -74 179 -74H420V179C420 230 461 271 512 271zM342 836L126 620H342V836zM601 68C601 82 593 87 583 87H572V49H583C593 49 601 54 601 68zM748 52C748 73 737 81 717 81H705V22H717C737 22 748 30 748 52zM461 179C461 207 484 230 512 230H922C950 230 973 207 973 179V-77C973 -105 950 -128 922 -128H512C484 -128 461 -105 461 -77V179zM569 -17C571 -17 572 -16 572 -14V16H583C623 16 644 33 644 68C644 103 623 121 583 121H534C532 121 530 119 530 117V-14C530 -16 532 -17 534 -17H569zM721 -17C765 -17 791 6 791 52C791 97 765 121 721 121H666C664 121 663 119 663 117V-14C663 -16 664 -17 666 -17H721zM815 -17H851C853 -17 855 -16 855 -14V27H897C899 27 900 28 900 30V61C900 63 899 64 897 64H855V83H906C908 83 909 85 909 87V117C909 119 908 121 906 121H815C813 121 812 119 812 117V-14C812 -16 813 -17 815 -17z" />
    <glyph glyph-name="file-png"
      unicode="&#xE237;"
      horiz-adv-x="1024" d="M461 271H905V782C905 815 878 842 845 842H383V579H119V-14C119 -47 146 -74 179 -74H369V179C369 230 410 271 461 271zM342 836L126 620H342V836zM555 68C555 82 547 87 536 87H526V49H536C547 49 555 54 555 68zM410 179C410 207 433 230 461 230H922C950 230 973 207 973 179V-77C973 -105 950 -128 922 -128H461C433 -128 410 -105 410 -77V179zM834 -20C877 -20 901 7 901 42V58C901 60 900 62 898 62H838C836 62 835 60 835 58V37C835 35 836 33 838 33H858C857 25 848 21 835 21C819 21 807 31 807 51C807 72 818 82 835 82C843 82 851 79 855 73C856 71 858 71 860 71L895 81C897 81 898 83 898 85C888 110 865 123 834 123C794 123 763 94 763 52C763 9 791 -20 834 -20zM523 -17C525 -17 526 -16 526 -14V16H537C577 16 598 33 598 68C598 103 577 121 537 121H488C486 121 484 119 484 117V-14C484 -16 486 -17 488 -17H523zM654 -17C656 -17 658 -16 658 -14V56L697 -15A4 4 0 0 1 701 -17H739C741 -17 742 -16 742 -14V117C742 119 741 121 739 121H704C702 121 701 119 701 117V48L662 118C661 120 659 121 658 121H620C618 121 617 119 617 117V-14C617 -16 618 -17 620 -17H654z" />
    <glyph glyph-name="file-tsv"
      unicode="&#xE232;"
      horiz-adv-x="1024" d="M512 271H905V782C905 815 878 842 845 842H383V579H119V-14C119 -47 146 -74 179 -74H420V179C420 230 461 271 512 271zM342 836L126 620H342V836zM461 179C461 207 484 230 512 230H922C950 230 973 207 973 179V-77C973 -105 950 -128 922 -128H512C484 -128 461 -105 461 -77V179zM767 24C767 47 755 59 731 68L720 71C707 75 704 78 704 81C704 85 708 87 712 87C716 87 720 86 724 78C725 76 726 75 728 75L761 84C763 85 764 87 763 89C755 113 736 123 712 123C684 123 661 105 661 79C661 58 674 43 694 36L710 31C720 27 724 25 724 21C724 18 720 16 714 16C705 16 699 18 696 27C695 29 693 29 691 29L660 21C658 21 657 19 658 17C666 -7 686 -20 712 -20C744 -20 767 -2 767 24zM606 -17C608 -17 609 -16 609 -14V80H646C648 80 650 82 650 84V117C650 119 648 121 646 121H529C527 121 526 119 526 117V84C526 82 527 80 529 80H566V-14C566 -16 568 -17 570 -17H606zM825 -17H854C856 -17 857 -16 858 -15L911 117C912 119 910 121 908 121H867C865 121 863 120 863 118L840 45L817 118C816 120 814 121 813 121H771C768 121 767 119 768 117L821 -15C822 -16 823 -17 825 -17z" />
    </font>
</defs>
</svg>
